osu file format v14

[General]
AudioFilename: audio.mp3
AudioLeadIn: 0
PreviewTime: 61014
Countdown: 0
SampleSet: Soft
StackLeniency: 0.7
Mode: 0
LetterboxInBreaks: 0
WidescreenStoryboard: 1

[Editor]
DistanceSpacing: 1
BeatDivisor: 4
GridSize: 32
TimelineZoom: 2.7

[Metadata]
Title:Kibou no Uta (TV Size)
TitleUnicode:希望の唄 (TV Size)
Artist:ULTRA TOWER
ArtistUnicode:ULTRA TOWER
Creator:Cayssa
Version:Shokugeki
Source:食戟のソーマ
Tags:wolf3211 bigfrog SirMirai Anime Japanese op opening 1 Food Wars shokugeki no soma nakiri erina yukihira souma
BeatmapID:2331975
BeatmapSetID:1116303

[Difficulty]
HPDrainRate:6
CircleSize:3.8
OverallDifficulty:8
ApproachRate:9
SliderMultiplier:1.65
SliderTickRate:1

[Events]
//Background and Video events
0,0,"Rough Diamonds.jpg",0,0
Video,0,"Shokugeki.mp4"
//Break Periods
//Storyboard Layer 0 (Background)
//Storyboard Layer 1 (Fail)
//Storyboard Layer 2 (Pass)
//Storyboard Layer 3 (Foreground)
//Storyboard Layer 4 (Overlay)
//Storyboard Sound Samples

[TimingPoints]
435,338.983050847458,4,2,1,35,1,0
1451,-153.846153846154,4,2,1,35,0,0
3146,-125,4,2,1,60,0,0
13994,-111.111111111111,4,2,1,60,0,0
19418,-100,4,2,1,60,0,0
19587,-100,4,2,1,40,0,0
20096,-100,4,2,1,50,0,0
20435,-100,4,2,1,60,0,0
22104,338.983050847458,4,2,1,70,1,0
27527,-111.111111111111,4,2,1,50,0,0
49137,-111.111111111111,4,2,1,5,0,0
49232,338.983050847458,4,2,1,50,1,0
49232,-111.111111111111,4,2,1,50,0,0
61446,338.983050847458,4,2,1,50,1,0
61446,-133.333333333333,4,2,1,50,0,0
62801,-90.9090909090909,4,2,1,70,0,1
75259,-90.9090909090909,4,2,1,5,0,1
75344,-90.9090909090909,4,2,1,70,0,1
81779,338.983050847458,4,2,1,50,1,0
85592,-100,4,2,1,50,0,0
88897,-100,4,2,1,5,0,0

[Colours]
Combo1 : 251,179,224
Combo2 : 255,213,128
Combo3 : 240,135,100
Combo4 : 176,140,236

[HitObjects]
124,102,1451,6,0,P|121:75|120:49,1,53.6249975452424,2|0,0:0|0:0,0:0:0:0:
77,168,1790,2,0,P|128:182|190:150,1,107.249995090485,2|2,0:0|0:0,0:0:0:0:
216,97,2299,1,0,0:0:0:0:
216,97,2468,2,0,P|248:100|281:103,1,53.6249975452424,2|0,0:0|0:0,0:0:0:0:
384,58,2807,2,0,P|351:61|318:64,1,53.6249975452424,2|0,0:0|0:0,0:0:0:0:
278,190,3146,6,0,L|289:322,1,132,2|0,0:0|0:0,0:0:0:0:
194,350,3655,1,0,0:0:0:0:
194,350,3824,2,0,L|128:344,1,66
91,247,4163,2,0,L|157:253,1,66,2|0,0:0|0:0,0:0:0:0:
354,325,4502,6,0,L|288:321,1,66,2|0,0:0|0:0,0:0:0:0:
406,244,4841,2,0,L|471:248,1,66,2|0,0:0|0:0,0:0:0:0:
314,228,5180,2,0,P|294:162|328:98,1,132,2|0,0:0|0:0,0:0:0:0:
380,171,5689,1,0,0:0:0:0:
220,93,5858,6,0,P|148:87|80:134,1,132,2|0,0:0|0:0,0:0:0:0:
30,178,6367,1,0,0:0:0:0:
30,178,6536,2,0,P|25:210|25:243,1,66
114,312,6875,2,0,P|113:279|109:246,1,66,2|0,0:0|0:0,0:0:0:0:
326,228,7214,6,0,P|263:208|183:237,1,132,2|2,0:0|0:0,0:0:0:0:
260,313,7723,1,0,0:0:0:0:
260,313,7892,2,0,P|323:333|403:304,1,132,2|2,0:0|0:0,0:0:0:0:
504,260,8401,1,0,0:0:0:0:
385,106,8570,6,0,L|414:256,1,132,2|0,0:0|0:0,0:0:0:0:
314,156,9079,1,0,0:0:0:0:
314,156,9248,2,0,L|301:90,1,66
212,17,9587,2,0,L|224:82,1,66,2|0,0:0|0:0,0:0:0:0:
224,208,9926,6,0,P|169:177|90:202,1,132,2|2,0:0|0:0,0:0:0:0:
17,134,10435,1,0,0:0:0:0:
17,134,10604,2,0,L|21:199,1,66,2|0,0:0|0:0,0:0:0:0:
9,310,10943,2,0,B|81:281|61:345|157:301,1,132,2|0,0:0|0:0,0:0:0:0:
258,296,11451,5,2,0:0:0:0:
345,195,11621,2,0,L|357:347,1,132,2|0,0:0|0:0,0:0:0:0:
437,261,12129,1,0,0:0:0:0:
437,261,12299,2,0,L|433:196,1,66,2|0,0:0|0:0,0:0:0:0:
340,60,12638,6,0,L|346:126,1,66,2|0,0:0|0:0,0:0:0:0:
248,46,12977,2,0,L|254:112,1,66,2|0,0:0|0:0,0:0:0:0:
94,181,13316,2,0,L|88:115,1,66,2|0,0:0|0:0,0:0:0:0:
186,195,13655,2,0,L|180:129,1,66,2|0,0:0|0:0,0:0:0:0:
321,304,13994,6,0,P|253:283|168:320,1,148.49999546814,2|0,3:2|3:2,0:0:0:0:
366,218,14502,1,0,0:0:0:0:
449,293,14672,2,0,P|450:333|454:375,1,74.2499977340699,0|0,3:2|0:0,0:0:0:0:
366,218,15011,2,0,P|367:178|371:136,1,74.2499977340699,2|0,3:2|0:0,0:0:0:0:
436,56,15350,6,0,P|363:37|277:86,1,148.49999546814,2|2,3:2|3:2,0:0:0:0:
200,136,15858,1,0,0:0:0:0:
136,62,16028,2,0,P|166:43|217:42,1,74.2499977340699,2|0,3:2|0:0,0:0:0:0:
165,221,16367,2,0,P|132:203|111:157,1,74.2499977340699,0|0,3:2|0:0,0:0:0:0:
262,219,16706,6,0,P|261:285|274:371,1,148.49999546814,2|0,3:2|3:2,0:0:0:0:
168,321,17214,1,0,0:0:0:0:
340,319,17384,2,0,P|384:314|428:312,1,74.2499977340699,0|0,3:2|0:0,0:0:0:0:
504,238,17723,2,0,P|467:234|430:231,1,74.2499977340699,2|0,3:2|0:0,0:0:0:0:
318,107,18062,6,0,P|383:74|454:88,1,148.49999546814,2|2,3:2|3:2,0:0:0:0:
393,161,18570,1,0,0:0:0:0:
245,161,18740,2,0,P|173:176|108:143,1,148.49999546814,2|0,3:2|3:2,0:0:0:0:
183,89,19248,1,0,0:0:0:0:
115,351,19418,6,0,P|111:300|105:235,1,82.5,6|0,0:0|0:0,0:0:0:0:
29,124,19757,1,8,0:0:0:0:
14,267,19926,1,8,0:0:0:0:
170,184,20096,1,8,0:0:0:0:
0,291,20265,1,8,0:0:0:0:
119,106,20435,1,10,0:0:0:0:
204,307,20604,1,8,0:0:0:0:
0,171,20773,5,6,0:0:0:0:
0,49,22104,6,0,B|51:43|51:43|102:66|102:66|181:56,1,165,12|0,0:0|3:2,0:0:0:0:
342,26,22612,2,0,P|386:60|376:183,1,165,12|0,0:0|3:2,0:0:0:0:
195,165,23120,6,0,P|151:199|161:322,1,165,12|0,0:0|3:2,0:0:0:0:
385,258,23629,2,0,P|294:254|204:248,1,165,12|0,0:0|3:2,0:0:0:0:
316,359,24137,1,8,0:0:0:0:
386,171,24307,1,0,0:0:0:0:
428,340,24476,1,8,0:0:0:0:
284,212,24646,1,0,0:0:0:0:
492,257,24815,6,0,B|500:182|500:182|495:166|495:166|506:79,1,165,12|0,0:0|3:2,0:0:0:0:
330,14,25324,2,0,P|243:0|158:67,1,165,12|0,0:0|3:0,0:0:0:0:
0,128,25832,6,0,B|68:130|68:130|80:135|80:135|92:132|92:132|168:136,1,165,12|0,0:0|3:2,0:0:0:0:
352,241,26341,2,0,B|280:237|280:237|268:240|268:240|256:235|256:235|188:233,1,165,12|0,0:0|3:2,0:0:0:0:
281,158,26849,1,12,0:0:0:0:
253,323,27019,1,0,0:0:0:0:
164,136,27188,1,8,0:0:0:0:
376,178,27358,1,8,0:0:0:0:
376,178,27442,1,8,0:0:0:0:
376,178,27527,6,0,P|370:106|387:78,1,74.2499977340699,6|0,3:2|0:0,0:0:0:0:
449,35,27866,2,0,P|455:107|438:135,1,74.2499977340699,8|2,0:0|0:0,0:0:0:0:
321,28,28205,1,0,3:2:0:0:
235,115,28375,1,2,3:2:0:0:
106,51,28544,2,0,P|139:40|179:42,1,74.2499977340699,8|0,0:0|0:0,0:0:0:0:
17,174,28883,6,0,P|15:240|13:334,1,148.49999546814,2|10,3:2|0:0,0:0:0:0:
116,233,29392,1,0,3:2:0:0:
116,384,29561,1,2,0:0:0:0:
9,335,29731,1,0,3:1:0:0:
205,304,29900,2,0,L|131:312,1,74.2499977340699,10|0,0:0|0:0,0:0:0:0:
295,362,30239,6,0,P|304:289|274:221,1,148.49999546814,6|10,3:2|0:0,0:0:0:0:
187,159,30748,1,2,3:2:0:0:
274,221,30917,1,0,3:2:0:0:
364,157,31087,1,2,0:0:0:0:
276,61,31256,2,0,L|273:135,1,74.2499977340699,8|0,0:0|0:0,0:0:0:0:
355,266,31595,6,4,P|432:269|506:255,1,148.49999546814,2|10,3:2|0:0,2:0:0:0:
394,97,32104,2,0,L|391:171,1,74.2499977340699,2|0,3:2|0:0,0:0:0:0:
481,54,32442,1,0,3:2:0:0:
302,91,32612,2,8,L|299:165,1,74.2499977340699,10|0,0:0|0:0,0:0:0:0:
207,64,32951,6,0,P|137:47|70:76,1,148.49999546814,6|10,3:2|0:0,0:0:0:0:
79,236,33459,1,2,0:0:0:0:
152,153,33629,1,2,3:2:0:0:
0,165,33798,1,0,3:2:0:0:
87,309,33968,2,0,L|78:235,1,74.2499977340699,8|0,0:0|0:0,0:0:0:0:
155,378,34307,6,0,P|207:327|279:325,1,148.49999546814,2|10,3:2|0:0,0:0:0:0:
428,354,34815,2,0,L|354:363,1,74.2499977340699,2|0,3:2|0:0,0:0:0:0:
501,305,35154,2,0,P|514:340|512:380,1,74.2499977340699,2|8,3:2|0:0,0:0:0:0:
381,262,35493,1,0,0:0:0:0:
469,63,35663,6,0,P|463:133|485:217,2,148.49999546814,6|10|2,3:2|0:0|3:2,0:0:0:0:
344,178,36510,1,0,3:2:0:0:
253,83,36680,2,0,P|282:80|341:75,1,74.2499977340699,8|0,2:0|0:0,0:0:0:0:
158,98,37019,6,0,P|176:161|154:253,1,148.49999546814,2|8,3:2|0:0,0:0:0:0:
0,155,37527,2,0,P|40:146|74:152,1,74.2499977340699,2|0,3:2|0:0,0:0:0:0:
61,248,37866,1,2,3:2:0:0:
50,334,38036,2,0,L|45:246,1,74.2499977340699,8|0,0:0|0:0,0:0:0:0:
196,341,38375,6,0,B|238:325|269:351|259:355|302:381|355:343,1,148.49999546814,6|10,3:2|0:0,0:0:0:0:
416,232,38883,1,2,3:2:0:0:
425,330,39052,1,0,3:2:0:0:
325,266,39222,1,2,0:0:0:0:
406,144,39392,2,0,L|405:218,1,74.2499977340699,8|0,0:0|0:0,0:0:0:0:
218,154,39731,6,0,P|264:97|325:149,2,148.49999546814,2|10|2,3:2|0:0|0:0,0:0:0:0:
92,106,40578,1,0,3:2:0:0:
0,197,40748,2,0,L|74:206,1,74.2499977340699,10|0,0:0|0:0,0:0:0:0:
166,372,41087,6,0,L|187:193,1,148.49999546814,6|10,3:2|0:0,0:0:0:0:
264,313,41595,1,2,0:0:0:0:
92,307,41765,1,0,3:2:0:0:
260,227,41934,2,0,L|350:237,1,74.2499977340699,2|8,3:2|0:0,0:0:0:0:
181,135,42273,1,0,0:0:0:0:
324,3,42442,6,0,L|341:173,1,148.49999546814,2|8,3:2|0:0,0:0:0:0:
435,69,42951,1,0,3:2:0:0:
324,3,43120,2,0,L|250:10,1,74.2499977340699,2|2,0:0|3:2,0:0:0:0:
142,93,43459,2,0,L|216:100,1,74.2499977340699,8|2,0:0|3:2,0:0:0:0:
33,40,43798,6,0,B|29:106|29:106|33:116|33:116|27:195,1,148.49999546814,6|8,3:2|0:0,0:0:0:0:
104,322,44307,1,0,0:0:0:0:
112,176,44476,1,0,3:2:0:0:
29,274,44646,1,0,3:2:0:0:
227,249,44815,2,0,L|152:249,1,74.2499977340699,10|0,0:0|0:0,0:0:0:0:
428,310,45154,6,0,B|383:286|383:286|328:286|275:318,1,148.49999546814,2|10,3:2|0:0,0:0:0:0:
152,249,45663,1,2,3:2:0:0:
303,201,45832,1,0,0:0:0:0:
211,327,46002,1,2,3:2:0:0:
218,137,46171,2,0,L|218:212,1,74.2499977340699,8|0,0:0|0:0,0:0:0:0:
293,64,46510,6,0,P|227:34|153:66,2,148.49999546814,6|8|0,3:2|0:0|3:2,0:0:0:0:
133,140,47358,1,0,3:2:0:0:
10,80,47527,2,0,L|84:70,1,74.2499977340699,10|0,0:0|0:0,0:0:0:0:
56,187,47866,6,0,P|11:243|28:312,2,148.49999546814,2|8|2,3:2|0:0|0:0,0:0:0:0:
137,318,48714,1,0,3:2:0:0:
287,223,48883,2,0,L|177:241,1,111.374996601105,10|0,0:0|0:0,0:0:0:0:
148,219,49232,6,0,L|239:204,1,74.2499977340699,6|0,0:0|0:0,0:0:0:0:
349,135,49570,2,0,L|275:122,1,74.2499977340699,10|2,0:0|0:0,0:0:0:0:
150,76,49909,1,0,3:2:0:0:
221,206,50079,1,2,3:2:0:0:
240,39,50248,2,0,P|277:32|314:26,1,74.2499977340699,8|0,0:0|0:0,0:0:0:0:
377,226,50587,6,0,P|372:189|365:152,1,74.2499977340699,2|0,3:2|0:0,0:0:0:0:
472,251,50926,2,0,P|466:214|459:177,1,74.2499977340699,10|0,0:0|3:2,0:0:0:0:
409,329,51265,2,0,P|441:344|493:333,1,74.2499977340699,2|0,0:0|3:2,0:0:0:0:
241,276,51604,1,8,0:0:0:0:
241,276,51943,6,0,L|314:289,1,74.2499977340699,2|0,3:2|0:0,0:0:0:0:
134,254,52282,2,0,L|61:267,1,74.2499977340699,10|2,0:0|0:0,0:0:0:0:
225,180,52621,1,0,3:2:0:0:
166,340,52791,1,2,3:2:0:0:
109,159,52960,2,0,L|123:86,1,74.2499977340699,8|0,0:0|0:0,0:0:0:0:
234,15,53299,6,0,L|248:88,1,74.2499977340699,2|0,3:2|0:0,0:0:0:0:
438,154,53638,1,8,0:0:0:0:
402,37,53808,1,0,3:2:0:0:
321,166,53977,2,0,L|248:179,1,74.2499977340699,2|0,0:0|3:2,0:0:0:0:
392,273,54316,1,8,0:0:0:0:
392,273,54655,6,0,L|405:346,1,74.2499977340699,2|0,3:2|0:0,0:0:0:0:
180,334,54994,1,10,0:0:0:0:
315,356,55164,1,2,0:0:0:0:
255,227,55333,1,0,3:2:0:0:
302,365,55503,1,2,3:2:0:0:
141,247,55672,2,0,B|67:259,1,74.2499977340699,8|0,0:0|0:0,0:0:0:0:
213,29,56011,6,0,P|220:65|226:102,1,74.2499977340699,2|0,3:2|0:0,0:0:0:0:
74,177,56350,2,0,P|68:140|60:103,1,74.2499977340699,10|0,0:0|3:2,0:0:0:0:
198,39,56689,2,0,P|205:75|211:112,1,74.2499977340699,2|0,0:0|3:2,0:0:0:0:
59,187,57028,2,0,P|53:150|45:113,1,74.2499977340699,10|0,0:0|0:0,0:0:0:0:
249,259,57367,6,0,P|274:190|373:167,1,148.49999546814,6|8,3:2|0:0,0:0:0:0:
466,270,57876,1,0,0:0:0:0:
339,161,58045,1,0,3:2:0:0:
472,160,58215,1,0,3:2:0:0:
345,319,58384,2,0,L|342:245,1,74.2499977340699,8|0,0:0|0:0,0:0:0:0:
189,187,58723,6,0,P|209:218|232:248,1,74.2499977340699,2|0,3:2|0:0,0:0:0:0:
165,291,59062,2,0,P|185:322|208:352,1,74.2499977340699,10|0,0:0|0:0,0:0:0:0:
52,276,59401,2,0,P|75:306|95:337,1,74.2499977340699,2|0,3:2|3:2,0:0:0:0:
76,172,59740,2,0,P|99:202|119:233,1,74.2499977340699,10|0,0:0|0:0,0:0:0:0:
127,83,60079,6,0,L|53:89,1,74.2499977340699,4|0,3:2|0:0,0:0:0:0:
204,179,60418,2,0,L|277:172,1,74.2499977340699,8|0,0:0|0:0,0:0:0:0:
339,41,60757,1,2,3:2:0:0:
319,253,60926,1,2,3:2:0:0:
233,92,61096,1,10,3:2:0:0:
407,165,61265,1,2,3:2:0:0:
253,305,61446,6,0,P|301:336|387:309,2,123.750004720688,6|2|2,0:0|0:0|0:0,0:0:0:0:
319,253,62462,1,4,0:3:0:0:
175,324,62801,6,0,B|127:353|70:328|102:299|51:276|-11:316,1,181.500005538941,4|8,3:2|0:0,0:0:0:0:
141,196,63310,1,0,0:0:0:0:
0,128,63479,1,0,3:2:0:0:
164,211,63649,1,0,3:2:0:0:
81,47,63818,2,0,L|96:136,1,90.7500027694703,10|0,0:0|0:0,0:0:0:0:
350,13,64157,6,0,L|260:28,1,90.7500027694703,2|0,3:2|0:0,0:0:0:0:
164,211,64496,2,0,L|253:195,1,90.7500027694703,8|0,0:0|0:0,0:0:0:0:
486,159,64835,1,2,3:2:0:0:
356,44,65005,1,0,3:2:0:0:
385,255,65174,2,0,L|377:164,1,90.7500027694703,8|0,0:0|0:0,0:0:0:0:
88,330,65513,6,0,B|128:304|186:313|162:342|221:350|274:310,1,181.500005538941,6|8,3:2|0:0,0:0:0:0:
75,239,66022,1,0,0:0:0:0:
249,134,66191,1,0,3:2:0:0:
211,306,66361,1,0,3:2:0:0:
140,112,66530,2,0,P|148:153|159:207,1,90.7500027694703,10|0,0:0|0:0,0:0:0:0:
490,193,66869,6,0,P|444:117|356:106,1,181.500005538941,2|10,3:2|0:0,0:0:0:0:
339,329,67378,1,0,0:0:0:0:
214,198,67547,1,2,3:2:0:0:
386,212,67717,1,0,3:2:0:0:
224,366,67886,2,0,L|219:275,1,90.7500027694703,8|0,0:0|0:0,0:0:0:0:
201,16,68225,6,0,P|206:88|214:203,1,181.500005538941,6|8,3:2|0:0,0:0:0:0:
43,134,68734,1,0,0:0:0:0:
25,315,68903,1,0,3:2:0:0:
27,119,69073,1,0,3:2:0:0:
162,298,69242,2,0,L|253:290,1,90.7500027694703,10|0,0:0|0:0,0:0:0:0:
385,189,69581,6,0,L|295:197,1,90.7500027694703,2|0,3:2|0:0,0:0:0:0:
498,279,69920,2,0,L|407:287,1,90.7500027694703,10|0,0:0|0:0,0:0:0:0:
512,110,70259,2,0,L|421:119,1,90.7500027694703,2|0,3:2|3:2,0:0:0:0:
246,68,70598,2,0,L|337:62,1,90.7500027694703,10|0,0:0|3:2,0:0:0:0:
85,99,70937,5,6,3:2:0:0:
104,271,71107,1,2,3:2:0:0:
177,141,71276,2,0,P|161:35|92:-2,1,181.500005538941,10|0,0:0|0:0,0:0:0:0:
85,99,71784,1,0,3:2:0:0:
219,227,71954,2,0,L|223:319,1,90.7500027694703,10|0,0:0|0:0,0:0:0:0:
443,93,72293,6,0,L|446:183,1,90.7500027694703,2|0,3:2|0:0,0:0:0:0:
246,91,72632,2,0,L|249:181,1,90.7500027694703,10|0,0:0|0:0,0:0:0:0:
362,32,72971,2,0,L|365:122,1,90.7500027694703,2|0,3:2|3:2,0:0:0:0:
156,51,73310,2,0,L|159:141,1,90.7500027694703,10|0,0:0|0:0,0:0:0:0:
411,272,73649,6,0,B|368:300|308:286|333:258|281:240|227:281,1,181.500005538941,6|8,3:2|0:0,0:0:0:0:
79,370,74157,1,0,0:0:0:0:
283,362,74327,1,0,3:2:0:0:
86,341,74496,1,0,3:2:0:0:
237,181,74666,2,0,L|239:271,1,90.7500027694703,10|0,0:0|0:0,0:0:0:0:
24,266,75005,6,0,P|20:208|16:115,1,136.125004154205,2|0,3:2|0:0,0:0:0:0:
29,109,75344,2,0,P|65:103|147:86,1,90.7500027694703,10|0,0:0|0:0,0:0:0:0:
0,29,75683,1,2,3:2:0:0:
99,209,75852,1,0,3:2:0:0:
250,167,76022,2,0,P|294:160|340:155,1,90.7500027694703,8|0,0:0|0:0,0:0:0:0:
511,52,76361,6,0,P|413:66|322:79,1,181.500005538941,6|8,3:2|0:0,0:0:0:0:
309,255,76869,1,0,0:0:0:0:
401,66,77039,1,0,3:2:0:0:
458,241,77208,1,0,3:2:0:0:
256,87,77378,2,0,P|210:91|166:98,1,90.7500027694703,10|0,0:0|0:0,0:0:0:0:
7,289,77717,6,0,L|127:268,1,90.7500027694703,2|0,3:2|0:0,0:0:0:0:
271,380,78056,2,0,L|151:359,1,90.7500027694703,8|0,0:0|0:0,0:0:0:0:
371,268,78395,1,2,3:2:0:0:
193,250,78564,1,0,3:2:0:0:
336,94,78734,2,0,L|351:183,1,90.7500027694703,10|0,0:0|0:0,0:0:0:0:
271,32,79073,6,0,B|145:35|145:35|105:72,1,181.500005538941,6|8,3:2|0:0,0:0:0:0:
193,250,79581,1,0,0:0:0:0:
37,131,79751,1,0,3:2:0:0:
220,141,79920,1,0,3:2:0:0:
84,299,80090,2,0,L|99:209,1,90.7500027694703,10|0,0:0|0:0,0:0:0:0:
202,340,80429,6,0,L|316:327,1,90.7500027694703,2|0,3:2|0:0,0:0:0:0:
512,260,80768,1,10,0:0:0:0:
512,260,80937,2,0,P|427:233|348:273,1,181.500005538941,2|2,0:0|3:2,0:0:0:0:
421,135,81446,1,8,0:0:0:0:
438,330,81615,1,2,0:0:0:0:
260,47,81779,6,0,B|252:116|252:116|260:136|260:136|255:246,1,165,12|0,0:0|3:2,0:0:0:0:
477,80,82287,2,0,P|397:58|344:131,1,165,12|0,0:0|3:2,0:0:0:0:
448,284,82795,6,0,B|384:284|384:284|360:292|360:292|333:282|333:282|273:282,1,165,12|0,0:0|3:2,0:0:0:0:
44,280,83304,2,0,B|108:280|108:280|132:288|132:288|159:278|159:278|219:278,1,165,12|0,0:0|3:2,0:0:0:0:
92,144,83812,1,8,0:0:0:0:
88,364,83982,1,0,0:0:0:0:
210,188,84151,1,8,0:0:0:0:
12,216,84321,1,0,0:0:0:0:
328,156,84490,6,0,P|277:72|199:87,1,165,12|0,0:0|3:2,0:0:0:0:
309,312,84999,2,0,P|339:239|417:229,1,165,12|0,0:0|3:2,0:0:0:0:
220,370,85507,5,12,0:0:0:0:
256,192,85592,12,0,88897,0:0:0:0:
