osu file format v14

[General]
AudioFilename: audio.mp3
AudioLeadIn: 0
PreviewTime: 64109
Countdown: 1
SampleSet: Soft
StackLeniency: 0.4
Mode: 0
LetterboxInBreaks: 0
WidescreenStoryboard: 1

[Editor]
DistanceSpacing: 1.2
BeatDivisor: 4
GridSize: 4
TimelineZoom: 1

[Metadata]
Title:Shinryaku no Susume (TV Size)
TitleUnicode:侵略ノススメ☆ (TV Size)
Artist:ULTRA PRISM with Ika Musume (CV: Kanemoto Hisako)
ArtistUnicode:ULTRA PRISM with イカ娘 (CV: 金元寿子)
Creator:Nana Abe
Version:Insane
Source:侵略! イカ娘
Tags:op opening tsukimiya usagi 月宮うさぎ koike masaya 小池雅也 jpop japanese anime shinryaku! ika musume squid girl the invader comes from the bottom of the sea
BeatmapID:2111434
BeatmapSetID:1008640

[Difficulty]
HPDrainRate:5
CircleSize:4
OverallDifficulty:8.3
ApproachRate:8.7
SliderMultiplier:1.4
SliderTickRate:1

[Events]
//Background and Video events
0,0,"squid girl.jpg",0,0
Video,3729,"shinryaku shinryaku shinryaku shinryaku shinryaku shinryaku.avi"
//Break Periods
//Storyboard Layer 0 (Background)
//Storyboard Layer 1 (Fail)
//Storyboard Layer 2 (Pass)
//Storyboard Layer 3 (Foreground)
//Storyboard Layer 4 (Overlay)
//Storyboard Sound Samples

[TimingPoints]
623,324.324324324324,4,2,1,60,1,0
9704,-83.3333333333333,4,2,1,80,0,0
20082,-100,4,2,1,80,0,0
20244,-100,4,2,1,65,0,0
38244,-100,4,2,1,75,0,0
50731,-86.9565217391304,4,2,1,75,0,0
51217,-100,4,2,1,75,0,0
64190,-80,4,2,1,80,0,1
92406,-100,4,2,1,55,0,0

[Colours]
Combo1 : 32,137,223
Combo2 : 128,214,255

[HitObjects]
421,132,3217,5,8,0:0:0:0:
306,184,3379,2,0,L|269:182,2,35,0|0|0,3:0|3:0|3:0,0:0:0:0:
356,73,3704,5,8,0:0:0:0:
395,222,3866,1,0,3:0:0:0:
395,222,3947,1,0,3:0:0:0:
395,222,4028,1,0,3:0:0:0:
260,287,4190,5,8,0:0:0:0:
141,332,4514,6,0,L|130:249,1,70,6|0,3:2|0:0,0:0:0:0:
225,201,4839,2,0,L|214:284,1,70,2|0,3:2|0:0,0:0:0:0:
105,298,5163,2,0,L|116:215,1,70,2|0,3:2|0:0,0:0:0:0:
21,167,5488,2,0,L|32:250,1,70,2|0,3:2|0:0,0:0:0:0:
148,230,5812,2,0,L|137:147,1,70,2|0,3:2|0:0,0:0:0:0:
232,99,6137,2,0,L|221:182,1,70,2|0,3:2|0:0,0:0:0:0:
116,193,6460,2,0,L|127:110,1,70,2|0,3:2|0:0,0:0:0:0:
32,62,6785,2,0,L|43:145,1,70,2|0,3:2|0:0,0:0:0:0:
163,167,7109,2,0,L|152:84,1,70,0|0,0:0|0:0,0:0:0:0:
247,36,7434,2,0,L|236:119,1,70,2|0,3:2|0:0,0:0:0:0:
121,136,7758,2,0,L|132:53,1,70,2|0,3:2|0:0,0:0:0:0:
41,4,8083,2,0,L|52:87,1,70,2|0,3:2|0:0,0:0:0:0:
166,175,8406,5,10,0:0:0:0:
44,154,8568,1,10,0:0:0:0:
138,82,8731,1,10,0:0:0:0:
105,246,8893,1,10,0:0:0:0:
253,173,9055,1,6,0:0:0:0:
21,225,9379,1,10,0:0:0:0:
158,331,9704,6,0,P|204:316|246:315,1,83.9999974365235,6|0,0:0|0:0,0:0:0:0:
422,256,10028,2,0,P|376:271|334:272,1,83.9999974365235,10|0,0:0|0:0,0:0:0:0:
255,198,10352,1,2,3:2:0:0:
426,165,10514,2,0,L|326:149,1,83.9999974365235,2|8,0:0|0:0,0:0:0:0:
176,84,10839,2,0,P|221:98|260:90,1,83.9999974365235,2|0,0:0|3:0,0:0:0:0:
353,0,11163,1,2,0:0:0:0:
223,17,11325,1,10,0:0:0:0:
389,81,11487,2,0,L|476:67,1,83.9999974365235,2|0,0:0|3:0,0:0:0:0:
279,218,11812,2,0,P|209:173|126:176,1,167.999994873047,2|0,0:0|0:0,0:0:0:0:
8,255,12298,6,0,L|-2:157,1,83.9999974365235,2|0,3:2|0:0,0:0:0:0:
110,85,12622,2,0,L|100:183,1,83.9999974365235,10|0,0:0|0:0,0:0:0:0:
104,318,12947,1,2,3:2:0:0:
222,211,13109,2,0,P|217:258|227:303,1,83.9999974365235,2|8,0:0|0:0,0:0:0:0:
384,361,13433,2,0,L|296:348,1,83.9999974365235,2|0,0:0|3:0,0:0:0:0:
147,318,13758,1,2,0:0:0:0:
302,273,13920,1,10,0:0:0:0:
153,362,14082,6,0,L|132:174,1,167.999994873047,2|0,0:0|0:0,0:0:0:0:
249,60,14568,1,10,0:0:0:0:
240,179,14731,1,0,0:0:0:0:
119,71,14893,6,0,P|203:84|273:29,1,167.999994873047,6|8,0:0|0:0,0:0:0:0:
392,11,15379,2,0,P|351:85|378:170,1,167.999994873047,2|0,3:2|3:0,0:0:0:0:
467,227,15866,2,0,P|459:182|461:126,1,83.9999974365235,10|0,0:2|0:0,0:0:0:0:
363,72,16190,5,6,0:0:0:0:
363,72,16352,2,0,P|410:63|448:43,1,83.9999974365235,2|8,0:0|0:0,0:0:0:0:
301,204,16677,1,2,3:2:0:0:
301,204,16839,2,0,P|276:162|244:134,1,83.9999974365235,2|0,0:0|3:0,0:0:0:0:
70,121,17163,1,8,0:0:0:0:
212,65,17325,1,2,0:0:0:0:
106,195,17487,5,2,3:2:0:0:
169,70,17650,2,0,P|166:118|171:162,1,83.9999974365235,2|8,0:0|0:0,0:0:0:0:
275,295,17974,2,0,P|272:247|277:203,1,83.9999974365235,2|0,3:2|3:0,0:0:0:0:
494,144,18298,2,0,P|402:170|345:111,1,167.999994873047,2|0,3:2|0:0,0:0:0:0:
202,27,18785,6,0,L|219:125,1,83.9999974365235,4|0,3:2|0:0,0:0:0:0:
111,257,19109,2,0,L|128:159,1,83.9999974365235,10|0,0:0|0:0,0:0:0:0:
254,340,19433,2,0,L|237:242,1,83.9999974365235,2|0,3:2|0:0,0:0:0:0:
372,190,19758,1,8,0:0:0:0:
372,190,19839,1,8,0:0:0:0:
372,190,19920,1,8,0:0:0:0:
372,190,20001,1,8,0:0:0:0:
372,190,20082,6,0,P|391:244|393:277,1,70,6|0,3:2|0:0,0:0:0:0:
272,369,20406,2,0,P|291:315|293:282,1,70,10|0,0:0|0:0,0:0:0:0:
235,194,20731,1,2,3:2:0:0:
235,194,20893,1,2,3:2:0:0:
309,232,21055,1,10,0:0:0:0:
206,303,21217,6,0,L|131:294,1,70,2|0,3:2|0:0,0:0:0:0:
278,249,21541,1,2,3:2:0:0:
180,376,21704,1,10,0:0:0:0:
146,220,21866,1,2,0:0:0:0:
296,360,22028,2,0,P|367:327|444:354,1,140,2|8,3:2|0:0,0:0:0:0:
475,186,22677,6,0,P|430:192|390:188,1,70,2|0,3:2|0:0,0:0:0:0:
245,75,23001,2,0,P|290:69|330:73,1,70,10|0,0:0|0:0,0:0:0:0:
432,122,23325,1,2,3:2:0:0:
297,159,23487,1,2,3:2:0:0:
402,50,23650,1,10,0:0:0:0:
186,12,23812,6,0,L|207:156,1,140,2|0,3:2|3:0,0:0:0:0:
76,239,24298,2,0,P|117:237|154:252,1,70,10|0,0:0|0:0,0:0:0:0:
221,349,24622,1,2,3:2:0:0:
84,348,24785,1,0,3:0:0:0:
255,230,24947,2,0,L|341:227,1,70,10|0,0:0|0:0,0:0:0:0:
124,341,25271,6,0,P|119:291|126:257,1,70,6|0,3:2|0:0,0:0:0:0:
278,160,25595,2,0,P|283:210|276:244,1,70,10|0,0:0|0:0,0:0:0:0:
138,172,25920,1,2,3:2:0:0:
239,311,26082,2,0,L|323:303,1,70,2|8,3:2|0:0,0:0:0:0:
86,362,26406,6,0,L|76:271,1,70,2|0,3:2|0:0,0:0:0:0:
169,198,26731,1,2,3:2:0:0:
254,342,26893,2,0,L|345:332,1,70,10|0,0:0|0:0,0:0:0:0:
181,227,27217,2,0,L|9:209,1,140,2|8,3:2|0:0,0:0:0:0:
98,49,27866,5,10,0:0:0:0:
158,162,28028,1,10,0:0:0:0:
183,26,28190,1,10,0:0:0:0:
81,176,28352,1,10,0:0:0:0:
30,18,28514,1,10,0:0:0:0:
240,113,28839,1,8,0:0:0:0:
166,303,29163,5,10,0:0:0:0:
226,190,29325,1,10,0:0:0:0:
251,326,29487,1,10,0:0:0:0:
149,176,29649,1,10,0:0:0:0:
98,334,29811,1,10,0:0:0:0:
352,257,30136,1,8,0:0:0:0:
250,208,30298,1,8,0:0:0:0:
423,319,30460,6,0,P|438:276|435:244,1,70,6|0,3:2|0:0,0:0:0:0:
310,159,30785,2,0,P|310:124|323:92,1,70,10|0,0:0|0:0,0:0:0:0:
425,35,31109,1,2,3:2:0:0:
404,129,31271,1,2,3:2:0:0:
317,21,31433,1,10,0:0:0:0:
485,147,31595,6,0,L|316:133,1,140,2|0,3:2|3:0,0:0:0:0:
221,217,32082,2,0,P|237:162|237:135,1,70,10|0,0:0|0:0,0:0:0:0:
106,22,32406,2,0,L|138:175,1,140,2|8,3:2|0:0,0:0:0:0:
153,349,33055,6,0,P|112:331|76:324,1,70,2|0,3:2|0:0,0:0:0:0:
28,172,33379,2,0,P|41:204|61:232,1,70,10|0,0:0|0:0,0:0:0:0:
206,262,33704,1,2,3:2:0:0:
206,262,33866,1,2,3:2:0:0:
81,329,34028,1,10,0:0:0:0:
158,191,34190,6,0,L|144:114,1,70,2|0,3:2|0:0,0:0:0:0:
81,252,34514,1,2,3:2:0:0:
248,321,34677,2,0,P|252:285|246:242,1,70,10|0,0:0|0:0,0:0:0:0:
175,170,35001,1,2,3:2:0:0:
175,170,35163,1,0,3:0:0:0:
56,325,35325,2,0,P|52:289|58:246,1,70,10|0,0:0|0:0,0:0:0:0:
244,158,35650,6,0,L|174:153,1,70,6|0,3:2|0:0,0:0:0:0:
22,76,35974,2,0,L|91:71,1,70,10|0,0:0|0:0,0:0:0:0:
270,54,36298,1,2,3:2:0:0:
270,54,36460,1,2,3:2:0:0:
156,14,36622,1,10,0:0:0:0:
341,98,36785,2,0,P|345:56|337:24,1,70,2|0,3:2|0:0,0:0:0:0:
195,85,37109,1,2,3:2:0:0:
195,85,37271,1,10,0:0:0:0:
301,31,37433,1,2,0:0:0:0:
256,178,37595,2,0,P|191:151|123:161,1,140,2|8,3:2|0:0,0:0:0:0:
66,295,38244,5,10,0:0:0:0:
179,235,38406,1,10,0:0:0:0:
43,210,38568,1,10,0:0:0:0:
193,312,38730,1,10,0:0:0:0:
35,363,38892,1,10,0:0:0:0:
130,163,39217,1,8,0:0:0:0:
298,292,39541,5,10,0:0:0:0:
238,179,39703,1,10,0:0:0:0:
213,315,39865,1,10,0:0:0:0:
315,165,40027,1,10,0:0:0:0:
366,323,40189,1,10,0:0:0:0:
291,249,40352,1,8,3:2:0:0:
215,334,40514,1,8,0:0:0:0:
215,334,40595,1,8,0:0:0:0:
215,334,40677,1,8,0:0:0:0:
51,269,40839,6,0,P|91:259|130:264,1,70,6|0,0:0|0:0,0:0:0:0:
207,322,41163,2,0,P|241:323|275:314,1,70,10|0,0:0|0:0,0:0:0:0:
329,239,41487,2,0,P|362:229|397:231,1,70,2|0,3:2|0:0,0:0:0:0:
477,320,41812,2,0,L|488:239,1,70,10|0,0:0|0:0,0:0:0:0:
485,114,42136,6,0,P|413:145|348:104,1,140,2|10,3:2|0:0,0:0:0:0:
286,55,42622,2,0,L|255:215,1,140,2|2,0:0|3:2,0:0:0:0:
176,239,43109,1,10,0:0:0:0:
12,109,43433,6,0,P|52:119|91:114,1,70,2|0,3:2|0:0,0:0:0:0:
168,56,43757,2,0,P|202:54|236:63,1,70,10|0,0:0|0:0,0:0:0:0:
278,148,44081,2,0,P|311:157|346:155,1,70,2|0,3:2|0:0,0:0:0:0:
460,91,44406,1,10,0:0:0:0:
460,91,44568,1,2,0:0:0:0:
498,219,44731,6,0,P|464:209|429:211,1,70,2|0,3:2|0:0,0:0:0:0:
350,291,45055,1,10,0:0:0:0:
350,291,45217,2,0,L|184:273,1,140,2|2,3:2|3:2,0:0:0:0:
133,332,45704,1,10,0:0:0:0:
13,209,46028,6,0,L|163:201,1,140,2|8,3:2|0:0,0:0:0:0:
266,125,46514,2,0,L|116:117,1,140,2|0,3:2|3:0,0:0:0:0:
49,56,47001,1,10,0:0:0:0:
260,18,47325,6,0,P|270:57|266:98,1,70,2|0,3:2|0:0,0:0:0:0:
205,198,47650,1,10,0:0:0:0:
205,198,47812,2,0,P|277:191|323:246,1,140,0|2,3:2|3:2,0:0:0:0:
328,335,48298,1,8,0:0:0:0:
451,247,48622,6,0,L|457:177,1,70,6|0,3:2|0:0,0:0:0:0:
349,69,48947,1,10,0:0:0:0:
349,69,49109,2,0,P|377:144|347:211,1,140,6|0,3:2|3:0,0:0:0:0:
247,248,49595,2,0,L|165:235,1,70,8|0,0:0|0:0,0:0:0:0:
52,187,49920,5,2,3:2:0:0:
52,187,50082,1,2,3:2:0:0:
153,151,50244,1,10,0:0:0:0:
104,297,50406,1,2,3:2:0:0:
103,296,50731,6,0,P|179:293|211:362,1,161.000003070831,6|0,3:2|0:0,0:0:0:0:
348,313,51217,2,0,L|358:243,1,70,6|0,3:2|0:0,0:0:0:0:
249,169,51541,2,0,L|259:238,1,70,10|0,0:0|0:0,0:0:0:0:
423,199,51866,2,0,L|433:129,1,70,2|0,3:2|0:0,0:0:0:0:
324,55,52190,2,0,L|334:124,1,70,10|0,0:0|0:0,0:0:0:0:
464,238,52514,6,0,P|405:217|376:215,1,70,2|0,3:2|0:0,0:0:0:0:
296,251,52839,1,10,0:0:0:0:
296,250,53001,2,0,P|228:258|171:219,1,140,2|2,3:2|3:2,0:0:0:0:
151,129,53487,1,10,0:0:0:0:
41,250,53812,6,0,P|40:291|51:336,1,70,2|0,3:2|0:0,0:0:0:0:
195,369,54136,2,0,P|196:328|185:283,1,70,10|0,0:0|0:0,0:0:0:0:
119,179,54460,2,0,L|32:169,1,70,2|0,3:2|0:0,0:0:0:0:
222,309,54785,2,0,L|309:299,1,70,10|0,0:0|0:0,0:0:0:0:
92,257,55109,6,0,L|237:234,1,140,2|8,3:2|0:0,0:0:0:0:
304,165,55595,2,0,P|303:97|261:42,1,140,2|2,3:2|3:2,0:0:0:0:
173,13,56082,1,10,0:0:0:0:
50,142,56406,5,10,0:0:0:0:
89,34,56568,1,10,0:0:0:0:
173,178,56731,1,10,0:0:0:0:
136,103,56893,1,10,0:0:0:0:
52,287,57379,1,8,0:0:0:0:
246,342,57704,6,0,L|237:266,1,70,10|10,0:0|0:0,0:0:0:0:
157,187,58028,1,10,0:0:0:0:
128,324,58190,1,10,0:0:0:0:
309,228,58514,1,8,0:0:0:0:
309,228,58677,1,8,0:0:0:0:
415,335,59001,5,10,0:0:0:0:
322,214,59163,1,10,0:0:0:0:
324,351,59325,1,10,0:0:0:0:
412,209,59487,1,10,0:0:0:0:
435,348,59650,1,10,0:0:0:0:
258,276,59974,1,8,0:0:0:0:
341,153,60298,6,0,L|343:76,1,70,2|0,3:2|0:0,0:0:0:0:
237,28,60622,2,0,L|251:102,1,70,10|0,0:0|0:0,0:0:0:0:
177,184,60947,1,2,3:2:0:0:
18,127,61109,2,0,P|59:119|94:122,1,70,2|0,3:2|0:0,0:0:0:0:
269,224,61433,6,0,B|240:195|240:195|127:214,1,140,6|0,0:0|0:0,0:0:0:0:
26,309,61920,2,0,L|115:300,1,70,8|0,0:0|0:0,0:0:0:0:
213,347,62244,2,0,P|257:330|289:329,1,70,0|0,3:0|0:0,0:0:0:0:
404,343,62568,2,0,P|418:311|422:276,1,70,8|0,0:0|0:0,0:0:0:0:
339,152,62893,5,10,0:0:0:0:
304,253,63055,1,8,0:0:0:0:
344,126,63217,1,8,0:0:0:0:
407,260,63379,1,8,0:0:0:0:
331,98,63541,1,10,0:0:0:0:
317,328,63866,1,10,0:0:0:0:
118,231,64190,5,2,3:2:0:0:
118,231,64514,2,0,P|113:173|116:138,1,87.5,14|0,0:0|0:0,0:0:0:0:
208,53,64839,1,2,3:2:0:0:
208,53,65001,1,2,3:2:0:0:
243,149,65163,1,10,0:0:0:0:
118,67,65325,1,2,0:0:0:0:
285,10,65487,6,0,L|265:187,1,175,2|10,3:2|0:0,0:0:0:0:
162,327,65974,2,0,P|166:281|187:239,1,87.5,2|0,3:2|3:0,0:0:0:0:
348,235,66298,1,2,0:0:0:0:
348,235,66460,2,0,L|462:225,1,87.5,10|0,0:0|0:0,0:0:0:0:
315,346,66785,5,2,3:2:0:0:
315,346,67109,2,0,L|219:338,1,87.5,14|0,0:0|0:0,0:0:0:0:
85,296,67433,1,2,3:2:0:0:
85,296,67595,1,2,3:2:0:0:
193,249,67758,1,10,0:0:0:0:
127,363,67920,1,2,0:0:0:0:
6,252,68082,6,0,L|204:230,1,175,2|10,3:2|0:0,0:0:0:0:
305,140,68568,2,0,P|248:152|191:143,1,87.5,2|0,0:0|3:0,0:0:0:0:
110,97,68893,1,2,3:2:0:0:
110,97,69055,2,0,L|100:2,1,87.5,10|0,0:0|0:0,0:0:0:0:
263,128,69379,5,6,3:2:0:0:
192,66,69541,1,2,0:0:0:0:
137,184,69704,1,10,0:0:0:0:
199,43,69866,1,2,0:0:0:0:
300,207,70028,1,2,3:2:0:0:
174,142,70190,2,0,L|347:116,1,175,2|0,3:2|0:0,0:0:0:0:
463,21,70677,6,0,P|448:71|452:127,1,87.5,2|0,3:2|0:0,0:0:0:0:
505,240,71001,1,10,0:0:0:0:
368,207,71163,2,0,L|195:233,1,175,2|2,0:0|3:2,0:0:0:0:
103,335,71650,2,0,L|195:319,1,87.5,10|0,0:0|0:0,0:0:0:0:
352,281,71974,5,2,3:2:0:0:
260,206,72136,1,2,0:0:0:0:
263,325,72298,1,10,0:0:0:0:
361,185,72460,1,2,0:0:0:0:
413,318,72622,2,0,P|454:302|533:297,1,87.5,2|0,3:2|3:0,0:0:0:0:
277,224,72947,2,0,P|236:208|157:203,1,87.5,8|0,0:2|3:0,0:0:0:0:
416,120,73271,5,14,0:0:0:0:
358,240,73433,1,10,0:0:0:0:
308,115,73595,1,10,0:0:0:0:
441,232,73758,1,10,0:0:0:0:
475,62,73920,1,14,0:0:0:0:
277,224,74244,1,8,0:0:0:0:
147,45,74568,5,2,3:2:0:0:
147,45,74893,2,0,P|141:98|148:139,1,87.5,14|0,0:0|0:0,0:0:0:0:
204,229,75217,1,2,3:2:0:0:
204,229,75379,1,2,0:0:0:0:
246,119,75541,1,10,0:0:0:0:
99,206,75704,1,2,0:0:0:0:
220,313,75866,6,0,L|402:301,1,175,2|10,3:2|0:0,0:0:0:0:
486,189,76352,2,0,P|434:198|375:188,1,87.5,2|0,0:0|0:0,0:0:0:0:
306,137,76677,1,0,0:0:0:0:
306,137,76839,2,0,L|287:44,1,87.5,10|0,0:0|0:0,0:0:0:0:
470,22,77163,5,2,3:2:0:0:
470,22,77487,2,0,B|484:75|473:108,1,87.5,14|0,0:0|0:0,0:0:0:0:
366,211,77812,1,2,3:2:0:0:
366,211,77974,1,2,3:2:0:0:
504,174,78136,1,8,0:0:0:0:
389,88,78298,1,2,0:0:0:0:
396,250,78460,6,0,L|211:240,1,175,2|10,3:2|0:0,0:0:0:0:
37,164,78947,2,0,P|88:170|126:192,1,87.5,2|0,0:0|3:0,0:0:0:0:
165,288,79271,1,2,3:2:0:0:
165,288,79433,2,0,L|169:390,1,87.5,10|0,0:0|0:0,0:0:0:0:
3,203,79758,6,0,P|42:222|85:225,1,87.5,6|0,3:2|0:0,0:0:0:0:
270,145,80082,2,0,P|230:125|187:122,1,87.5,10|0,0:0|0:0,0:0:0:0:
15,47,80406,1,2,3:2:0:0:
15,47,80568,2,0,L|211:18,1,175,2|0,0:0|0:0,0:0:0:0:
356,24,81055,5,2,3:2:0:0:
356,24,81217,1,2,0:0:0:0:
281,92,81379,1,10,0:0:0:0:
453,156,81541,2,0,L|257:185,1,175,2|0,0:0|0:0,0:0:0:0:
165,284,82028,2,0,P|214:266|258:262,1,87.5,10|0,0:0|0:0,0:0:0:0:
410,305,82352,5,2,3:2:0:0:
336,199,82514,1,2,0:0:0:0:
296,325,82677,1,10,0:0:0:0:
338,176,82839,1,2,0:0:0:0:
431,339,83001,2,0,L|436:236,1,87.5,2|0,3:2|3:0,0:0:0:0:
249,128,83325,2,0,P|245:175|254:231,1,87.5,10|2,0:0|3:2,0:0:0:0:
412,127,83650,5,10,0:0:0:0:
267,49,83812,1,10,0:0:0:0:
447,124,83974,1,10,0:0:0:0:
276,178,84136,1,10,0:0:0:0:
474,117,84298,2,0,L|477:22,1,87.5,14|0,0:0|0:0,0:0:0:0:
236,17,84622,2,0,L|233:112,1,87.5,8|0,0:0|0:0,0:0:0:0:
343,247,84947,5,14,0:0:0:0:
307,106,85109,1,0,3:0:0:0:
266,278,85271,5,10,0:0:0:0:
353,162,85433,1,0,3:0:0:0:
370,318,85595,5,10,0:0:0:0:
285,192,85758,1,0,3:0:0:0:
172,357,85920,2,0,L|267:346,1,87.5,10|0,0:0|3:0,0:0:0:0:
406,216,86244,5,14,0:0:0:0:
359,347,86406,1,0,3:0:0:0:
337,166,86568,5,10,0:0:0:0:
425,303,86730,1,0,3:0:0:0:
426,132,86892,5,10,0:0:0:0:
308,281,87055,1,0,3:0:0:0:
436,102,87217,2,0,L|427:224,1,87.5,10|0,0:0|3:0,0:0:0:0:
325,317,87541,5,14,0:0:0:0:
366,177,87703,1,0,3:0:0:0:
400,275,87865,5,10,0:0:0:0:
310,118,88027,1,0,3:0:0:0:
251,251,88189,5,10,0:0:0:0:
371,76,88352,1,0,3:0:0:0:
511,213,88514,2,0,L|388:196,1,87.5,10|0,0:0|3:0,0:0:0:0:
235,129,88839,6,0,P|281:139|325:132,1,87.5,14|0,0:0|3:0,0:0:0:0:
451,54,89163,1,2,3:2:0:0:
451,54,89325,2,0,L|339:37,1,87.5,14|0,0:0|0:0,0:0:0:0:
152,115,89650,1,0,3:0:0:0:
152,115,89812,2,0,L|264:98,1,87.5,8|0,0:0|0:0,0:0:0:0:
356,176,90136,6,0,P|354:224|338:266,1,87.5,6|0,0:0|0:0,0:0:0:0:
237,320,90460,1,10,0:0:0:0:
237,320,90622,1,2,3:2:0:0:
143,237,90785,2,0,L|247:220,1,87.5,6|0,3:2|0:0,0:0:0:0:
380,203,91109,1,10,0:0:0:0:
281,148,91271,1,2,0:0:0:0:
334,302,91433,5,10,0:0:0:0:
334,302,91595,2,0,L|351:350,2,43.75,2|0|2,3:2|3:0|3:2,0:0:0:0:
215,326,91920,1,10,0:0:0:0:
274,215,92082,1,0,3:0:0:0:
274,215,92163,1,0,3:0:0:0:
274,215,92244,1,0,3:0:0:0:
110,262,92406,2,0,P|71:256|21:256,1,70,10|0,0:0|0:0,0:0:0:0:
