osu file format v14

[General]
AudioFilename: audio.mp3
AudioLeadIn: 0
PreviewTime: 143417
Countdown: 0
SampleSet: None
StackLeniency: 0.8
Mode: 0
LetterboxInBreaks: 0
WidescreenStoryboard: 1

[Editor]
Bookmarks: 23480,39480,55480,71480,87480,103480,119480,135480,151480,167480,181480,193480
DistanceSpacing: 1.1
BeatDivisor: 4
GridSize: 4
TimelineZoom: 2.999999

[Metadata]
Title:Replica feat. mami
TitleUnicode:レプリカ feat. mami
Artist:UKRampage
ArtistUnicode:有形ランペイジ
Creator:Amamya
Version:Insane feat. Enon
Source:
Tags:cc22 hd1 sf corsace closed hidden one semi finals japanese rock jrock j-rock riana dailycare morinaga atipir enon cellina reana sasakure.uk odyssey ささくれP sasakureP sasakuration ササクレイション 佐々木秀尚 sasaki hidehisa 二家本亮介 nikamoto ryosuke 今井義頼 yoshinori imai 岸田勇気 yuki kishida
BeatmapID:3830857
BeatmapSetID:1769121

[Difficulty]
HPDrainRate:4.5
CircleSize:4
OverallDifficulty:8
ApproachRate:9
SliderMultiplier:1.4
SliderTickRate:1

[Events]
//Background and Video events
0,0,"89504775_p0.jpg",0,0
//Break Periods
2,53680,54880
2,181617,192880
//Storyboard Layer 0 (Background)
//Storyboard Layer 1 (Fail)
//Storyboard Layer 2 (Pass)
//Storyboard Layer 3 (Foreground)
//Storyboard Layer 4 (Overlay)
//Storyboard Sound Samples

[TimingPoints]
520,244.897959183673,4,2,99,78,1,0
2480,250,4,2,99,78,1,0
6605,-100,4,2,99,35,0,0
7490,248.96265560166,4,2,99,64,1,0
7490,-125,4,2,99,64,0,0
9480,250,4,2,99,64,1,0
9480,-125,4,2,99,64,0,0
13480,-111.111111111111,4,2,99,64,0,0
15480,-125,4,2,99,64,0,0
21480,-111.111111111111,4,2,99,64,0,0
23480,-133.333333333333,4,2,99,50,0,0
39230,-133.333333333333,4,2,99,64,0,0
39480,255.31914893617,4,2,99,78,1,0
39480,-83.3333333333333,4,2,99,78,0,0
40500,250,4,2,99,78,1,0
40500,-83.3333333333333,4,2,99,78,0,0
41500,244.897959183673,4,2,99,78,1,0
41500,-83.3333333333333,4,2,99,78,0,0
42480,255.31914893617,4,2,99,78,1,0
42480,-83.3333333333333,4,2,99,78,0,0
43500,244.897959183673,4,2,99,78,1,0
43500,-83.3333333333333,4,2,99,78,0,0
44480,250,4,2,99,78,1,0
44480,-83.3333333333333,4,2,99,78,0,0
46480,247.422680412371,4,2,99,78,1,0
46480,-83.3333333333333,4,2,99,78,0,0
48460,250,4,2,99,78,1,0
48460,-83.3333333333333,4,2,99,78,0,0
53210,-66.6666666666667,4,2,99,78,0,0
53460,247.933884297521,4,2,99,78,1,0
53460,-66.6666666666667,4,2,99,50,0,0
55194,285.714285714286,4,2,99,50,1,0
55194,-66.6666666666667,4,2,99,35,0,0
55480,250,4,2,99,75,1,0
55480,-83.3333333333333,4,2,99,75,0,0
71480,-125,4,2,99,64,0,0
77480,-111.111111111111,4,2,99,64,0,0
79480,-125,4,2,99,64,0,0
85480,-111.111111111111,4,2,99,64,0,0
87480,-133.333333333333,4,2,99,50,0,0
102855,187.5,4,2,99,50,1,0
102948,272.727272727273,4,2,99,50,1,0
102948,-133.333333333333,4,2,99,64,0,0
103220,260.869565217391,4,2,99,64,1,0
103220,-133.333333333333,4,2,99,64,0,0
103480,250,4,2,99,78,1,1
103480,-83.3333333333333,4,2,99,78,0,0
104480,-83.3333333333333,4,2,99,78,0,0
105480,244.897959183673,4,2,99,78,1,0
105480,-83.3333333333333,4,2,99,78,0,0
106460,247.422680412371,4,2,99,78,1,0
106460,-83.3333333333333,4,2,99,78,0,0
107449,255.31914893617,4,2,99,78,1,0
107449,-83.3333333333333,4,2,99,78,0,0
109491,244.897959183673,4,2,99,78,1,0
109491,-83.3333333333333,4,2,99,78,0,0
110960,255.31914893617,4,2,99,78,1,0
110960,-83.3333333333333,4,2,99,78,0,0
111470,252.631578947368,4,2,99,78,1,0
111470,-83.3333333333333,4,2,99,78,0,0
112480,250,4,2,99,78,1,0
112480,-83.3333333333333,4,2,99,78,0,0
118980,-83.3333333333333,4,2,99,84,0,0
119480,-161.290322580645,4,2,99,50,0,0
119730,-161.290322580645,4,2,99,35,0,0
119855,-161.290322580645,4,2,99,50,0,0
120105,-161.290322580645,4,2,99,35,0,0
120230,-161.290322580645,4,2,99,50,0,0
120480,-161.290322580645,4,2,99,35,0,0
120605,-161.290322580645,4,2,99,50,0,0
120667,-161.290322580645,4,2,99,35,0,0
120980,-161.290322580645,4,2,99,50,0,0
121105,-161.290322580645,4,2,99,35,0,0
121480,-161.290322580645,4,2,99,50,0,0
121730,-161.290322580645,4,2,99,35,0,0
121855,-161.290322580645,4,2,99,50,0,0
122105,-161.290322580645,4,2,99,35,0,0
122230,-161.290322580645,4,2,99,50,0,0
122480,-161.290322580645,4,2,99,35,0,0
122605,-161.290322580645,4,2,99,50,0,0
122667,-161.290322580645,4,2,99,35,0,0
122855,-161.290322580645,4,2,99,50,0,0
123105,-161.290322580645,4,2,99,35,0,0
123230,-161.290322580645,4,2,99,50,0,0
123730,-161.290322580645,4,2,99,35,0,0
123855,-161.290322580645,4,2,99,50,0,0
124105,-161.290322580645,4,2,99,35,0,0
124230,-161.290322580645,4,2,99,50,0,0
124480,-161.290322580645,4,2,99,35,0,0
124605,-161.290322580645,4,2,99,50,0,0
124667,-161.290322580645,4,2,99,35,0,0
124980,-161.290322580645,4,2,99,50,0,0
125105,-161.290322580645,4,2,99,35,0,0
125480,-161.290322580645,4,2,99,50,0,0
125730,-161.290322580645,4,2,99,35,0,0
125855,-161.290322580645,4,2,99,50,0,0
126105,-161.290322580645,4,2,99,35,0,0
126230,-161.290322580645,4,2,99,50,0,0
126480,-98.0392156862745,4,2,99,35,0,0
126980,-192.307692307692,4,2,99,50,0,0
127355,-121.951219512195,4,2,99,60,0,0
127480,-98.0392156862745,4,2,99,75,0,0
133480,-161.290322580645,4,2,99,50,0,0
133730,-161.290322580645,4,2,99,35,0,0
133855,-161.290322580645,4,2,99,50,0,0
134105,-161.290322580645,4,2,99,35,0,0
134230,-161.290322580645,4,2,99,50,0,0
134667,-161.290322580645,4,2,99,35,0,0
134855,-161.290322580645,4,2,99,50,0,0
135105,-161.290322580645,4,2,99,35,0,0
135230,-161.290322580645,4,2,99,50,0,0
135480,-116.279069767442,4,2,99,62,0,0
148730,-116.279069767442,4,2,99,66,0,0
148980,-116.279069767442,4,2,99,70,0,0
149230,-116.279069767442,4,2,99,74,0,0
149980,-172.413793103448,4,2,99,74,0,0
150480,-285.714285714286,4,2,99,64,0,0
151230,-66.6666666666667,4,2,99,50,0,0
151480,-83.3333333333333,4,2,99,75,0,0
166480,-83.3333333333333,4,2,99,77,0,0
167230,-83.3333333333333,4,2,99,77,0,0
167480,-100,4,2,99,84,0,0
181480,-100,4,2,99,84,0,0
189417,-100,4,2,99,84,0,0
189480,-100,4,2,99,84,0,0
189542,-100,4,2,99,84,0,0
189605,-100,4,2,99,84,0,0
189792,-100,4,2,99,84,0,0
189855,-100,4,2,99,84,0,0
190042,-100,4,2,99,84,0,0
190105,-100,4,2,99,84,0,0
193480,-100,4,2,99,84,0,0

[Colours]
Combo1 : 255,179,179
Combo2 : 201,184,192

[HitObjects]
266,101,520,6,0,P|329:82|386:127,1,140,4|4,1:2|2:3,0:0:0:0:
223,186,887,2,0,P|160:205|103:160,1,140,0|4,1:0|2:3,0:0:0:0:
7,179,1254,2,0,P|11:220|15:266,1,70,0|4,1:0|2:3,0:0:0:0:
178,328,1499,6,0,P|247:333|317:340,1,140,0|8,1:0|2:3,0:0:0:0:
424,311,1866,1,0,1:0:0:0:
358,229,1989,2,0,P|323:226|288:222,1,70,0|4,2:3|2:3,0:0:0:0:
218,81,2234,2,0,P|221:46|224:11,1,70,0|0,1:0|2:0,0:0:0:0:
400,59,2480,6,0,P|441:112|423:177,1,140,0|4,1:0|2:3,0:0:0:0:
312,341,2855,2,0,P|270:287|288:222,1,140,0|4,1:0|2:3,0:0:0:0:
210,162,3230,2,0,P|169:166|123:170,1,70,0|0,1:0|2:0,0:0:0:0:
12,91,3480,6,0,P|6:160|0:230,1,140,0|8,1:0|2:3,0:0:0:0:
48,337,3855,1,0,1:0:0:0:
151,323,3980,2,0,P|153:288|157:253,1,70,0|4,2:0|2:3,0:0:0:0:
235,187,4230,2,0,P|269:190|304:193,1,70,0|4,1:0|2:3,0:0:0:0:
391,39,4480,6,0,P|337:-2|272:15,1,140,0|4,1:0|2:3,0:0:0:0:
197,106,4855,2,0,P|133:124|76:79,1,140,0|4,1:0|2:3,0:0:0:0:
0,160,5230,2,0,P|4:201|8:247,1,70,0|0,1:0|2:0,0:0:0:0:
157,253,5480,6,0,P|226:247|296:240,1,140,0|8,1:0|2:3,0:0:0:0:
403,270,5855,1,0,1:0:0:0:
453,167,5980,2,0,P|418:164|383:160,1,70,0|4,2:0|2:3,0:0:0:0:
294,69,6230,2,0,P|297:34|300:0,1,70,0|0,1:0|2:0,0:0:0:0:
0,138,7490,6,0,P|14:51|23:12,1,112,6|2,1:2|2:0,0:0:0:0:
87,163,7863,1,2,2:0:0:0:
65,256,7987,2,0,P|150:271|183:279,1,112,2|0,1:2|2:0,0:0:0:0:
175,278,8361,1,2,2:0:0:0:
253,227,8485,6,0,P|294:220|333:213,1,56,2|2,1:2|2:0,0:0:0:0:
268,314,8734,2,0,P|295:309|323:304,1,56,0|2,2:0|2:0,0:0:0:0:
389,249,8983,1,2,1:2:0:0:
505,241,9232,6,0,P|497:193|492:165,1,56,2|0,2:0|2:0,0:0:0:0:
450,116,9480,1,2,1:2:0:0:
332,167,9730,2,0,P|324:119|319:91,1,56,2|2,2:0|2:0,0:0:0:0:
270,47,9980,6,0,P|223:53|199:57,1,56,2|2,1:2|2:0,0:0:0:0:
197,133,10230,1,0,2:0:0:0:
128,175,10355,1,2,2:0:0:0:
49,151,10480,6,0,P|38:103|33:79,2,56,2|2|0,1:2|2:0|2:0,0:0:0:0:
67,230,10855,1,2,2:0:0:0:
144,257,10980,2,0,P|133:305|128:329,2,56,2|2|2,1:2|2:0|2:0,0:0:0:0:
286,7,11480,6,0,P|270:93|265:133,1,112,6|2,1:2|2:0,0:0:0:0:
308,200,11855,1,2,2:0:0:0:
387,169,11980,2,0,P|402:254|410:287,1,112,2|0,1:2|2:0,0:0:0:0:
408,278,12355,1,2,2:0:0:0:
323,289,12480,6,0,P|282:282|243:275,1,56,2|2,1:2|2:0,0:0:0:0:
308,376,12730,2,0,P|280:371|252:366,1,56,0|2,2:0|2:0,0:0:0:0:
187,311,12980,1,2,1:2:0:0:
69,384,13230,6,0,P|59:334|53:303,1,56,2|0,2:0|2:0,0:0:0:0:
41,250,13480,2,0,P|78:205|149:212,1,125.999996154785,2|2,1:2|2:0,0:0:0:0:
220,167,13855,1,2,2:0:0:0:
305,40,13980,2,0,P|268:85|197:78,1,125.999996154785,2|2,1:2|2:0,0:0:0:0:
138,39,14355,1,2,2:0:0:0:
138,39,14480,5,2,1:2:0:0:
74,9,14605,1,2,2:0:0:0:
25,62,14730,1,2,2:0:0:0:
61,124,14855,1,2,2:0:0:0:
132,110,14980,1,2,1:2:0:0:
262,259,15230,6,0,P|303:248|324:244,1,62.9999980773926,2|2,2:0|2:0,0:0:0:0:
420,168,15480,6,0,P|413:255|408:295,1,112,6|2,1:2|2:0,0:0:0:0:
331,150,15855,1,2,2:0:0:0:
344,56,15980,2,0,P|258:48|224:43,1,112,2|0,1:2|2:0,0:0:0:0:
233,43,16355,1,2,2:0:0:0:
151,135,16480,6,0,P|179:130|207:127,1,56,2|2,1:2|2:0,0:0:0:0:
222,214,16730,2,0,P|194:218|166:223,1,56,0|2,2:0|2:0,0:0:0:0:
86,192,16980,1,2,1:2:0:0:
56,361,17230,6,0,P|8:369|-20:374,1,56,2|0,2:0|2:0,0:0:0:0:
18,274,17480,1,2,1:2:0:0:
160,281,17730,2,0,P|112:289|84:294,1,56,2|2,2:0|2:0,0:0:0:0:
147,376,17980,2,0,P|195:368|223:363,1,56,2|2,1:2|2:0,0:0:0:0:
277,339,18230,1,0,2:0:0:0:
300,260,18355,1,2,2:0:0:0:
274,181,18480,6,0,P|226:170|202:165,2,56,2|2|0,1:2|2:0|2:0,0:0:0:0:
356,195,18855,1,2,2:0:0:0:
384,269,18980,2,0,P|432:258|456:253,2,56,2|2|2,1:2|2:0|2:0,0:0:0:0:
159,304,19480,6,0,P|73:289|34:280,1,112,6|2,1:2|2:0,0:0:0:0:
12,177,19855,1,2,2:0:0:0:
114,199,19980,2,0,P|130:113|138:80,1,112,2|0,1:2|2:0,0:0:0:0:
136,88,20355,1,2,2:0:0:0:
213,25,20480,6,0,P|254:32|293:39,1,56,2|2,1:2|2:0,0:0:0:0:
354,45,20730,2,0,P|349:72|344:100,1,56,0|2,2:0|2:0,0:0:0:0:
331,185,20980,1,2,1:2:0:0:
336,341,21230,6,0,P|286:351|255:357,1,56,2|0,2:0|2:0,0:0:0:0:
195,365,21480,2,0,P|150:328|157:257,1,125.999996154785,2|2,1:2|2:0,0:0:0:0:
152,265,21855,1,2,2:0:0:0:
196,103,21980,2,0,P|241:140|234:211,1,125.999996154785,2|2,1:2|2:0,0:0:0:0:
289,275,22355,1,2,2:0:0:0:
289,275,22480,5,2,1:2:0:0:
331,337,22605,1,2,2:0:0:0:
401,312,22730,1,2,2:0:0:0:
402,239,22855,1,2,2:0:0:0:
334,216,22980,1,2,1:2:0:0:
474,91,23230,6,0,P|432:101|411:105,1,62.9999980773926,2|2,2:0|2:0,0:0:0:0:
286,3,23480,6,0,P|192:15|125:17,1,157.500006008148,6|2,3:2|2:0,0:0:0:0:
39,116,23980,2,0,P|133:104|200:102,1,157.500006008148,0|2,3:0|2:0,0:0:0:0:
327,75,24480,2,0,P|328:102|331:129,1,52.5000020027161,2|0,3:2|2:0,0:0:0:0:
264,222,24730,2,0,P|262:194|259:167,1,52.5000020027161,2|2,2:0|2:0,0:0:0:0:
412,104,24980,2,0,P|414:158|421:212,1,105.000004005432,2|0,3:2|2:0,0:0:0:0:
492,326,25480,6,0,P|413:330|336:341,1,157.500006008148,6|2,3:2|2:0,0:0:0:0:
264,222,25980,2,0,P|342:218|420:207,1,157.500006008148,0|2,3:0|2:0,0:0:0:0:
229,352,26480,2,0,P|225:325|224:299,1,52.5000020027161,2|0,3:2|0:0,0:0:0:0:
147,212,26730,2,0,P|150:238|151:264,1,52.5000020027161,2|2,2:0|2:0,0:0:0:0:
264,222,26980,2,0,P|256:168|254:114,1,105.000004005432,2|0,3:2|2:0,0:0:0:0:
18,40,27480,6,0,P|96:36|174:25,1,157.500006008148,6|2,3:2|2:0,0:0:0:0:
254,117,27980,2,0,P|175:120|97:131,1,157.500006008148,0|2,3:0|2:0,0:0:0:0:
37,230,28480,2,0,P|40:256|41:282,1,52.5000020027161,2|0,3:2|0:0,0:0:0:0:
101,183,28730,2,0,P|97:156|96:130,1,52.5000020027161,2|2,2:0|2:0,0:0:0:0:
7,119,28980,1,2,3:2:0:0:
174,25,29230,1,2,2:0:0:0:
171,216,29480,6,0,P|181:293|184:372,1,157.500006008148,6|2,3:2|2:0,0:0:0:0:
267,274,29980,2,0,P|256:196|253:117,1,157.500006008148,0|2,3:0|2:0,0:0:0:0:
174,25,30480,2,0,P|176:44|177:64,7,26.2500010013581,2|2|2|2|2|2|2|2,3:2|2:0|2:0|2:0|2:0|2:0|2:0|2:0,0:0:0:0:
174,25,30980,2,0,B|261:-5|240:65|324:40,1,157.500006008148,2|0,3:2|2:0,0:0:0:0:
415,107,31480,6,0,P|419:186|430:264,1,157.500006008148,6|2,3:2|2:0,0:0:0:0:
337,196,31980,2,0,P|333:117|323:40,1,157.500006008148,0|2,3:0|2:0,0:0:0:0:
490,0,32480,2,0,P|491:30|495:59,1,52.5000020027161,2|0,3:2|0:0,0:0:0:0:
415,107,32730,2,0,P|413:76|409:47,1,52.5000020027161,2|2,2:0|2:0,0:0:0:0:
500,150,32980,2,0,P|502:207|510:264,1,105.000004005432,2|0,3:2|2:0,0:0:0:0:
255,256,33480,6,0,P|251:177|240:99,1,157.500006008148,6|2,3:2|2:0,0:0:0:0:
335,181,33980,2,0,P|338:259|349:337,1,157.500006008148,2|2,3:2|2:0,0:0:0:0:
180,363,34480,2,0,P|178:332|174:303,1,52.5000020027161,2|0,3:2|0:0,0:0:0:0:
255,256,34730,2,0,P|256:286|260:315,1,52.5000020027161,2|2,2:0|2:0,0:0:0:0:
170,213,34980,2,0,P|167:155|159:98,1,105.000004005432,2|0,3:2|2:0,0:0:0:0:
208,46,35355,1,2,2:0:0:0:
320,24,35480,6,0,P|323:102|334:180,1,157.500006008148,6|0,3:2|2:0,0:0:0:0:
258,308,35980,2,0,P|254:229|243:151,1,157.500006008148,2|2,3:2|2:0,0:0:0:0:
344,284,36480,2,0,P|345:311|349:338,1,52.5000020027161,0|2,3:0|0:0,0:0:0:0:
180,363,36730,2,0,P|172:307|169:251,1,105.000004005432,2|0,2:0|3:0,0:0:0:0:
7,119,37230,2,0,P|10:146|12:174,1,52.5000020027161,2|2,2:0|2:0,0:0:0:0:
101,183,37480,6,0,P|90:105|86:26,1,157.500006008148,6|0,3:2|2:0,0:0:0:0:
12,171,37980,2,0,P|22:248|26:327,1,157.500006008148,2|2,3:2|2:0,0:0:0:0:
169,239,38480,2,0,P|166:219|165:199,7,26.2500010013581,2|2|2|2|2|2|2|2,3:2|2:0|2:0|2:0|2:0|2:0|2:0|2:0,0:0:0:0:
181,192,38980,2,0,P|176:165|175:138,1,52.5000020027161,2|0,3:2|0:0,0:0:0:0:
106,106,39230,1,2,2:3:0:0:
160,51,39355,1,0,0:0:0:0:
86,26,39480,6,0,P|37:36|-15:38,1,83.9999974365235,6|0,1:2|2:0,0:0:0:0:
0,206,39735,2,0,P|49:196|101:194,1,83.9999974365235,4|8,2:3|2:3,0:0:0:0:
78,279,39990,5,0,2:0:0:0:
123,356,40118,1,8,2:3:0:0:
209,377,40245,1,0,1:0:0:0:
286,330,40373,1,4,2:3:0:0:
466,354,40500,6,0,P|460:274|448:180,1,167.999994873047,6|4,1:2|2:3,0:0:0:0:
191,85,40875,2,0,P|197:165|209:259,1,167.999994873047,8|4,2:3|2:3,0:0:0:0:
366,215,41250,6,0,P|319:192|287:200,1,83.9999974365235,0|0,1:0|2:0,0:0:0:0:
138,383,41500,6,0,P|85:375|37:366,1,83.9999974365235,4|0,1:2|2:0,0:0:0:0:
111,284,41744,1,4,2:3:0:0:
33,237,41867,1,8,2:3:0:0:
87,162,41989,1,0,2:0:0:0:
6,112,42112,1,8,2:3:0:0:
75,44,42234,2,0,P|125:28|173:16,1,83.9999974365235,0|4,1:0|2:3,0:0:0:0:
214,161,42480,6,0,P|298:171|382:178,1,167.999994873047,6|4,1:2|2:3,0:0:0:0:
510,55,42862,2,0,P|426:61|342:71,1,167.999994873047,8|4,2:3|0:3,0:0:0:0:
470,194,43245,6,0,P|500:235|498:268,1,83.9999974365235,0|0,1:0|0:0,0:0:0:0:
336,337,43500,2,0,P|265:347|160:362,1,167.999994873047,6|8,1:2|2:3,0:0:0:0:
164,201,43867,1,8,2:3:0:0:
78,145,43989,6,0,P|68:203|52:233,1,83.9999974365235,4|8,2:3|2:3,0:0:0:0:
8,308,44234,2,0,P|66:318|96:334,1,83.9999974365235,0|4,1:0|2:3,0:0:0:0:
214,282,44480,5,6,1:2:0:0:
257,182,44605,1,4,2:3:0:0:
301,340,44730,1,4,2:3:0:0:
337,246,44855,2,0,P|399:234|432:225,1,83.9999974365235,8|0,2:3|2:0,0:0:0:0:
228,52,45230,5,8,1:3:0:0:
228,52,45480,2,0,P|179:62|136:66,1,83.9999974365235,6|4,1:2|2:3,0:0:0:0:
183,241,45730,2,0,P|173:192|169:149,1,83.9999974365235,4|4,2:3|1:2,0:0:0:0:
0,201,45980,2,0,P|49:191|92:187,1,83.9999974365235,0|4,2:3|2:3,0:0:0:0:
40,15,46230,2,0,P|50:64|54:107,1,83.9999974365235,4|4,2:0|2:3,0:0:0:0:
11,287,46480,5,4,2:3:0:0:
102,304,46603,2,0,P|190:280|242:343,1,167.999994873047,4|4,1:2|2:3,0:0:0:0:
415,327,46974,6,0,P|405:272|398:235,1,83.9999974365235,4|0,1:2|0:0,0:0:0:0:
449,166,47222,1,4,1:2:0:0:
449,166,47345,1,4,1:3:0:0:
341,162,47469,6,0,P|300:166|259:175,1,83.9999974365235,4|0,1:2|2:0,0:0:0:0:
318,29,47717,2,0,P|269:39|217:41,1,83.9999974365235,4|8,2:3|2:3,0:0:0:0:
140,30,47964,5,0,2:0:0:0:
64,81,48088,1,4,2:3:0:0:
48,169,48211,1,0,1:0:0:0:
108,239,48335,1,4,2:3:0:0:
13,332,48460,6,0,P|93:338|187:350,1,167.999994873047,6|4,1:2|2:3,0:0:0:0:
377,249,48835,2,0,P|383:169|395:75,1,167.999994873047,8|4,2:3|2:3,0:0:0:0:
190,256,49210,6,0,P|141:244|94:237,1,83.9999974365235,0|0,1:0|2:0,0:0:0:0:
54,144,49460,2,0,P|61:91|70:43,1,83.9999974365235,6|0,1:2|2:0,0:0:0:0:
153,117,49710,1,4,2:3:0:0:
200,39,49835,1,8,2:3:0:0:
275,93,49960,1,0,2:0:0:0:
325,12,50085,1,4,2:3:0:0:
406,58,50210,2,0,P|421:108|433:156,1,83.9999974365235,0|4,1:0|2:3,0:0:0:0:
475,258,50460,5,6,1:2:0:0:
475,258,50585,2,0,P|394:263|356:270,1,83.9999974365235,0|4,0:0|2:3,0:0:0:0:
511,378,50835,2,0,P|430:367|338:345,1,167.999994873047,8|4,2:3|2:3,0:0:0:0:
244,311,51210,5,0,1:0:0:0:
145,348,51335,1,0,2:0:0:0:
58,280,51460,2,0,P|48:209|33:104,1,167.999994873047,6|4,1:2|2:3,0:0:0:0:
128,70,51835,1,0,2:0:0:0:
274,9,51960,6,0,P|283:49|301:119,1,83.9999974365235,4|4,2:3|2:3,0:0:0:0:
402,90,52210,2,0,P|393:130|375:200,1,83.9999974365235,0|4,1:0|2:3,0:0:0:0:
228,256,52460,1,6,1:2:0:0:
348,317,52585,2,0,P|423:297|536:279,1,167.999994873047,4|8,2:3|2:3,0:0:0:0:
121,162,53210,6,0,P|111:222|86:387,1,210.000008010865,0|6,1:0|1:2,0:0:0:0:
88,368,55480,6,0,P|129:360|170:354,1,83.9999974365235,6|4,1:2|2:3,0:0:0:0:
292,177,55730,2,0,P|250:185|209:191,1,83.9999974365235,12|4,2:3|2:3,0:0:0:0:
121,162,55980,1,4,1:2:0:0:
191,101,56105,1,4,2:3:0:0:
104,61,56230,1,12,2:3:0:0:
174,0,56355,1,6,2:3:0:0:
16,36,56480,6,0,P|28:120|35:203,1,167.999994873047,4|12,1:2|2:3,0:0:0:0:
0,290,56855,1,6,2:3:0:0:
170,354,56980,2,0,P|163:312|160:270,1,83.9999974365235,4|4,1:2|0:3,0:0:0:0:
209,191,57230,1,12,2:3:0:0:
121,162,57355,1,4,2:3:0:0:
174,0,57480,6,0,P|215:6|257:9,1,83.9999974365235,6|4,1:2|2:3,0:0:0:0:
441,121,57730,2,0,P|399:114|357:111,1,83.9999974365235,12|4,2:3|2:3,0:0:0:0:
292,177,57980,1,4,1:2:0:0:
361,237,58105,1,4,2:3:0:0:
292,299,58230,1,12,2:3:0:0:
359,362,58355,1,6,2:3:0:0:
493,237,58480,6,0,P|500:153|512:70,1,167.999994873047,4|4,1:2|2:3,0:0:0:0:
441,10,58855,1,6,2:3:0:0:
257,9,58980,2,0,P|253:50|247:92,1,83.9999974365235,4|0,1:2|1:0,0:0:0:0:
292,177,59230,1,10,1:3:0:0:
220,235,59355,1,10,1:3:0:0:
362,235,59480,6,0,P|365:193|371:151,1,83.9999974365235,6|4,1:2|2:3,0:0:0:0:
292,299,59730,2,0,P|288:340|282:382,1,83.9999974365235,14|6,2:3|2:3,0:0:0:0:
432,298,59980,2,0,P|435:256|441:214,1,83.9999974365235,4|4,1:2|2:3,0:0:0:0:
220,235,60230,2,0,P|216:276|210:318,1,83.9999974365235,14|6,2:3|2:3,0:0:0:0:
440,214,60480,6,0,P|448:130|460:45,1,167.999994873047,4|12,1:2|2:3,0:0:0:0:
379,0,60855,1,6,2:3:0:0:
159,21,60980,2,0,P|151:105|139:190,1,167.999994873047,4|12,1:2|2:3,0:0:0:0:
220,235,61355,1,6,2:3:0:0:
281,382,61480,6,0,P|197:370|114:362,1,167.999994873047,4|12,1:2|2:3,0:0:0:0:
142,273,61855,1,6,2:3:0:0:
61,228,61980,1,4,1:2:0:0:
0,83,62230,2,0,P|5:41|9:0,1,83.9999974365235,14|4,2:3|2:3,0:0:0:0:
159,21,62480,6,0,P|153:62|149:104,1,83.9999974365235,2|0,1:0|1:0,0:0:0:0:
63,139,62730,1,0,1:0:0:0:
139,187,62855,2,0,P|137:207|134:228,2,41.9999987182618,0|0|2,1:0|0:0|1:0,0:0:0:0:
223,150,63105,1,2,1:3:0:0:
298,207,63230,1,10,1:3:0:0:
286,300,63355,1,10,1:3:0:0:
209,252,63480,6,0,P|205:294|199:336,1,83.9999974365235,6|4,1:2|2:3,0:0:0:0:
375,244,63730,2,0,P|379:202|386:161,1,83.9999974365235,12|4,2:3|2:3,0:0:0:0:
461,216,63980,1,4,1:2:0:0:
508,136,64105,1,4,2:3:0:0:
432,83,64230,1,12,2:3:0:0:
479,3,64355,1,4,2:3:0:0:
318,40,64480,6,0,P|309:125|297:210,1,167.999994873047,4|4,1:2|2:3,0:0:0:0:
223,150,64855,1,4,2:3:0:0:
364,327,64980,2,0,P|368:284|374:242,1,83.9999974365235,4|4,1:2|0:3,0:0:0:0:
461,216,65230,1,12,2:3:0:0:
386,160,65355,1,4,2:3:0:0:
199,335,65480,6,0,P|157:329|115:324,1,83.9999974365235,6|4,1:2|2:3,0:0:0:0:
55,176,65730,2,0,P|96:181|138:186,1,83.9999974365235,12|4,2:3|2:3,0:0:0:0:
223,150,65980,1,4,1:2:0:0:
147,96,66105,1,4,2:3:0:0:
230,55,66230,1,12,2:3:0:0:
155,0,66355,1,4,2:3:0:0:
318,40,66480,6,0,P|305:125|295:211,1,167.999994873047,4|4,1:2|2:3,0:0:0:0:
218,258,66855,1,4,2:3:0:0:
280,326,66980,1,4,1:2:0:0:
100,363,67230,2,0,P|106:320|111:277,1,83.9999974365235,10|14,2:3|2:3,0:0:0:0:
223,150,67480,6,0,P|138:139|54:127,1,167.999994873047,6|14,1:2|2:3,0:0:0:0:
1,203,67855,1,6,2:3:0:0:
100,363,67980,2,0,P|184:373|268:385,1,167.999994873047,4|14,1:2|2:3,0:0:0:0:
322,310,68355,1,6,2:3:0:0:
223,150,68480,6,0,P|218:192|212:234,1,83.9999974365235,4|6,1:2|2:3,0:0:0:0:
373,243,68730,2,0,P|378:201|384:159,1,83.9999974365235,12|6,2:3|2:3,0:0:0:0:
307,123,68980,2,0,P|302:165|296:207,1,83.9999974365235,4|4,1:2|2:3,0:0:0:0:
457,216,69230,2,0,P|462:174|468:132,1,83.9999974365235,14|6,2:3|2:3,0:0:0:0:
390,83,69480,5,4,1:2:0:0:
307,123,69605,1,4,2:3:0:0:
274,36,69730,2,0,P|232:31|190:25,1,83.9999974365235,14|4,2:3|2:3,0:0:0:0:
107,64,69980,2,0,P|86:61|65:58,3,41.9999987182618,4|0|4|0,1:2|2:0|2:3|0:0,0:0:0:0:
124,88,70230,2,0,P|121:109|118:130,3,41.9999987182618,14|4|4|4,2:3|2:3|2:3|2:3,0:0:0:0:
511,138,71480,6,0,P|497:51|488:12,1,112,6|2,1:2|2:0,0:0:0:0:
424,163,71855,1,2,2:0:0:0:
446,256,71980,2,0,P|361:271|328:279,1,112,2|0,1:2|2:0,0:0:0:0:
336,278,72355,1,2,2:0:0:0:
168,220,72480,6,0,P|161:261|154:300,1,56,2|2,1:2|2:0,0:0:0:0:
255,235,72730,2,0,P|250:262|245:290,1,56,0|2,2:0|2:0,0:0:0:0:
190,356,72980,1,2,1:2:0:0:
18,243,73230,6,0,P|66:235|94:230,1,56,2|0,2:0|2:0,0:0:0:0:
168,220,73480,1,2,1:2:0:0:
100,63,73730,2,0,P|148:55|176:50,1,56,2|2,2:0|2:0,0:0:0:0:
248,2,73980,6,0,P|254:49|258:73,1,56,2|2,1:2|2:0,0:0:0:0:
334,75,74230,1,0,2:0:0:0:
377,144,74355,1,2,2:0:0:0:
348,219,74480,6,0,P|300:230|276:235,2,56,2|2|0,1:2|2:0|2:0,0:0:0:0:
431,205,74855,1,2,2:0:0:0:
458,128,74980,2,0,P|506:139|530:144,2,56,2|2|2,1:2|2:0|2:0,0:0:0:0:
347,74,75480,6,0,P|261:58|221:53,1,112,6|2,1:2|2:0,0:0:0:0:
185,122,75855,1,2,2:0:0:0:
216,201,75980,2,0,P|131:216|97:224,1,112,2|0,1:2|2:0,0:0:0:0:
107,222,76355,1,2,2:0:0:0:
96,137,76480,6,0,P|103:96|110:57,1,56,2|2,1:2|2:0,0:0:0:0:
9,122,76730,2,0,P|14:94|19:66,1,56,0|2,2:0|2:0,0:0:0:0:
74,1,76980,1,2,1:2:0:0:
217,204,77230,6,0,P|227:254|233:285,1,56,2|0,2:0|2:0,0:0:0:0:
188,337,77480,2,0,P|151:382|80:375,1,125.999996154785,2|2,1:2|2:0,0:0:0:0:
14,309,77855,1,2,2:0:0:0:
26,210,77980,2,0,P|63:165|134:172,1,125.999996154785,2|2,1:2|2:0,0:0:0:0:
212,121,78355,1,2,2:0:0:0:
212,121,78480,5,2,1:2:0:0:
276,151,78605,1,2,2:0:0:0:
325,98,78730,1,2,2:0:0:0:
289,36,78855,1,2,2:0:0:0:
218,50,78980,1,2,1:2:0:0:
263,259,79230,6,0,P|304:248|325:244,1,62.9999980773926,2|2,2:0|2:0,0:0:0:0:
501,200,79480,6,0,P|487:113|478:74,1,112,6|2,1:2|2:0,0:0:0:0:
414,225,79855,1,2,2:0:0:0:
436,318,79980,2,0,P|351:333|318:341,1,112,2|0,1:2|2:0,0:0:0:0:
326,340,80355,1,2,2:0:0:0:
263,259,80480,6,0,P|268:231|271:203,1,56,2|2,1:2|2:0,0:0:0:0:
184,188,80730,2,0,P|180:216|175:244,1,56,0|2,2:0|2:0,0:0:0:0:
206,324,80980,1,2,1:2:0:0:
385,184,81230,6,0,P|433:192|461:197,1,56,2|0,2:0|2:0,0:0:0:0:
423,97,81480,1,2,1:2:0:0:
274,115,81730,2,0,P|322:107|350:102,1,56,2|2,2:0|2:0,0:0:0:0:
287,20,81980,2,0,P|239:28|211:33,1,56,2|2,1:2|2:0,0:0:0:0:
157,57,82230,1,0,2:0:0:0:
134,135,82355,1,2,2:0:0:0:
166,211,82480,6,0,P|214:222|238:227,2,56,2|2|0,1:2|2:0|2:0,0:0:0:0:
89,207,82855,1,2,2:0:0:0:
54,137,82980,2,0,P|6:148|-18:153,2,56,2|2|2,1:2|2:0|2:0,0:0:0:0:
207,280,83480,6,0,P|293:265|332:256,1,112,6|2,1:2|2:0,0:0:0:0:
411,288,83855,1,2,2:0:0:0:
397,199,83980,2,0,P|381:113|373:80,1,112,2|0,1:2|2:0,0:0:0:0:
375,88,84355,1,2,2:0:0:0:
298,25,84480,6,0,P|257:32|218:39,1,56,2|2,1:2|2:0,0:0:0:0:
157,45,84730,2,0,P|162:72|167:100,1,56,0|2,2:0|2:0,0:0:0:0:
180,185,84980,1,2,1:2:0:0:
175,341,85230,6,0,P|225:351|256:357,1,56,2|0,2:0|2:0,0:0:0:0:
316,365,85480,2,0,P|361:328|354:257,1,125.999996154785,2|2,1:2|2:0,0:0:0:0:
359,265,85855,1,2,2:0:0:0:
315,103,85980,2,0,P|270:140|277:211,1,125.999996154785,2|2,1:2|2:0,0:0:0:0:
222,275,86355,1,2,2:0:0:0:
222,275,86480,5,2,1:2:0:0:
180,337,86605,1,2,2:0:0:0:
110,312,86730,1,2,2:0:0:0:
109,239,86855,1,2,2:0:0:0:
177,216,86980,1,2,1:2:0:0:
0,153,87230,6,0,P|10:111|14:90,1,62.9999980773926,2|2,2:0|2:0,0:0:0:0:
36,13,87480,6,0,P|114:13|192:4,1,157.500006008148,6|2,3:2|2:0,0:0:0:0:
240,144,87980,2,0,P|161:143|83:152,1,157.500006008148,0|2,3:0|2:0,0:0:0:0:
1,239,88480,2,0,P|4:265|4:292,1,52.5000020027161,2|0,3:2|2:0,0:0:0:0:
75,384,88730,2,0,P|72:357|72:331,1,52.5000020027161,2|0,2:0|2:0,0:0:0:0:
83,152,88980,2,0,P|88:204|87:256,1,105.000004005432,0|0,3:2|2:0,0:0:0:0:
318,384,89480,6,0,P|316:300|325:216,1,157.500006008148,6|2,3:2|2:0,0:0:0:0:
240,144,89980,2,0,P|241:227|232:311,1,157.500006008148,0|2,2:0|2:0,0:0:0:0:
323,226,90480,2,0,P|323:199|320:173,1,52.5000020027161,2|0,3:2|0:0,0:0:0:0:
393,107,90730,2,0,P|392:133|395:159,1,52.5000020027161,2|2,2:0|2:0,0:0:0:0:
240,144,90980,2,0,P|240:90|235:36,1,105.000004005432,2|0,3:2|2:0,0:0:0:0:
492,216,91480,6,0,P|491:294|499:373,1,157.500006008148,6|2,3:2|2:0,0:0:0:0:
400,264,91980,2,0,P|400:185|392:106,1,157.500006008148,0|2,3:0|2:0,0:0:0:0:
311,244,92480,2,0,P|310:271|313:299,1,52.5000020027161,2|0,3:2|0:0,0:0:0:0:
242,196,92730,2,0,P|242:168|239:140,1,52.5000020027161,2|0,2:0|2:0,0:0:0:0:
302,88,92980,1,0,3:0:0:0:
252,344,93230,1,0,2:0:0:0:
55,172,93480,6,0,P|52:93|45:14,1,157.500006008148,6|2,3:2|2:0,0:0:0:0:
143,107,93980,2,0,P|145:185|152:264,1,157.500006008148,0|2,3:0|2:0,0:0:0:0:
64,369,94480,2,0,P|63:355|62:342,7,26.2500010013581,2|2|2|2|2|0|2|2,3:2|2:0|2:0|2:0|2:0|2:0|2:0|2:0,0:0:0:0:
62,342,94980,2,0,B|149:312|128:382|212:357,1,157.500006008148,2|0,3:2|2:0,0:0:0:0:
307,246,95480,6,0,P|309:167|316:88,1,157.500006008148,6|2,3:2|2:0,0:0:0:0:
234,0,95980,2,0,P|231:78|224:157,1,157.500006008148,0|2,3:0|2:0,0:0:0:0:
152,264,96480,2,0,P|152:236|155:209,1,52.5000020027161,2|0,3:2|0:0,0:0:0:0:
87,115,96730,2,0,P|86:142|83:169,1,52.5000020027161,2|0,2:0|2:0,0:0:0:0:
0,291,96980,2,0,P|1:238|6:185,1,105.000004005432,0|2,3:0|2:0,0:0:0:0:
234,0,97480,6,0,P|312:6|391:9,1,157.500006008148,6|2,3:2|2:0,0:0:0:0:
400,151,97980,2,0,P|321:144|242:141,1,157.500006008148,2|2,3:2|2:0,0:0:0:0:
168,37,98480,2,0,P|167:63|164:89,1,52.5000020027161,2|0,3:2|0:0,0:0:0:0:
84,167,98730,2,0,P|84:140|87:114,1,52.5000020027161,2|0,2:0|2:0,0:0:0:0:
156,209,98980,2,0,P|153:264|149:318,1,105.000004005432,0|0,3:0|2:0,0:0:0:0:
211,357,99355,1,2,2:0:0:0:
307,246,99480,6,0,P|310:165|317:84,1,157.500006008148,6|0,3:2|2:0,0:0:0:0:
234,0,99980,2,0,P|230:80|223:161,1,157.500006008148,2|2,3:2|2:0,0:0:0:0:
400,151,100480,2,0,P|401:124|403:97,1,52.5000020027161,0|2,3:0|2:0,0:0:0:0:
456,212,100730,2,0,P|454:264|449:316,1,105.000004005432,2|0,2:0|3:0,0:0:0:0:
211,357,101230,2,0,P|212:330|214:303,1,52.5000020027161,2|2,2:0|2:0,0:0:0:0:
307,246,101480,6,0,P|226:249|145:256,1,157.500006008148,6|0,3:2|2:0,0:0:0:0:
63,167,101980,2,0,P|143:163|224:156,1,157.500006008148,2|2,3:2|2:0,0:0:0:0:
290,58,102480,2,0,P|211:65|133:68,1,157.500006008148,2|2,3:2|2:0,0:0:0:0:
58,27,102948,2,0,P|44:27|31:29,4,26.2500010013581,4|4|4|4|2,2:3|0:3|2:3|2:3|2:3,0:0:0:0:
0,105,103350,1,0,2:0:0:0:
47,206,103480,6,0,P|96:216|148:218,1,83.9999974365235,6|0,1:2|2:0,0:0:0:0:
223,211,103730,2,0,P|213:260|211:312,1,83.9999974365235,4|8,2:3|2:3,0:0:0:0:
297,332,103980,5,0,2:0:0:0:
383,308,104105,1,8,2:3:0:0:
426,229,104230,1,0,1:0:0:0:
401,143,104355,1,4,2:3:0:0:
297,81,104480,6,0,P|217:87|123:99,1,167.999994873047,6|4,1:2|2:3,0:0:0:0:
22,201,104855,2,0,P|32:284|38:368,1,167.999994873047,8|4,2:3|2:3,0:0:0:0:
165,282,105230,2,0,P|200:276|257:270,1,83.9999974365235,0|0,1:0|2:0,0:0:0:0:
116,180,105480,6,0,P|124:127|133:79,1,83.9999974365235,4|0,1:2|2:0,0:0:0:0:
215,147,105724,1,4,2:3:0:0:
262,69,105847,1,8,2:3:0:0:
338,118,105969,1,0,2:0:0:0:
386,42,106092,1,8,2:3:0:0:
458,97,106214,2,0,P|474:147|486:195,1,83.9999974365235,0|4,1:0|2:3,0:0:0:0:
512,324,106460,6,0,P|428:314|344:307,1,167.999994873047,6|4,1:2|2:3,0:0:0:0:
213,210,106831,2,0,P|297:204|381:194,1,167.999994873047,8|4,2:3|0:3,0:0:0:0:
405,62,107202,6,0,P|363:31|330:33,1,83.9999974365235,0|0,1:0|0:0,0:0:0:0:
246,106,107449,2,0,P|175:96|70:81,1,167.999994873047,6|8,1:2|2:3,0:0:0:0:
11,151,107831,1,0,2:0:0:0:
40,246,107959,6,0,P|98:256|128:272,1,83.9999974365235,4|8,2:3|2:3,0:0:0:0:
192,384,108214,2,0,P|202:326|218:296,1,83.9999974365235,0|4,1:0|2:3,0:0:0:0:
276,211,108470,5,6,1:2:0:0:
319,311,108597,1,4,2:3:0:0:
363,153,108725,1,4,2:3:0:0:
399,247,108853,2,0,P|461:259|494:268,1,83.9999974365235,8|0,2:3|2:0,0:0:0:0:
386,57,109236,5,8,1:3:0:0:
299,15,109363,1,4,2:3:0:0:
228,87,109491,2,0,P|179:97|136:101,1,83.9999974365235,6|4,1:2|2:3,0:0:0:0:
183,276,109735,2,0,P|173:227|169:184,1,83.9999974365235,4|4,2:3|1:2,0:0:0:0:
0,236,109980,2,0,P|49:226|92:222,1,83.9999974365235,0|4,2:3|2:3,0:0:0:0:
40,50,110225,2,0,P|50:99|54:142,1,83.9999974365235,4|4,2:0|2:3,0:0:0:0:
183,276,110470,6,0,P|271:300|323:237,1,167.999994873047,4|4,2:3|2:3,0:0:0:0:
507,210,110960,6,0,P|452:220|415:227,1,83.9999974365235,4|0,1:2|2:0,0:0:0:0:
448,327,111215,1,4,1:2:0:0:
348,352,111342,1,4,1:3:0:0:
319,251,111470,6,0,P|309:202|307:150,1,83.9999974365235,4|0,1:2|2:0,0:0:0:0:
156,187,111722,2,0,P|166:236|168:288,1,83.9999974365235,4|8,2:3|2:3,0:0:0:0:
48,217,111975,5,0,2:0:0:0:
52,132,112101,1,4,2:3:0:0:
122,80,112227,1,0,1:0:0:0:
206,98,112354,1,4,2:3:0:0:
306,168,112480,6,0,P|386:162|480:150,1,167.999994873047,6|4,1:2|2:3,0:0:0:0:
354,312,112855,2,0,P|270:301|186:295,1,167.999994873047,8|4,2:3|2:3,0:0:0:0:
40,297,113230,1,0,1:0:0:0:
86,207,113355,1,0,2:0:0:0:
12,136,113480,6,0,P|19:83|28:35,1,83.9999974365235,6|0,1:2|2:0,0:0:0:0:
111,109,113730,1,4,2:3:0:0:
158,31,113855,1,8,2:3:0:0:
233,85,113980,1,0,2:0:0:0:
283,4,114105,1,4,2:3:0:0:
364,50,114230,2,0,P|379:100|391:148,1,83.9999974365235,0|4,1:0|2:3,0:0:0:0:
290,174,114480,5,6,1:2:0:0:
290,174,114605,2,0,P|285:255|278:293,1,83.9999974365235,0|4,0:0|2:3,0:0:0:0:
326,363,114855,2,0,P|275:298|184:315,1,167.999994873047,8|4,2:3|2:3,0:0:0:0:
37,218,115230,5,0,1:0:0:0:
119,154,115355,1,0,2:0:0:0:
37,218,115480,2,0,P|27:289|12:394,1,167.999994873047,6|4,1:2|2:3,0:0:0:0:
114,345,115855,2,0,P|123:294|134:245,1,83.9999974365235,8|0,2:3|2:0,0:0:0:0:
209,162,116105,5,4,2:3:0:0:
310,210,116230,1,0,1:0:0:0:
310,210,116355,2,0,P|381:200|418:194,1,83.9999974365235,4|6,2:3|1:2,0:0:0:0:
463,301,116605,5,4,2:3:0:0:
362,349,116730,1,4,2:3:0:0:
362,349,116855,2,0,P|291:339|254:333,1,83.9999974365235,8|0,2:3|2:0,0:0:0:0:
186,374,117105,5,4,2:3:0:0:
137,288,117230,1,0,1:0:0:0:
44,329,117355,1,0,2:0:0:0:
137,288,117480,6,0,P|149:236|182:97,1,167.999994873047,6|8,1:2|2:3,0:0:0:0:
75,145,117855,1,0,1:0:0:0:
0,71,117980,2,0,P|45:63|98:56,1,83.9999974365235,4|4,2:3|0:3,0:0:0:0:
161,0,118230,2,0,P|206:7|259:14,1,83.9999974365235,8|4,1:3|2:3,0:0:0:0:
389,106,118480,5,4,2:3:0:0:
389,106,118605,2,0,P|342:83|255:176,1,167.999994873047,4|0,1:2|2:0,0:0:0:0:
303,275,118980,5,0,1:0:0:0:
256,143,119105,1,0,1:0:0:0:
303,275,119230,5,0,1:0:0:0:
256,143,119355,1,0,1:0:0:0:
303,275,119480,6,0,P|260:282|217:289,1,86.7999965563966,2|0,2:0|2:0,0:0:0:0:
233,363,119855,2,0,P|275:355|318:348,1,86.7999965563966,2|0,2:0|2:0,0:0:0:0:
380,302,120230,1,2,2:0:0:0:
338,178,120480,1,0,2:0:0:0:
378,113,120605,2,0,P|388:111|399:109,2,21.6999991390992,2|2|0,2:0|2:0|2:0,0:0:0:0:
314,69,120855,1,2,2:0:0:0:
361,9,120980,2,0,P|382:5|403:1,1,43.3999982781983,2|2,2:0|2:0,0:0:0:0:
501,52,121230,2,0,P|479:55|458:59,1,43.3999982781983,2|0,2:0|2:0,0:0:0:0:
399,109,121480,6,0,P|402:130|406:151,2,43.3999982781983,2|0|2,2:0|2:0|2:0,0:0:0:0:
482,171,121855,2,0,P|478:149|474:128,2,43.3999982781983,2|0|2,2:0|2:0|2:0,0:0:0:0:
442,234,122230,2,0,P|445:255|449:276,1,43.3999982781983,2|0,2:0|2:0,0:0:0:0:
510,323,122480,1,2,2:0:0:0:
439,352,122605,2,0,P|440:362|442:373,2,21.6999991390992,2|2|2,2:0|2:0|2:0,0:0:0:0:
380,302,122855,1,2,2:0:0:0:
318,348,122980,2,0,P|297:352|275:355,1,43.3999982781983,2|0,2:0|2:0,0:0:0:0:
174,296,123230,2,0,P|195:292|216:288,1,43.3999982781983,2|2,2:0|2:0,0:0:0:0:
250,217,123480,6,0,P|242:174|235:131,1,86.7999965563966,2|0,2:0|2:0,0:0:0:0:
157,139,123855,2,0,P|164:181|171:224,1,86.7999965563966,2|0,2:0|2:0,0:0:0:0:
216,288,124230,1,2,2:0:0:0:
86,371,124480,1,0,2:0:0:0:
32,315,124605,2,0,P|21:316|10:318,2,21.6999991390992,2|2|0,2:0|2:0|2:0,0:0:0:0:
79,251,124855,1,2,2:0:0:0:
42,182,124980,2,0,P|20:185|0:189,1,43.3999982781983,2|2,2:0|2:0,0:0:0:0:
47,107,125230,2,0,P|68:103|89:99,1,43.3999982781983,2|0,2:0|2:0,0:0:0:0:
157,139,125480,6,0,P|160:160|164:181,2,43.3999982781983,2|0|2,2:0|2:0|2:0,0:0:0:0:
235,131,125855,2,0,P|231:109|227:88,2,43.3999982781983,2|0|2,2:0|2:0|2:0,0:0:0:0:
313,123,126230,2,0,P|316:144|320:165,1,43.3999982781983,2|0,2:0|2:0,0:0:0:0:
284,230,126480,1,2,2:0:0:0:
509,316,126980,6,0,P|498:261|489:206,1,109.199999333496,2|0,2:1|2:0,0:0:0:0:
490,209,127480,6,0,P|430:216|394:290,1,142.800000871582,4|4,1:2|2:3,0:0:0:0:
325,321,127855,1,0,1:0:0:0:
260,369,127980,2,0,P|254:333|247:298,2,71.400000435791,0|0|0,2:0|2:0|1:0,0:0:0:0:
275,161,128480,6,0,P|280:196|287:231,1,71.400000435791,0|0,1:0|2:0,0:0:0:0:
358,198,128730,2,0,P|352:162|345:127,1,71.400000435791,2|2,2:0|1:2,0:0:0:0:
282,80,128980,1,2,2:0:0:0:
210,113,129105,1,2,2:0:0:0:
169,46,129230,1,0,1:0:0:0:
97,79,129355,1,2,2:0:0:0:
44,20,129480,6,0,P|7:59|25:157,1,142.800000871582,0|4,1:0|2:3,0:0:0:0:
65,199,129855,1,0,1:0:0:0:
144,182,129980,2,0,P|137:217|131:252,2,71.400000435791,0|0|0,2:0|2:0|1:0,0:0:0:0:
282,80,130480,5,0,1:0:0:0:
346,129,130605,2,0,P|363:131|381:135,2,35.7000002178955,2|2|2,2:0|2:0|2:0,0:0:0:0:
275,161,130855,1,2,1:2:0:0:
338,208,130980,2,0,P|373:214|408:220,1,71.400000435791,2|0,2:0|2:0,0:0:0:0:
399,299,131230,2,0,P|363:292|328:286,1,71.400000435791,2|2,1:2|2:0,0:0:0:0:
261,247,131480,6,0,P|206:278|193:351,1,142.800000871582,2|4,1:2|2:3,0:0:0:0:
120,384,131855,1,2,1:2:0:0:
54,341,131980,2,0,P|47:303|40:265,2,71.400000435791,0|0|2,2:0|2:0|1:2,0:0:0:0:
144,182,132480,5,0,1:0:0:0:
90,122,132605,2,0,P|72:125|54:128,2,35.7000002178955,2|0|2,2:0|0:0|2:0,0:0:0:0:
152,75,132855,1,0,1:0:0:0:
104,12,132980,2,0,P|139:6|174:0,1,71.400000435791,2|2,2:0|2:0,0:0:0:0:
227,59,133230,2,0,P|262:52|297:46,1,71.400000435791,0|2,1:0|2:0,0:0:0:0:
375,55,133480,6,0,P|387:85|377:147,1,86.7999965563966,2|0,2:0|2:0,0:0:0:0:
331,197,133855,2,0,P|323:239|337:280,1,86.7999965563966,2|0,2:0|2:0,0:0:0:0:
403,323,134230,1,2,2:0:0:0:
508,208,134480,5,2,2:0:0:0:
449,153,134605,2,0,L|443:119,2,21.6999991390992,2|2|2,2:0|2:0|2:0,0:0:0:0:
512,103,134855,1,2,2:0:0:0:
472,32,134980,2,0,P|450:37|429:39,1,43.3999982781983,0|2,2:0|2:0,0:0:0:0:
374,97,135230,2,0,P|352:99|331:103,1,43.3999982781983,0|2,2:0|2:0,0:0:0:0:
274,218,135480,6,0,P|213:205|128:197,1,120.400001837158,4|0,1:2|2:0,0:0:0:0:
8,278,135980,5,0,1:0:0:0:
82,337,136146,1,2,2:0:0:0:
167,290,136313,1,2,2:0:0:0:
26,261,136480,5,10,1:3:0:0:
82,317,136646,1,2,2:0:0:0:
149,277,136813,1,2,2:0:0:0:
95,215,136980,5,2,1:2:0:0:
293,255,137230,2,0,P|307:309|313:339,1,60.2000009185791,2|0,2:0|0:0,0:0:0:0:
404,322,137480,6,0,P|381:236|372:189,1,120.400001837158,4|0,1:3|2:0,0:0:0:0:
385,101,137980,5,0,1:0:0:0:
311,42,138146,1,2,2:0:0:0:
226,89,138313,1,2,2:0:0:0:
367,118,138480,5,10,1:3:0:0:
311,62,138646,1,2,2:0:0:0:
244,102,138813,1,2,2:0:0:0:
298,164,138980,5,2,1:2:0:0:
147,47,139230,2,0,P|138:95|136:110,1,60.2000009185791,2|0,2:0|0:0,0:0:0:0:
33,186,139480,6,0,P|92:176|142:224,1,120.400001837158,4|2,1:3|2:0,0:0:0:0:
277,276,139980,2,0,P|218:266|171:314,1,120.400001837158,0|2,1:0|2:0,0:0:0:0:
371,347,140480,6,0,P|379:293|395:206,1,120.400001837158,10|2,1:3|2:0,0:0:0:0:
463,178,140855,1,0,0:0:0:0:
463,178,140980,2,0,P|454:124|438:37,1,120.400001837158,0|2,1:0|2:0,0:0:0:0:
330,10,141480,6,0,P|254:25|193:39,1,120.400001837158,4|2,1:3|1:2,0:0:0:0:
110,28,141855,1,2,0:0:0:0:
110,28,141980,2,0,P|122:86|134:145,1,120.400001837158,2|2,1:2|2:0,0:0:0:0:
13,243,142480,5,10,1:3:0:0:
159,305,142730,1,2,0:0:0:0:
233,272,142855,2,0,P|284:279|312:283,1,60.2000009185791,2|0,0:0|1:0,0:0:0:0:
251,88,143230,2,0,P|229:93|184:102,1,60.2000009185791,2|0,2:0|0:0,0:0:0:0:
246,186,143480,6,0,P|307:199|392:207,1,120.400001837158,4|0,1:2|2:0,0:0:0:0:
512,126,143980,5,0,1:0:0:0:
438,67,144146,1,2,2:0:0:0:
353,114,144313,1,2,2:0:0:0:
494,143,144480,5,10,1:3:0:0:
438,87,144646,1,2,2:0:0:0:
371,127,144813,1,2,2:0:0:0:
425,189,144980,5,2,1:2:0:0:
229,122,145230,2,0,P|215:68|209:38,1,60.2000009185791,2|0,2:0|0:0,0:0:0:0:
118,55,145480,6,0,P|141:141|150:188,1,120.400001837158,4|0,1:3|2:0,0:0:0:0:
88,325,145980,5,0,1:0:0:0:
162,384,146146,1,2,2:0:0:0:
247,337,146313,1,2,2:0:0:0:
106,308,146480,5,10,1:3:0:0:
162,364,146646,1,2,2:0:0:0:
229,324,146813,1,2,2:0:0:0:
175,262,146980,5,2,1:2:0:0:
365,337,147230,2,0,P|374:289|376:274,1,60.2000009185791,2|2,2:0|2:0,0:0:0:0:
353,198,147480,1,4,1:3:0:0:
353,198,147730,6,0,P|362:150|364:135,1,60.2000009185791,2|2,2:0|2:0,0:0:0:0:
351,53,147980,1,0,1:0:0:0:
351,53,148230,6,0,P|394:58|424:61,1,60.2000009185791,2|0,2:0|2:0,0:0:0:0:
276,144,148480,6,0,P|222:136|135:120,1,120.400001837158,10|2,1:3|2:0,0:0:0:0:
141,205,148855,1,0,2:0:0:0:
141,205,148980,2,0,P|195:214|282:230,1,120.400001837158,2|2,1:2|2:0,0:0:0:0:
201,384,149480,6,0,P|144:341|92:355,1,120.400001837158,4|0,1:3|2:0,0:0:0:0:
7,340,149855,1,0,0:0:0:0:
7,340,149980,2,0,P|19:282|31:219,1,121.800003717041,8|0,1:3|0:0,0:0:0:0:
0,110,150480,5,2,2:0:0:0:
0,110,151480,6,0,P|43:108|88:101,1,83.9999974365235,6|4,1:2|2:3,0:0:0:0:
259,225,151730,2,0,P|216:227|170:233,1,83.9999974365235,12|4,2:3|2:3,0:0:0:0:
93,189,151980,1,4,1:2:0:0:
29,256,152105,1,4,2:3:0:0:
107,304,152230,1,12,2:3:0:0:
43,371,152355,1,6,2:3:0:0:
175,232,152480,6,0,P|171:149|158:62,1,167.999994873047,4|12,1:2|2:3,0:0:0:0:
227,1,152855,1,6,2:3:0:0:
363,138,152980,2,0,P|364:179|371:222,1,83.9999974365235,4|4,1:2|0:3,0:0:0:0:
436,288,153230,1,12,2:3:0:0:
391,368,153355,1,4,2:3:0:0:
370,221,153480,6,0,P|411:215|453:213,1,83.9999974365235,6|4,1:2|2:3,0:0:0:0:
371,45,153730,2,0,P|329:50|287:52,1,83.9999974365235,12|4,2:3|2:3,0:0:0:0:
209,1,153980,1,4,1:2:0:0:
159,81,154105,1,4,2:3:0:0:
239,127,154230,1,12,2:3:0:0:
189,206,154355,1,6,2:3:0:0:
43,371,154480,6,0,P|38:287|28:203,1,167.999994873047,4|12,1:2|2:3,0:0:0:0:
70,121,154855,1,6,2:3:0:0:
259,225,154980,2,0,P|261:266|266:308,1,83.9999974365235,4|0,1:2|1:0,0:0:0:0:
204,378,155230,1,10,1:3:0:0:
129,323,155355,1,10,1:3:0:0:
259,225,155480,6,0,P|300:219|342:217,1,83.9999974365235,6|4,1:2|2:3,0:0:0:0:
322,120,155730,2,0,P|280:125|238:127,1,83.9999974365235,14|6,2:3|2:3,0:0:0:0:
407,157,155980,2,0,P|448:151|490:149,1,83.9999974365235,4|4,1:2|2:3,0:0:0:0:
470,52,156230,2,0,P|428:57|386:59,1,83.9999974365235,14|6,2:3|2:3,0:0:0:0:
343,217,156480,6,0,P|347:304|357:391,1,167.999994873047,4|12,1:2|2:3,0:0:0:0:
267,358,156855,1,6,2:3:0:0:
154,194,156980,2,0,P|149:106|139:19,1,167.999994873047,4|12,1:2|2:3,0:0:0:0:
230,53,157355,1,6,2:3:0:0:
262,233,157480,6,0,P|174:237|87:247,1,167.999994873047,4|12,1:2|2:3,0:0:0:0:
18,192,157855,1,6,2:3:0:0:
69,115,157980,1,4,1:2:0:0:
262,233,158230,2,0,P|267:275|269:317,1,83.9999974365235,14|4,2:3|2:3,0:0:0:0:
343,217,158480,6,0,P|338:175|336:133,1,83.9999974365235,2|0,1:0|1:0,0:0:0:0:
257,85,158730,1,0,1:0:0:0:
338,41,158855,2,0,P|336:20|334:0,2,41.9999987182618,0|0|2,1:0|0:0|1:0,0:0:0:0:
420,85,159105,1,2,1:3:0:0:
427,177,159230,1,10,1:3:0:0:
343,217,159355,1,10,1:3:0:0:
354,308,159480,6,0,P|312:310|270:314,1,83.9999974365235,6|4,1:2|2:3,0:0:0:0:
70,200,159730,2,0,P|111:197|153:193,1,83.9999974365235,12|4,2:3|2:3,0:0:0:0:
236,235,159980,1,4,1:2:0:0:
280,154,160105,1,4,2:3:0:0:
200,107,160230,1,12,2:3:0:0:
244,26,160355,1,4,2:3:0:0:
71,113,160480,6,0,P|80:196|84:280,1,167.999994873047,4|12,1:2|2:3,0:0:0:0:
162,329,160855,1,4,2:3:0:0:
358,384,160980,2,0,P|353:342|351:300,1,83.9999974365235,4|4,1:2|0:3,0:0:0:0:
291,228,161230,1,12,2:3:0:0:
352,158,161355,1,4,2:3:0:0:
244,26,161480,6,0,P|202:30|160:32,1,83.9999974365235,6|4,1:2|2:3,0:0:0:0:
0,203,161730,2,0,P|41:198|83:196,1,83.9999974365235,12|4,2:3|2:3,0:0:0:0:
146,128,161980,1,4,1:2:0:0:
198,204,162105,1,4,2:3:0:0:
133,268,162230,1,12,2:3:0:0:
185,343,162355,1,4,2:3:0:0:
13,370,162480,6,0,P|9:286|0:202,1,167.999994873047,4|12,1:2|2:3,0:0:0:0:
40,120,162855,1,4,2:3:0:0:
244,26,162980,2,0,P|245:67|250:109,1,83.9999974365235,4|0,1:2|1:0,0:0:0:0:
206,191,163230,1,10,2:3:0:0:
278,248,163355,1,14,2:3:0:0:
185,343,163480,6,0,P|268:333|352:329,1,167.999994873047,6|14,1:2|2:3,0:0:0:0:
417,264,163855,1,6,2:3:0:0:
482,30,163980,2,0,P|398:39|314:43,1,167.999994873047,4|14,1:2|2:3,0:0:0:0:
250,109,164355,1,6,2:3:0:0:
64,29,164480,6,0,P|68:70|70:112,1,83.9999974365235,4|6,1:2|2:3,0:0:0:0:
152,211,164730,2,0,P|147:169|145:127,1,83.9999974365235,12|6,2:3|2:3,0:0:0:0:
0,202,164980,2,0,P|4:243|6:285,1,83.9999974365235,4|4,1:2|2:3,0:0:0:0:
88,384,165230,2,0,P|83:342|81:300,1,83.9999974365235,14|6,2:3|2:3,0:0:0:0:
145,127,165480,6,0,P|228:123|312:113,1,167.999994873047,4|14,1:2|2:3,0:0:0:0:
389,164,165855,1,6,2:3:0:0:
507,367,165980,2,0,P|423:370|339:380,1,167.999994873047,4|14,1:2|2:3,0:0:0:0:
263,330,166355,1,6,2:3:0:0:
330,215,166480,6,0,P|331:256|336:298,1,83.9999974365235,4|4,1:2|1:3,0:0:0:0:
195,284,166730,2,0,P|193:242|188:200,1,83.9999974365235,4|4,1:3|1:3,0:0:0:0:
250,109,166980,2,0,P|250:129|253:150,3,41.9999987182618,6|8|8|8,1:3|1:3|2:3|2:3,0:0:0:0:
216,81,167230,2,0,P|216:61|213:40,3,41.9999987182618,4|4|8|8,2:3|0:3|1:3|1:3,0:0:0:0:
296,44,167480,6,0,P|352:33|466:25,1,140,6|8,1:0|2:3,0:0:0:0:
444,158,167855,2,0,P|454:214|462:328,1,140,4|8,1:3|2:3,0:0:0:0:
313,284,168230,2,0,P|307:255|303:198,1,70,2|2,1:0|2:1,0:0:0:0:
220,259,168480,5,2,1:0:0:0:
138,290,168605,2,0,L|133:330,2,35,2|2|2,0:0|0:0|2:0,0:0:0:0:
62,238,168855,1,2,1:2:0:0:
37,155,168980,2,0,P|30:115|27:78,1,70,2|2,2:0|2:0,0:0:0:0:
129,0,169230,2,0,P|122:40|119:77,1,70,2|2,1:0|2:1,0:0:0:0:
231,67,169480,6,0,P|280:24|353:43,1,140,2|8,1:0|2:3,0:0:0:0:
471,133,169855,2,0,P|422:176|349:157,1,140,4|8,1:3|2:3,0:0:0:0:
260,161,170230,2,0,P|212:169|169:175,1,70,2|2,1:0|2:1,0:0:0:0:
137,234,170480,5,2,1:0:0:0:
162,318,170605,2,0,L|122:323,2,35,2|2|2,2:0|0:0|0:1,0:0:0:0:
231,370,170855,1,2,1:2:0:0:
311,340,170980,2,0,P|346:346|381:350,1,70,2|2,2:1|2:0,0:0:0:0:
397,262,171230,2,0,P|362:259|328:253,1,70,2|2,1:0|2:0,0:0:0:0:
285,173,171480,6,0,P|281:110|269:22,1,140,8|4,1:3|2:3,0:0:0:0:
91,50,171855,2,0,P|92:110|106:200,1,140,8|4,1:3|2:3,0:0:0:0:
54,305,172230,2,0,P|100:300|134:297,1,70,2|2,1:0|2:1,0:0:0:0:
204,350,172480,5,2,1:0:0:0:
273,299,172605,2,0,P|302:302|322:306,2,35,0|0|2,0:0|0:0|2:1,0:0:0:0:
226,226,172855,1,2,1:2:0:0:
295,171,172980,2,0,P|351:176|387:177,2,70,2|0|2,2:1|2:0|1:0,0:0:0:0:
235,107,173355,1,2,2:0:0:0:
182,39,173480,6,0,P|99:31|68:87,1,140,2|2,1:0|2:1,0:0:0:0:
0,192,173855,2,0,P|64:175|111:223,1,140,2|0,1:2|0:0,0:0:0:0:
219,191,174230,2,0,P|214:238|212:264,1,70,2|2,1:0|2:0,0:0:0:0:
282,322,174480,5,2,1:0:0:0:
370,343,174605,2,0,L|375:383,2,35,2|2|2,2:0|0:0|0:1,0:0:0:0:
440,288,174855,1,2,1:2:0:0:
467,203,174980,2,0,P|474:163|477:126,1,70,2|2,2:1|2:0,0:0:0:0:
372,36,175230,2,0,P|379:76|382:113,1,70,2|2,1:0|2:0,0:0:0:0:
267,77,175480,6,0,P|211:66|97:58,1,140,6|8,1:0|2:3,0:0:0:0:
22,118,175855,2,0,P|12:174|4:288,1,140,4|8,1:3|2:3,0:0:0:0:
150,258,176230,2,0,P|156:217|160:160,1,70,2|2,1:0|0:1,0:0:0:0:
240,153,176480,5,2,1:0:0:0:
321,192,176605,2,0,L|326:152,2,35,2|2|2,2:0|0:0|2:0,0:0:0:0:
347,272,176855,1,2,1:2:0:0:
301,346,176980,2,0,P|341:353|378:356,1,70,2|2,2:0|2:0,0:0:0:0:
458,321,177230,2,0,P|465:281|468:244,1,70,2|0,1:0|2:0,0:0:0:0:
408,189,177480,5,2,1:0:0:0:
454,107,177605,2,0,P|402:98|365:95,1,70,4|0,2:3|2:0,0:0:0:0:
315,162,177855,1,4,1:3:0:0:
233,116,177980,2,0,P|224:168|221:205,1,70,2|8,2:1|2:3,0:0:0:0:
177,268,178230,2,0,P|225:276|268:282,1,70,2|0,1:0|2:0,0:0:0:0:
189,365,178480,5,2,1:0:0:0:
101,326,178605,2,0,L|61:331,2,35,2|0|2,2:0|0:0|2:1,0:0:0:0:
89,234,178855,1,2,1:2:0:0:
30,161,178980,2,0,P|23:126|20:91,1,70,2|2,2:1|2:0,0:0:0:0:
112,78,179230,2,0,P|115:112|121:147,1,70,2|2,1:0|2:0,0:0:0:0:
226,86,179480,6,0,P|232:51|235:17,2,70,0|2|2,1:0|2:0|3:2,0:0:0:0:
318,100,179855,2,0,P|324:65|327:30,2,70,0|2|0,1:0|2:0|2:0,0:0:0:0:
345,186,180230,2,0,P|299:181|265:178,1,70,2|2,1:0|2:1,0:0:0:0:
192,225,180480,5,2,1:0:0:0:
112,277,180605,2,0,P|82:280|62:284,2,35,2|0|2,2:0|2:0|3:1,0:0:0:0:
164,355,180855,1,0,1:0:0:0:
242,306,180980,2,0,P|287:296|341:288,1,70,2|2,2:1|2:1,0:0:0:0:
392,350,181230,6,0,P|396:381|399:398,3,35,2|0|2|0,1:0|3:0|3:0|3:0,0:0:0:0:
265,194,193480,5,6,3:2:0:0:
