osu file format v14

[General]
AudioFilename: audio.mp3
AudioLeadIn: 0
PreviewTime: 143417
Countdown: 0
SampleSet: Soft
StackLeniency: 0.7
Mode: 0
LetterboxInBreaks: 0
WidescreenStoryboard: 1

[Editor]
Bookmarks: 59605,103480,135480,151480,193480
DistanceSpacing: 1.2
BeatDivisor: 4
GridSize: 8
TimelineZoom: 1.5

[Metadata]
Title:Replica feat. mami
TitleUnicode:レプリカ feat. mami
Artist:UKRampage
ArtistUnicode:有形ランペイジ
Creator:Amamya
Version:Hard
Source:
Tags:cc22 hd1 sf corsace closed hidden one semi finals japanese rock jrock j-rock riana dailycare morinaga atipir enon cellina reana sasakure.uk odyssey ささくれP sasakureP sasakuration ササクレイション 佐々木秀尚 sasaki hidehisa 二家本亮介 nikamoto ryosuke 今井義頼 yoshinori imai 岸田勇気 yuki kishida
BeatmapID:3679424
BeatmapSetID:1769121

[Difficulty]
HPDrainRate:4
CircleSize:3.8
OverallDifficulty:6
ApproachRate:8
SliderMultiplier:1.05
SliderTickRate:1

[Events]
//Background and Video events
0,0,"89504775_p0.jpg",0,0
//Break Periods
2,53410,54444
2,119555,126730
2,135680,150480
2,181617,192730
//Storyboard Layer 0 (Background)
//Storyboard Layer 1 (Fail)
//Storyboard Layer 2 (Pass)
//Storyboard Layer 3 (Foreground)
//Storyboard Layer 4 (Overlay)
//Storyboard Sound Samples

[TimingPoints]
520,244.897959183673,4,2,99,78,1,0
2480,250,4,2,99,78,1,0
6480,-125,4,2,99,78,0,0
6605,-125,4,2,99,35,0,0
7490,248.96265560166,4,2,99,64,1,0
7490,-111.111111111111,4,2,99,64,0,0
9480,250,4,2,99,64,1,0
9480,-111.111111111111,4,2,99,64,0,0
23480,-125,4,2,99,50,0,0
39230,-125,4,2,99,64,0,0
39417,-100,4,2,99,64,0,0
39480,255.31914893617,4,2,99,78,1,0
39480,-100,4,2,99,78,0,0
40500,250,4,2,99,78,1,0
41500,244.897959183673,4,2,99,78,1,0
42480,255.31914893617,4,2,99,78,1,0
43500,244.897959183673,4,2,99,78,1,0
44480,250,4,2,99,78,1,0
46480,247.422680412371,4,2,99,78,1,0
48460,250,4,2,99,78,1,0
53460,247.933884297521,4,2,99,78,1,0
53460,-100,4,2,99,50,0,0
55194,285.714285714286,4,2,99,50,1,0
55194,-100,4,2,99,35,0,0
55480,250,4,2,99,75,1,0
55480,-90.9090909090909,4,2,99,75,0,0
63271,-90.9090909090909,4,2,99,75,0,0
63355,-90.9090909090909,4,2,99,75,0,0
63396,-90.9090909090909,4,2,99,75,0,0
63480,-90.9090909090909,4,2,99,75,0,0
70917,-125,4,2,99,75,0,0
71480,-111.111111111111,4,2,99,64,0,0
87480,-125,4,2,99,50,0,0
102855,187.5,4,2,99,50,1,0
102948,272.727272727273,4,2,99,50,1,0
102948,-125,4,2,99,64,0,0
103220,260.869565217391,4,2,99,64,1,0
103220,-125,4,2,99,64,0,0
103480,250,4,2,99,78,1,1
103480,-100,4,2,99,78,0,0
105480,244.897959183673,4,2,99,78,1,0
106460,247.422680412371,4,2,99,78,1,0
107449,255.31914893617,4,2,99,78,1,0
109491,244.897959183673,4,2,99,78,1,0
110960,255.31914893617,4,2,99,78,1,0
111470,252.631578947368,4,2,99,78,1,0
112480,250,4,2,99,78,1,0
118980,-100,4,2,99,84,0,0
119480,-125,4,2,99,50,0,0
119730,-125,4,2,99,35,0,0
119855,-125,4,2,99,50,0,0
120105,-125,4,2,99,35,0,0
120230,-125,4,2,99,50,0,0
120480,-125,4,2,99,35,0,0
120605,-125,4,2,99,50,0,0
120667,-125,4,2,99,35,0,0
120980,-125,4,2,99,50,0,0
121105,-125,4,2,99,35,0,0
121480,-125,4,2,99,50,0,0
121730,-125,4,2,99,35,0,0
121855,-125,4,2,99,50,0,0
122105,-125,4,2,99,35,0,0
122230,-125,4,2,99,50,0,0
122480,-125,4,2,99,35,0,0
122605,-125,4,2,99,50,0,0
122667,-125,4,2,99,35,0,0
122855,-125,4,2,99,50,0,0
123105,-125,4,2,99,35,0,0
123230,-125,4,2,99,50,0,0
123730,-125,4,2,99,35,0,0
123855,-125,4,2,99,50,0,0
124105,-125,4,2,99,35,0,0
124230,-125,4,2,99,50,0,0
124480,-125,4,2,99,35,0,0
124605,-125,4,2,99,50,0,0
124667,-125,4,2,99,35,0,0
124980,-125,4,2,99,50,0,0
125105,-125,4,2,99,35,0,0
125480,-125,4,2,99,50,0,0
125730,-125,4,2,99,35,0,0
125855,-125,4,2,99,50,0,0
126105,-125,4,2,99,35,0,0
126230,-125,4,2,99,50,0,0
126480,-125,4,2,99,35,0,0
126980,-125,4,2,99,50,0,0
127230,-125,4,2,99,50,0,0
127355,-125,4,2,99,60,0,0
127480,-100,4,2,99,75,0,0
133480,-125,4,2,99,50,0,0
133605,-125,4,2,99,50,0,0
133730,-125,4,2,99,35,0,0
133855,-125,4,2,99,50,0,0
133980,-125,4,2,99,50,0,0
134105,-125,4,2,99,35,0,0
134230,-125,4,2,99,50,0,0
134355,-125,4,2,99,50,0,0
134480,-125,4,2,99,50,0,0
134667,-125,4,2,99,35,0,0
134855,-125,4,2,99,50,0,0
135105,-125,4,2,99,35,0,0
135230,-125,4,2,99,50,0,0
135480,-111.111111111111,4,2,99,62,0,0
148730,-111.111111111111,4,2,99,66,0,0
148980,-111.111111111111,4,2,99,70,0,0
149230,-111.111111111111,4,2,99,74,0,0
150480,-111.111111111111,4,2,99,64,0,0
151230,-111.111111111111,4,2,99,50,0,0
151480,-90.9090909090909,4,2,99,75,0,0
159271,-90.9090909090909,4,2,99,75,0,0
159355,-90.9090909090909,4,2,99,75,0,0
159396,-90.9090909090909,4,2,99,75,0,0
159480,-90.9090909090909,4,2,99,75,0,0
166480,-100,4,2,99,77,0,0
167230,-100,4,2,99,77,0,0
167480,-100,4,2,99,84,0,0
167542,-100,4,2,99,84,0,0
167605,-100,4,2,99,84,0,0
167667,-100,4,2,99,84,0,0
167730,-100,4,2,99,84,0,0
167792,-100,4,2,99,84,0,0
167855,-100,4,2,99,84,0,0
167917,-100,4,2,99,84,0,0
167980,-100,4,2,99,84,0,0
168042,-100,4,2,99,84,0,0
168105,-100,4,2,99,84,0,0
168167,-100,4,2,99,84,0,0
168230,-100,4,2,99,84,0,0
168542,-100,4,2,99,84,0,0
168605,-100,4,2,99,84,0,0
168792,-100,4,2,99,84,0,0
168855,-100,4,2,99,84,0,0
168917,-100,4,2,99,84,0,0
168980,-100,4,2,99,84,0,0
169042,-100,4,2,99,84,0,0
169105,-100,4,2,99,84,0,0
169167,-100,4,2,99,84,0,0
169230,-100,4,2,99,84,0,0
169542,-100,4,2,99,84,0,0
169605,-100,4,2,99,84,0,0
169667,-100,4,2,99,84,0,0
169730,-100,4,2,99,84,0,0
169792,-100,4,2,99,84,0,0
169855,-100,4,2,99,84,0,0
169917,-100,4,2,99,84,0,0
169980,-100,4,2,99,84,0,0
170042,-100,4,2,99,84,0,0
170105,-100,4,2,99,84,0,0
170167,-100,4,2,99,84,0,0
170230,-100,4,2,99,84,0,0
170542,-100,4,2,99,84,0,0
170605,-100,4,2,99,84,0,0
170917,-100,4,2,99,84,0,0
170980,-100,4,2,99,84,0,0
171042,-100,4,2,99,84,0,0
171105,-100,4,2,99,84,0,0
171167,-100,4,2,99,84,0,0
171230,-100,4,2,99,84,0,0
171542,-100,4,2,99,84,0,0
171605,-100,4,2,99,84,0,0
171667,-100,4,2,99,84,0,0
171730,-100,4,2,99,84,0,0
171792,-100,4,2,99,84,0,0
171855,-100,4,2,99,84,0,0
171917,-100,4,2,99,84,0,0
171980,-100,4,2,99,84,0,0
172042,-100,4,2,99,84,0,0
172105,-100,4,2,99,84,0,0
172167,-100,4,2,99,84,0,0
172230,-100,4,2,99,84,0,0
173542,-100,4,2,99,84,0,0
173605,-100,4,2,99,84,0,0
174042,-100,4,2,99,84,0,0
174105,-100,4,2,99,84,0,0
175542,-100,4,2,99,84,0,0
175605,-100,4,2,99,84,0,0
175667,-100,4,2,99,84,0,0
175730,-100,4,2,99,84,0,0
175792,-100,4,2,99,84,0,0
175855,-100,4,2,99,84,0,0
175917,-100,4,2,99,84,0,0
175980,-100,4,2,99,84,0,0
176042,-100,4,2,99,84,0,0
176105,-100,4,2,99,84,0,0
176167,-100,4,2,99,84,0,0
176230,-100,4,2,99,84,0,0
176542,-100,4,2,99,84,0,0
176605,-100,4,2,99,84,0,0
176792,-100,4,2,99,84,0,0
176855,-100,4,2,99,84,0,0
176917,-100,4,2,99,84,0,0
176980,-100,4,2,99,84,0,0
177042,-100,4,2,99,84,0,0
177105,-100,4,2,99,84,0,0
177167,-100,4,2,99,84,0,0
177230,-100,4,2,99,84,0,0
177542,-100,4,2,99,84,0,0
177605,-100,4,2,99,84,0,0
177667,-100,4,2,99,84,0,0
177730,-100,4,2,99,84,0,0
177792,-100,4,2,99,84,0,0
177855,-100,4,2,99,84,0,0
177917,-100,4,2,99,84,0,0
177980,-100,4,2,99,84,0,0
178042,-100,4,2,99,84,0,0
178105,-100,4,2,99,84,0,0
178167,-100,4,2,99,84,0,0
178230,-100,4,2,99,84,0,0
181480,-100,4,2,99,84,0,0
189417,-100,4,2,99,84,0,0
189480,-100,4,2,99,84,0,0
189542,-100,4,2,99,84,0,0
189605,-100,4,2,99,84,0,0
189792,-100,4,2,99,84,0,0
189855,-100,4,2,99,84,0,0
190042,-100,4,2,99,84,0,0
190105,-100,4,2,99,84,0,0
193480,-100,4,2,99,84,0,0

[Colours]
Combo1 : 255,179,179
Combo2 : 201,184,192

[HitObjects]
290,19,520,6,0,P|313:57|322:138,1,105,4|4,1:2|2:3,0:0:0:0:
275,179,887,2,0,P|227:194|205:243,1,105,0|4,1:0|2:3,0:0:0:0:
145,292,1254,1,0,1:0:0:0:
145,292,1377,1,4,2:3:0:0:
76,253,1499,6,0,P|66:201|59:146,1,105,0|8,1:0|2:3,0:0:0:0:
19,81,1866,2,0,P|50:26|140:10,1,157.5,0|0,1:0|1:0,0:0:0:0:
268,96,2480,6,0,P|294:65|358:57,1,105,0|4,1:0|2:3,0:0:0:0:
409,114,2855,2,0,P|374:148|371:214,1,105,0|4,1:0|2:3,0:0:0:0:
411,273,3230,1,0,1:0:0:0:
411,273,3355,1,0,2:0:0:0:
350,323,3480,6,0,P|296:334|236:351,1,105,0|8,1:0|2:3,0:0:0:0:
169,343,3855,2,0,P|152:262|139:226,1,105,0|4,1:0|2:3,0:0:0:0:
110,169,4230,1,0,1:0:0:0:
239,75,4480,6,0,P|226:122|219:181,1,105,0|4,1:0|2:3,0:0:0:0:
269,238,4855,2,0,P|331:216|375:214,1,105,0|4,1:0|2:3,0:0:0:0:
408,146,5230,1,0,1:0:0:0:
408,146,5355,1,0,2:0:0:0:
365,75,5480,2,0,P|422:45|521:19,2,157.5,0|0|0,1:0|1:0|1:0,0:0:0:0:
240,97,6480,6,0,P|246:141|254:180,1,84,2|0,0:0|2:0,0:0:0:0:
129,199,6980,2,0,P|122:154|114:115,1,84,2|2,3:2|2:0,0:0:0:0:
182,21,7490,6,0,P|218:9|295:-2,1,94.499997116089,6|2,1:2|2:0,0:0:0:0:
352,34,7863,1,2,2:0:0:0:
352,34,7987,1,2,1:2:0:0:
420,149,8236,2,0,P|382:157|356:162,1,47.2499985580445,0|2,2:0|2:0,0:0:0:0:
302,197,8485,2,0,P|279:246|262:297,2,94.499997116089,2|0|2,1:2|2:0|1:2,0:0:0:0:
154,161,9232,5,2,2:0:0:0:
154,161,9357,1,0,2:0:0:0:
154,161,9480,2,0,P|123:122|75:96,1,94.9999999999999,2|2,1:2|2:0,0:0:0:0:
21,246,9980,2,0,P|-5:309|12:348,1,94.499997116089,2|0,1:2|2:0,0:0:0:0:
80,360,10355,1,2,2:0:0:0:
80,360,10480,2,0,P|111:321|159:295,1,94.9999999999999,2|0,1:2|2:0,0:0:0:0:
225,268,10980,2,0,P|218:248|212:219,2,47.5,2|2|2,1:2|2:0|2:0,0:0:0:0:
384,278,11480,6,0,P|394:242|406:165,1,94.9999999999999,6|2,1:2|2:0,0:0:0:0:
376,107,11855,1,2,2:0:0:0:
376,107,11980,1,2,1:2:0:0:
255,2,12230,2,0,P|247:40|242:66,1,47.2499985580445,0|2,2:0|2:0,0:0:0:0:
207,120,12480,2,0,P|158:143|107:160,2,94.499997116089,2|0|2,1:2|2:0|1:2,0:0:0:0:
233,288,13230,5,2,2:0:0:0:
233,288,13355,1,0,2:0:0:0:
233,288,13480,2,0,P|264:327|312:353,1,94.9999999999999,2|2,1:2|2:0,0:0:0:0:
459,318,13980,2,0,P|485:254|468:216,1,94.499997116089,2|2,1:2|2:0,0:0:0:0:
455,161,14355,1,2,2:0:0:0:
455,161,14480,2,0,P|415:157|356:146,1,94.499997116089,2|2,1:2|2:0,0:0:0:0:
296,110,14855,1,2,2:0:0:0:
296,110,14980,1,2,1:2:0:0:
158,26,15230,1,2,2:0:0:0:
38,133,15480,6,0,P|74:122|151:110,1,94.9999999999999,6|2,1:2|2:0,0:0:0:0:
209,141,15855,1,2,2:0:0:0:
209,141,15980,1,2,1:2:0:0:
342,230,16230,2,0,P|350:268|355:294,1,47.2499985580445,0|2,2:0|2:0,0:0:0:0:
390,348,16480,2,0,P|439:371|490:388,2,94.499997116089,2|0|2,1:2|2:0|1:2,0:0:0:0:
240,321,17230,5,2,2:0:0:0:
240,321,17355,1,0,2:0:0:0:
240,321,17480,2,0,P|209:360|161:386,1,94.9999999999999,2|2,1:2|2:0,0:0:0:0:
107,236,17980,2,0,P|80:172|98:134,1,94.499997116089,2|0,1:2|2:0,0:0:0:0:
166,122,18355,1,2,2:0:0:0:
166,122,18480,2,0,P|197:161|245:187,1,94.9999999999999,2|0,1:2|2:0,0:0:0:0:
317,171,18855,1,2,2:0:0:0:
317,171,18980,2,0,P|324:151|330:122,2,47.5,2|2|2,1:2|2:0|2:0,0:0:0:0:
476,177,19480,6,0,P|486:213|498:290,1,94.9999999999999,6|2,1:2|2:0,0:0:0:0:
468,348,19855,1,2,2:0:0:0:
468,348,19980,1,2,1:2:0:0:
308,327,20230,2,0,P|300:289|295:263,1,47.2499985580445,0|2,2:0|2:0,0:0:0:0:
218,266,20480,2,0,P|169:289|118:306,2,94.499997116089,2|0|2,1:2|2:0|1:2,0:0:0:0:
248,114,21230,5,2,2:0:0:0:
248,114,21355,1,0,2:0:0:0:
248,114,21480,2,0,P|217:75|169:49,1,94.9999999999999,2|2,1:2|2:0,0:0:0:0:
28,108,21980,2,0,P|1:171|19:210,1,94.499997116089,2|2,1:2|2:0,0:0:0:0:
76,233,22355,1,2,2:0:0:0:
76,233,22480,2,0,P|116:237|175:248,1,94.499997116089,2|2,1:2|2:0,0:0:0:0:
244,288,22855,1,2,2:0:0:0:
244,288,22980,1,2,1:2:0:0:
394,231,23230,1,2,2:0:0:0:
432,93,23480,6,0,P|460:89|511:127,2,84,6|0|0,3:2|2:0|3:0,0:0:0:0:
349,152,24230,1,0,0:0:0:0:
256,191,24480,2,0,P|261:218|270:276,1,84,2|2,3:2|2:0,0:0:0:0:
338,347,24980,2,0,P|254:358|201:370,1,126,2|2,3:2|2:0,0:0:0:0:
165,380,25480,5,6,3:2:0:0:
65,365,25730,1,2,2:0:0:0:
15,276,25980,2,0,P|21:234|28:193,1,84,0|0,3:0|2:0,0:0:0:0:
125,164,26480,2,0,P|131:122|138:81,1,84,2|2,3:2|2:0,0:0:0:0:
223,27,26980,2,0,P|257:-2|336:12,1,126,2|0,3:2|2:0,0:0:0:0:
377,32,27480,6,0,P|382:71|391:132,2,84,6|2|0,3:2|2:0|3:0,0:0:0:0:
294,90,28230,1,0,2:0:0:0:
331,183,28480,2,0,P|261:248|185:220,1,168,2|2,3:2|3:2,0:0:0:0:
156,140,29230,1,2,2:0:0:0:
56,157,29480,2,0,P|34:190|34:244,1,84,6|0,3:2|2:0,0:0:0:0:
106,301,29980,2,0,P|150:316|188:398,1,126,0|2,3:0|2:0,0:0:0:0:
239,381,30480,2,0,P|278:372|328:365,1,84,2|2,3:2|2:0,0:0:0:0:
393,295,30980,2,0,P|432:286|482:279,1,84,2|0,3:2|2:0,0:0:0:0:
504,183,31480,6,0,P|501:143|469:107,2,84,6|2|0,3:2|2:0|3:0,0:0:0:0:
402,184,32230,1,0,2:0:0:0:
326,116,32480,2,0,P|287:121|224:129,1,84,2|2,3:2|2:0,0:0:0:0:
145,96,32980,2,0,P|108:115|96:193,1,126,2|2,3:2|2:0,0:0:0:0:
133,227,33480,5,6,3:2:0:0:
62,299,33730,1,2,2:0:0:0:
159,324,33980,2,0,P|189:319|218:270,1,84,2|0,3:2|2:0,0:0:0:0:
291,208,34480,2,0,P|273:144|254:27,1,168,2|2,3:2|3:2,0:0:0:0:
190,234,35480,6,0,P|183:276|172:317,2,84,6|2|2,3:2|2:0|3:2,0:0:0:0:
175,133,36230,1,0,2:0:0:0:
99,66,36480,2,0,P|47:74|10:183,1,168,0|0,3:0|3:0,0:0:0:0:
57,258,37230,1,2,2:0:0:0:
114,340,37480,2,0,P|135:320|204:310,1,84,6|2,3:2|2:0,0:0:0:0:
288,310,37980,2,0,P|299:246|314:184,1,126,2|2,3:2|2:0,0:0:0:0:
350,152,38480,2,0,P|392:158|425:184,1,84,2|2,3:2|2:0,0:0:0:0:
460,277,38980,1,2,3:2:0:0:
388,348,39230,5,2,2:3:0:0:
257,384,39480,6,0,P|204:365|188:356,1,52.5,6|0,1:2|2:0,0:0:0:0:
128,366,39735,2,0,P|147:313|156:297,1,52.5,4|8,2:3|2:3,0:0:0:0:
196,256,39990,2,0,P|163:222|96:215,1,105,0|0,2:0|1:0,0:0:0:0:
6,103,40500,2,0,P|11:55|25:-8,1,105,6|4,1:2|2:3,0:0:0:0:
101,12,40875,2,0,P|133:20|171:24,1,52.5,8|0,2:3|0:0,0:0:0:0:
284,118,41250,1,0,1:0:0:0:
284,118,41375,1,0,2:0:0:0:
349,73,41500,6,0,P|402:82|444:134,1,105,4|4,1:2|2:3,0:0:0:0:
476,185,41867,1,8,2:3:0:0:
409,227,41989,2,0,P|399:280|393:333,1,105,0|0,2:0|1:0,0:0:0:0:
321,363,42357,1,4,2:3:0:0:
249,329,42480,2,0,P|241:273|230:219,1,105,6|4,1:2|2:3,0:0:0:0:
175,170,42862,2,0,P|154:163|110:159,1,52.5,8|0,2:3|2:0,0:0:0:0:
0,51,43245,1,0,1:0:0:0:
0,51,43500,6,0,P|32:26|104:13,1,105,6|8,1:2|2:3,0:0:0:0:
155,61,43867,1,8,2:3:0:0:
229,35,43989,2,0,P|248:94|275:138,1,105,4|0,2:3|1:0,0:0:0:0:
346,150,44357,1,4,2:3:0:0:
385,219,44480,2,0,P|364:246|289:254,1,105,6|4,1:2|2:3,0:0:0:0:
243,314,44855,2,0,P|171:289|147:245,1,105,8|0,2:3|2:0,0:0:0:0:
126,199,45230,1,8,1:3:0:0:
126,199,45480,6,0,P|133:157|138:128,1,52.5,6|4,1:2|2:3,0:0:0:0:
130,67,45730,2,0,P|171:74|200:79,1,52.5,4|4,2:3|1:2,0:0:0:0:
255,105,45980,2,0,P|315:59|358:68,1,105,0|4,2:3|2:0,0:0:0:0:
400,112,46355,1,4,2:3:0:0:
466,160,46480,2,0,P|471:190|476:219,1,52.5,4|4,2:3|1:2,0:0:0:0:
423,271,46727,1,4,1:2:0:0:
423,271,46851,2,0,P|428:295|434:325,1,52.5,4|4,2:3|1:2,0:0:0:0:
293,263,47222,1,4,1:2:0:0:
293,263,47469,6,0,P|240:243|222:240,1,52.5,4|0,1:2|2:0,0:0:0:0:
176,203,47717,2,0,P|156:255|153:273,1,52.5,4|8,2:3|2:3,0:0:0:0:
121,322,47964,2,0,P|73:326|18:289,1,105,0|0,2:0|1:0,0:0:0:0:
4,142,48460,2,0,P|9:94|23:31,1,105,6|4,1:2|2:3,0:0:0:0:
91,1,48835,2,0,P|123:9|161:13,1,52.5,8|0,2:3|0:0,0:0:0:0:
247,136,49210,1,0,1:0:0:0:
247,136,49335,1,0,2:0:0:0:
313,179,49460,6,0,P|366:169|408:117,1,105,6|4,1:2|2:3,0:0:0:0:
475,107,49835,1,8,2:3:0:0:
462,184,49960,2,0,P|452:237|446:290,1,105,0|0,2:0|1:0,0:0:0:0:
310,367,50460,2,0,P|302:311|291:257,1,105,6|4,1:2|2:3,0:0:0:0:
239,205,50835,2,0,P|218:198|174:194,1,52.5,8|0,2:3|0:0,0:0:0:0:
213,40,51210,1,0,1:0:0:0:
213,40,51460,6,0,P|181:65|109:78,1,105,6|4,1:2|2:3,0:0:0:0:
44,51,51835,1,0,2:0:0:0:
9,121,51960,2,0,P|28:180|55:224,1,105,4|0,2:3|1:0,0:0:0:0:
119,255,52335,1,4,2:3:0:0:
188,218,52460,2,0,P|209:191|284:183,1,105,6|0,1:2|0:0,0:0:0:0:
309,251,52835,2,0,P|381:276|405:320,1,105,8|4,2:3|0:3,0:0:0:0:
388,376,53210,1,0,1:0:0:0:
396,98,55194,5,2,2:3:0:0:
396,98,55480,2,0,P|334:88|280:137,1,115.50000352478,6|12,1:2|2:3,0:0:0:0:
221,68,55855,1,4,2:3:0:0:
161,130,55980,6,0,P|154:167|150:206,1,77.0000023498536,4|0,1:2|0:0,0:0:0:0:
185,304,56313,5,0,0:0:0:0:
266,252,56480,6,0,P|230:265|194:280,1,77.0000023498536,4|0,1:2|0:0,0:0:0:0:
114,363,56813,5,0,0:0:0:0:
6,306,56980,5,4,1:2:0:0:
46,137,57230,6,0,P|40:99|34:57,1,57.7500017623902,12|4,2:3|2:3,0:0:0:0:
95,15,57480,2,0,P|156:5|210:54,1,115.50000352478,6|12,1:2|2:3,0:0:0:0:
284,47,57855,1,4,2:3:0:0:
234,117,57980,6,0,P|240:154|244:193,1,77.0000023498536,4|0,1:2|0:0,0:0:0:0:
219,306,58313,5,0,0:0:0:0:
138,254,58480,6,0,P|173:267|209:282,1,77.0000023498536,4|0,1:2|0:0,0:0:0:0:
290,365,58813,5,0,0:0:0:0:
398,308,58980,5,4,1:2:0:0:
428,173,59230,6,0,P|378:163|355:161,1,57.7500017623902,10|10,1:3|1:3,0:0:0:0:
315,96,59480,1,6,1:2:0:0:
315,96,59605,2,0,P|265:106|242:108,1,57.7500017623902,4|14,2:3|2:3,0:0:0:0:
190,160,59855,2,0,P|162:66|150:36,1,115.50000352478,6|4,2:3|2:3,0:0:0:0:
82,25,60230,5,14,2:3:0:0:
82,25,60355,1,6,2:3:0:0:
82,25,60480,2,0,P|32:12|8:6,1,57.7500017623902,4|6,1:2|2:3,0:0:0:0:
0,93,60730,2,0,P|50:106|74:112,1,57.7500017623902,12|6,2:3|2:3,0:0:0:0:
56,194,60980,6,0,P|106:181|130:175,1,57.7500017623902,4|6,1:2|2:3,0:0:0:0:
176,237,61230,1,12,2:3:0:0:
349,228,61480,6,0,P|362:145|368:96,1,115.50000352478,4|12,1:2|2:3,0:0:0:0:
316,44,61855,1,6,2:3:0:0:
316,44,61980,2,0,P|233:31|184:25,1,115.50000352478,4|14,1:2|2:3,0:0:0:0:
114,24,62355,5,4,2:3:0:0:
50,82,62480,2,0,P|106:114|168:80,1,115.50000352478,2|0,1:0|1:0,0:0:0:0:
323,122,62980,5,2,1:0:0:0:
345,208,63105,1,2,1:3:0:0:
260,187,63230,2,0,P|207:197|182:201,1,57.7500017623902,10|10,1:3|1:3,0:0:0:0:
119,220,63480,6,0,P|90:268|101:323,1,115.50000352478,6|12,1:2|2:3,0:0:0:0:
184,350,63855,1,4,2:3:0:0:
231,279,63980,6,0,P|268:272|307:268,1,77.0000023498536,4|0,1:2|0:0,0:0:0:0:
405,303,64313,5,0,0:0:0:0:
353,384,64480,6,0,P|366:348|381:312,1,77.0000023498536,4|0,1:2|0:0,0:0:0:0:
464,232,64813,5,0,0:0:0:0:
407,124,64980,5,4,1:2:0:0:
236,153,65230,6,0,P|230:115|224:73,1,57.7500017623902,12|4,2:3|2:3,0:0:0:0:
179,19,65480,2,0,P|118:9|64:58,1,115.50000352478,6|12,1:2|2:3,0:0:0:0:
28,110,65855,1,4,2:3:0:0:
66,187,65980,6,0,P|103:181|142:177,1,77.0000023498536,4|0,1:2|0:0,0:0:0:0:
245,229,66313,5,0,0:0:0:0:
178,323,66480,6,0,P|191:288|206:252,1,77.0000023498536,4|0,1:2|0:0,0:0:0:0:
327,189,66813,5,0,0:0:0:0:
288,70,66980,5,4,1:2:0:0:
451,11,67230,5,10,2:3:0:0:
493,86,67355,1,14,2:3:0:0:
422,136,67480,2,0,P|415:187|412:215,1,57.7500017623902,6|4,1:2|0:3,0:0:0:0:
327,196,67730,2,0,P|334:247|337:275,1,57.7500017623902,14|6,2:3|2:3,0:0:0:0:
417,280,67980,2,0,P|410:331|407:359,1,57.7500017623902,4|4,1:2|0:3,0:0:0:0:
329,370,68230,6,0,P|286:368|263:366,1,57.7500017623902,14|6,2:3|2:3,0:0:0:0:
203,313,68480,2,0,P|160:273|98:290,1,115.50000352478,4|12,1:2|2:3,0:0:0:0:
46,119,68980,2,0,P|89:159|151:142,1,115.50000352478,4|14,1:2|2:3,0:0:0:0:
284,51,69480,5,4,1:2:0:0:
368,32,69605,1,4,2:3:0:0:
345,114,69730,2,0,P|351:170|356:226,1,86.6250026435853,14|0,2:3|0:0,0:0:0:0:
353,200,69980,2,0,P|399:193|427:190,1,57.7500017623902,4|4,1:2|2:3,0:0:0:0:
481,243,70230,2,0,L|509:247,3,28.8750008811951,14|4|4|4,2:3|2:3|2:3|2:3,0:0:0:0:
330,363,71480,6,0,P|294:375|217:386,1,94.9999999999999,6|2,1:2|2:0,0:0:0:0:
160,350,71855,1,2,2:0:0:0:
160,350,71980,1,2,1:2:0:0:
71,239,72230,2,0,P|79:201|84:175,1,47.2499985580445,0|2,2:0|2:0,0:0:0:0:
119,121,72480,2,0,P|168:98|219:81,2,94.499997116089,2|0|2,1:2|2:0|1:2,0:0:0:0:
277,226,73230,5,2,2:0:0:0:
277,226,73355,1,0,2:0:0:0:
277,226,73480,2,0,P|308:265|356:291,1,94.9999999999999,2|2,1:2|2:0,0:0:0:0:
487,178,73980,2,0,P|513:115|496:76,1,94.499997116089,2|0,1:2|2:0,0:0:0:0:
438,40,74355,1,2,2:0:0:0:
438,40,74480,2,0,P|407:79|359:105,1,94.9999999999999,2|0,1:2|2:0,0:0:0:0:
286,82,74855,1,2,2:0:0:0:
286,82,74980,2,0,P|279:62|273:33,2,47.5,2|2|2,1:2|2:0|2:0,0:0:0:0:
372,238,75480,6,0,P|336:228|259:216,1,94.9999999999999,6|2,1:2|2:0,0:0:0:0:
201,246,75855,1,2,2:0:0:0:
201,246,75980,1,2,1:2:0:0:
47,153,76230,2,0,P|55:115|60:89,1,47.2499985580445,0|2,2:0|2:0,0:0:0:0:
95,35,76480,2,0,P|144:12|195:-5,2,94.499997116089,2|0|2,1:2|2:0|1:2,0:0:0:0:
259,131,77230,5,2,2:0:0:0:
259,131,77355,1,0,2:0:0:0:
259,131,77480,2,0,P|298:162|324:210,1,94.9999999999999,2|2,1:2|2:0,0:0:0:0:
258,367,77980,2,0,P|322:341|360:358,1,94.499997116089,2|2,1:2|2:0,0:0:0:0:
433,376,78355,1,2,2:0:0:0:
433,376,78480,2,0,P|429:336|418:277,1,94.499997116089,2|2,1:2|2:0,0:0:0:0:
461,205,78855,1,2,2:0:0:0:
461,205,78980,1,2,1:2:0:0:
342,70,79230,1,2,2:0:0:0:
181,151,79480,6,0,P|145:162|68:174,1,94.9999999999999,6|2,1:2|2:0,0:0:0:0:
10,143,79855,1,2,2:0:0:0:
10,143,79980,1,2,1:2:0:0:
36,320,80230,2,0,P|44:358|49:384,1,47.2499985580445,0|2,2:0|2:0,0:0:0:0:
134,348,80480,2,0,P|178:363|221:384,2,94.499997116089,2|0|2,1:2|2:0|1:2,0:0:0:0:
250,211,81230,5,2,2:0:0:0:
250,211,81355,1,0,2:0:0:0:
250,211,81480,2,0,P|281:172|329:146,1,94.9999999999999,2|2,1:2|2:0,0:0:0:0:
471,54,81980,2,0,P|498:118|480:156,1,94.499997116089,2|0,1:2|2:0,0:0:0:0:
466,228,82355,1,2,2:0:0:0:
466,228,82480,2,0,P|435:189|387:163,1,94.9999999999999,2|0,1:2|2:0,0:0:0:0:
313,150,82980,2,0,P|306:130|300:101,2,47.5,2|2|2,1:2|2:0|2:0,0:0:0:0:
174,37,83480,6,0,P|138:27|61:15,1,94.9999999999999,6|2,1:2|2:0,0:0:0:0:
3,45,83855,1,2,2:0:0:0:
3,45,83980,1,2,1:2:0:0:
24,205,84230,2,0,P|62:213|88:218,1,47.2499985580445,0|2,2:0|2:0,0:0:0:0:
85,295,84480,2,0,P|62:344|45:395,2,94.499997116089,2|0|2,1:2|2:0|1:2,0:0:0:0:
264,270,85230,5,2,2:0:0:0:
264,270,85355,1,0,2:0:0:0:
264,270,85480,2,0,P|295:309|343:335,1,94.9999999999999,2|2,1:2|2:0,0:0:0:0:
484,276,85980,2,0,P|511:213|493:174,1,94.499997116089,2|2,1:2|2:0,0:0:0:0:
436,151,86355,1,2,2:0:0:0:
436,151,86480,2,0,P|396:147|337:136,1,94.499997116089,2|2,1:2|2:0,0:0:0:0:
268,96,86855,1,2,2:0:0:0:
268,96,86980,1,2,1:2:0:0:
118,153,87230,1,2,2:0:0:0:
80,291,87480,6,0,P|52:295|1:257,2,84,6|0|0,3:2|2:0|3:0,0:0:0:0:
165,236,88230,1,0,0:0:0:0:
248,179,88480,2,0,P|243:152|234:94,1,84,2|2,3:2|2:0,0:0:0:0:
319,41,88980,2,0,P|403:30|456:18,1,126,0|2,3:2|2:0,0:0:0:0:
489,0,89480,5,6,3:2:0:0:
511,98,89730,1,2,2:0:0:0:
427,155,89980,2,0,P|421:197|414:238,1,84,0|2,2:0|2:0,0:0:0:0:
313,238,90480,2,0,P|307:280|300:321,1,84,2|2,3:2|2:0,0:0:0:0:
201,296,90980,2,0,P|167:267|88:281,1,126,2|0,3:2|2:0,0:0:0:0:
47,301,91480,6,0,P|42:340|33:401,2,84,6|2|0,3:2|2:0|3:0,0:0:0:0:
7,208,92230,1,0,2:0:0:0:
84,143,92480,2,0,P|154:78|230:106,1,168,2|0,3:2|3:0,0:0:0:0:
284,168,93230,1,0,2:0:0:0:
379,136,93480,2,0,P|401:169|401:223,1,84,6|0,3:2|2:0,0:0:0:0:
474,283,93980,2,0,P|430:298|392:380,1,126,0|2,3:0|2:0,0:0:0:0:
343,379,94480,2,0,P|304:370|254:363,1,84,2|0,3:2|2:0,0:0:0:0:
209,276,94980,2,0,P|170:285|120:292,1,84,2|0,3:2|2:0,0:0:0:0:
25,293,95480,6,0,P|28:333|60:369,2,84,6|2|0,3:2|2:0|3:0,0:0:0:0:
84,211,96230,1,0,2:0:0:0:
146,131,96480,2,0,P|185:126|248:118,1,84,2|2,3:2|2:0,0:0:0:0:
328,100,96980,2,0,P|365:119|377:197,1,126,0|2,3:0|2:0,0:0:0:0:
340,231,97480,5,6,3:2:0:0:
411,303,97730,1,0,2:0:0:0:
314,328,97980,2,0,P|284:323|255:274,1,84,2|0,3:2|2:0,0:0:0:0:
182,212,98480,2,0,P|200:148|219:31,1,168,2|0,3:2|3:0,0:0:0:0:
355,194,99480,6,0,P|397:201|438:212,2,84,6|2|2,3:2|2:0|3:2,0:0:0:0:
263,238,100230,1,0,0:0:0:0:
175,288,100480,2,0,P|183:340|292:377,1,168,0|0,3:0|3:0,0:0:0:0:
368,332,101230,1,2,2:0:0:0:
446,268,101480,2,0,P|426:247|416:178,1,84,6|2,3:2|2:0,0:0:0:0:
335,128,101980,2,0,P|324:192|309:254,1,126,2|2,3:2|2:0,0:0:0:0:
267,278,102480,2,0,P|225:272|192:246,1,84,2|0,3:2|2:0,0:0:0:0:
132,166,102948,1,4,2:3:0:0:
165,70,103220,5,2,2:3:0:0:
268,41,103480,6,0,P|321:60|337:69,1,52.5,6|0,1:2|2:0,0:0:0:0:
396,55,103730,2,0,P|377:108|368:124,1,52.5,4|8,2:3|2:3,0:0:0:0:
315,153,103980,2,0,P|348:187|415:194,1,105,0|0,2:0|1:0,0:0:0:0:
375,352,104480,2,0,P|327:347|264:333,1,105,6|4,1:2|2:3,0:0:0:0:
193,323,104855,2,0,P|201:291|205:253,1,52.5,8|0,2:3|0:0,0:0:0:0:
190,118,105230,1,0,1:0:0:0:
190,118,105355,1,0,2:0:0:0:
125,73,105480,6,0,P|72:82|30:134,1,105,4|4,1:2|2:3,0:0:0:0:
0,185,105847,1,8,2:3:0:0:
65,227,105969,2,0,P|75:280|81:333,1,105,0|0,2:0|1:0,0:0:0:0:
153,363,106337,1,4,2:3:0:0:
225,329,106460,2,0,P|233:273|244:219,1,105,6|4,1:2|2:3,0:0:0:0:
299,170,106831,2,0,P|320:163|364:159,1,52.5,8|0,2:3|2:0,0:0:0:0:
498,210,107202,1,0,1:0:0:0:
483,53,107449,6,0,P|451:28|379:15,1,105,6|8,1:2|2:3,0:0:0:0:
328,63,107831,1,0,2:0:0:0:
254,37,107959,2,0,P|235:96|208:140,1,105,4|0,2:3|1:0,0:0:0:0:
137,152,108342,1,4,2:3:0:0:
98,221,108470,2,0,P|119:248|194:256,1,105,6|4,1:2|2:3,0:0:0:0:
240,316,108853,2,0,P|312:291|336:247,1,105,8|0,2:3|2:0,0:0:0:0:
357,201,109236,1,8,1:3:0:0:
501,138,109491,6,0,P|494:96|489:67,1,52.5,6|4,1:2|2:3,0:0:0:0:
497,6,109735,2,0,P|456:13|427:18,1,52.5,4|4,2:3|1:2,0:0:0:0:
372,44,109980,2,0,P|312:-2|269:7,1,105,0|4,2:3|2:0,0:0:0:0:
227,51,110348,1,4,2:3:0:0:
155,21,110470,1,4,2:3:0:0:
161,99,110593,2,0,P|156:129|151:158,1,52.5,4|4,1:2|2:3,0:0:0:0:
204,210,110837,2,0,P|199:234|193:264,1,52.5,4|4,0:3|1:2,0:0:0:0:
340,331,111215,1,4,1:2:0:0:
340,331,111470,6,0,P|393:311|411:308,1,52.5,4|0,1:2|2:0,0:0:0:0:
467,308,111722,2,0,P|447:256|444:238,1,52.5,4|8,2:3|2:3,0:0:0:0:
468,182,111975,2,0,P|420:186|365:149,1,105,0|0,2:0|1:0,0:0:0:0:
234,235,112480,2,0,P|229:187|215:124,1,105,6|4,1:2|2:3,0:0:0:0:
159,76,112855,2,0,P|127:84|89:88,1,52.5,8|0,2:3|2:0,0:0:0:0:
0,216,113230,1,0,1:0:0:0:
0,216,113355,1,0,2:0:0:0:
59,267,113480,6,0,P|112:257|154:205,1,105,6|4,1:2|2:3,0:0:0:0:
221,247,113855,1,8,2:3:0:0:
298,232,113980,2,0,P|288:285|282:338,1,105,0|0,2:0|1:0,0:0:0:0:
419,258,114480,2,0,P|411:202|400:148,1,105,6|4,1:2|2:3,0:0:0:0:
445,88,114855,2,0,P|424:81|380:77,1,52.5,8|0,2:3|2:0,0:0:0:0:
252,6,115230,6,0,P|260:45|266:73,1,52.5,0|0,1:0|2:0,0:0:0:0:
267,137,115480,1,6,1:2:0:0:
132,218,115730,1,4,2:3:0:0:
62,181,115855,2,0,P|36:173|11:164,1,52.5,8|0,2:3|2:0,0:0:0:0:
12,243,116105,6,0,P|36:251|62:259,1,52.5,4|0,2:3|1:0,0:0:0:0:
134,226,116355,1,4,2:3:0:0:
228,352,116605,2,0,P|247:334|266:316,1,52.5,4|4,2:3|2:3,0:0:0:0:
274,238,116855,1,8,2:3:0:0:
411,160,117105,2,0,P|445:168|466:178,2,52.5,4|0|0,2:3|1:0|2:0,0:0:0:0:
339,192,117480,6,0,P|326:103|319:66,1,105,6|8,1:2|2:3,0:0:0:0:
246,68,117855,2,0,P|157:81|120:88,1,105,0|4,1:0|0:3,0:0:0:0:
72,121,118230,1,8,1:3:0:0:
7,282,118480,5,4,2:3:0:0:
7,282,118605,2,0,P|57:290|81:296,1,52.5,4|0,1:2|2:0,0:0:0:0:
214,364,118980,1,0,1:0:0:0:
214,364,119105,1,0,1:0:0:0:
214,364,119230,1,0,1:0:0:0:
214,364,119355,1,0,1:0:0:0:
145,361,127480,6,0,P|189:347|213:342,1,52.5,4|0,1:2|2:0,0:0:0:0:
183,267,127730,1,4,2:3:0:0:
256,293,127855,2,0,P|301:302|360:255,1,105,0|0,1:0|2:0,0:0:0:0:
349,275,128230,1,0,1:0:0:0:
423,136,128480,6,0,L|428:81,1,52.5,0|0,1:0|2:0,0:0:0:0:
349,78,128730,2,0,L|344:133,1,52.5,2|2,2:0|1:2,0:0:0:0:
280,176,128980,2,0,P|229:158|161:158,1,105,2|0,2:0|1:0,0:0:0:0:
32,97,129480,6,0,P|46:141|51:165,1,52.5,0|0,1:0|2:0,0:0:0:0:
4,214,129730,1,4,2:3:0:0:
82,224,129855,2,0,P|91:269|44:328,1,105,0|0,1:0|2:0,0:0:0:0:
64,317,130230,1,0,1:0:0:0:
223,285,130480,5,0,1:0:0:0:
223,285,130605,1,2,2:0:0:0:
223,285,130730,2,0,L|228:340,1,52.5,2|2,2:0|1:2,0:0:0:0:
292,383,130980,2,0,P|343:365|411:365,1,105,2|2,2:0|1:2,0:0:0:0:
472,226,131480,6,0,P|428:212|404:207,1,52.5,2|2,1:2|2:0,0:0:0:0:
434,132,131730,1,4,2:3:0:0:
361,158,131855,2,0,P|315:167|257:120,1,105,2|0,1:2|2:0,0:0:0:0:
267,138,132230,1,2,1:2:0:0:
116,98,132480,6,0,L|61:93,1,52.5,0|2,1:0|2:0,0:0:0:0:
54,171,132730,2,0,L|109:176,1,52.5,2|0,2:0|1:0,0:0:0:0:
175,213,132980,2,0,P|193:264|193:332,1,105,2|0,2:0|1:0,0:0:0:0:
256,192,133480,12,4,135480,1:2:0:0:
393,164,151230,5,2,2:0:0:0:
393,164,151480,2,0,P|422:116|411:61,1,115.50000352478,6|12,1:2|2:3,0:0:0:0:
328,34,151855,1,4,2:3:0:0:
281,105,151980,6,0,P|244:112|205:116,1,77.0000023498536,4|0,1:2|0:0,0:0:0:0:
107,81,152313,5,0,0:0:0:0:
159,0,152480,6,0,P|146:36|131:72,1,77.0000023498536,4|0,1:2|0:0,0:0:0:0:
48,152,152813,5,0,0:0:0:0:
105,260,152980,5,4,1:2:0:0:
276,231,153230,6,0,P|282:269|288:311,1,57.7500017623902,12|4,2:3|2:3,0:0:0:0:
331,361,153480,2,0,P|392:371|446:322,1,115.50000352478,6|12,1:2|2:3,0:0:0:0:
484,274,153855,1,4,2:3:0:0:
446,197,153980,6,0,P|409:203|370:207,1,77.0000023498536,4|0,1:2|0:0,0:0:0:0:
267,155,154313,5,0,0:0:0:0:
334,61,154480,6,0,P|321:96|306:132,1,77.0000023498536,4|0,1:2|0:0,0:0:0:0:
185,195,154813,5,0,0:0:0:0:
224,314,154980,5,4,1:2:0:0:
387,371,155230,6,0,P|377:321|375:298,1,57.7500017623902,10|10,1:3|1:3,0:0:0:0:
313,261,155480,1,6,1:2:0:0:
313,261,155605,2,0,P|323:211|325:188,1,57.7500017623902,4|14,2:3|2:3,0:0:0:0:
374,133,155855,2,0,P|280:105|250:93,1,115.50000352478,6|4,2:3|2:3,0:0:0:0:
183,101,156230,5,14,2:3:0:0:
183,101,156355,1,6,2:3:0:0:
183,101,156480,2,0,P|196:51|202:27,1,57.7500017623902,4|6,1:2|2:3,0:0:0:0:
114,20,156730,2,0,P|101:70|95:94,1,57.7500017623902,12|6,2:3|2:3,0:0:0:0:
44,142,156980,6,0,P|57:192|63:216,1,57.7500017623902,4|6,1:2|2:3,0:0:0:0:
143,179,157230,1,12,2:3:0:0:
246,317,157480,6,0,P|329:330|378:336,1,115.50000352478,4|12,1:2|2:3,0:0:0:0:
431,282,157855,1,6,2:3:0:0:
431,282,157980,2,0,P|444:198|450:149,1,115.50000352478,4|14,1:2|2:3,0:0:0:0:
450,82,158355,5,4,2:3:0:0:
392,18,158480,2,0,P|360:74|394:136,1,115.50000352478,2|0,1:0|1:0,0:0:0:0:
268,256,158980,5,2,1:0:0:0:
182,278,159105,1,2,1:3:0:0:
203,193,159230,2,0,P|193:140|189:115,1,57.7500017623902,10|10,1:3|1:3,0:0:0:0:
229,57,159480,6,0,P|291:47|345:96,1,115.50000352478,6|12,1:2|2:3,0:0:0:0:
418,58,159855,1,4,2:3:0:0:
390,140,159980,6,0,P|383:176|379:216,1,77.0000023498536,4|0,1:2|0:0,0:0:0:0:
415,325,160313,5,0,0:0:0:0:
496,273,160480,6,0,P|460:286|424:301,1,77.0000023498536,4|0,1:2|0:0,0:0:0:0:
344,384,160813,5,0,0:0:0:0:
236,327,160980,5,4,1:2:0:0:
71,382,161230,6,0,P|65:344|59:302,1,57.7500017623902,12|4,2:3|2:3,0:0:0:0:
4,260,161480,2,0,P|-6:199|43:145,1,115.50000352478,6|12,1:2|2:3,0:0:0:0:
89,101,161855,1,4,2:3:0:0:
148,164,161980,6,0,P|185:158|224:154,1,77.0000023498536,4|0,1:2|0:0,0:0:0:0:
337,179,162313,5,0,0:0:0:0:
285,260,162480,6,0,P|298:225|313:189,1,77.0000023498536,4|0,1:2|0:0,0:0:0:0:
396,108,162813,5,0,0:0:0:0:
339,0,162980,5,4,1:2:0:0:
181,72,163230,5,10,2:3:0:0:
181,72,163355,1,14,2:3:0:0:
116,14,163480,2,0,P|65:21|37:24,1,57.7500017623902,6|4,1:2|2:3,0:0:0:0:
98,104,163730,5,14,2:3:0:0:
98,104,163855,1,6,2:3:0:0:
40,169,163980,2,0,P|47:220|50:248,1,57.7500017623902,4|4,1:2|2:3,0:0:0:0:
103,292,164230,6,0,P|146:290|168:288,1,57.7500017623902,14|6,2:3|2:3,0:0:0:0:
229,235,164480,2,0,P|272:195|334:212,1,115.50000352478,4|12,1:2|2:3,0:0:0:0:
386,41,164980,2,0,P|343:81|281:64,1,115.50000352478,4|14,1:2|2:3,0:0:0:0:
215,28,165355,5,6,2:3:0:0:
215,28,165480,2,0,P|212:79|208:107,1,57.7500017623902,4|4,1:2|2:3,0:0:0:0:
131,93,165730,1,14,2:3:0:0:
131,93,165855,1,6,2:3:0:0:
131,93,165980,2,0,P|134:144|138:172,1,57.7500017623902,4|4,1:2|2:3,0:0:0:0:
150,240,166230,2,0,P|105:240|64:286,1,86.6250026435853,14|0,2:3|0:0,0:0:0:0:
73,264,166480,6,0,P|62:213|54:161,1,105,4|4,1:2|1:3,0:0:0:0:
210,175,166980,2,0,P|221:226|229:278,1,105,6|4,1:3|2:3,0:0:0:0:
379,323,167480,6,0,P|441:331|506:339,1,105,6|8,1:0|2:3,0:0:0:0:
497,259,167855,2,0,L|509:190,1,52.5,4|0,1:3|0:0,0:0:0:0:
418,73,168230,2,0,L|366:68,1,52.5,2|2,1:0|2:1,0:0:0:0:
341,142,168480,2,0,P|313:175|241:170,1,105,2|2,1:0|2:0,0:0:0:0:
197,123,168855,1,2,1:2:0:0:
179,199,168980,2,0,P|182:241|185:271,1,52.5,2|2,2:0|2:0,0:0:0:0:
132,312,169230,1,2,1:0:0:0:
132,312,169480,6,0,P|66:276|32:290,1,105,2|8,1:0|2:3,0:0:0:0:
10,210,169855,2,0,L|18:103,1,105,4|8,1:3|2:3,0:0:0:0:
84,64,170230,2,0,P|127:61|208:42,1,105,2|2,1:0|1:0,0:0:0:0:
259,12,170605,1,2,2:0:0:0:
259,12,170730,2,0,P|302:15|320:19,1,52.5,2|2,0:1|1:2,0:0:0:0:
389,4,170980,2,0,L|375:132,1,105,2|2,2:1|1:0,0:0:0:0:
417,260,171480,6,0,P|355:252|290:244,1,105,8|4,1:3|2:3,0:0:0:0:
299,324,171855,2,0,L|287:393,1,52.5,8|4,1:3|2:3,0:0:0:0:
135,360,172230,2,0,L|140:308,1,52.5,2|2,1:0|2:1,0:0:0:0:
66,283,172480,2,0,P|33:255|38:183,1,105,2|2,1:0|2:1,0:0:0:0:
75,132,172855,1,2,1:2:0:0:
147,161,172980,2,0,P|189:164|219:167,1,52.5,2|0,2:1|2:0,0:0:0:0:
260,114,173230,1,2,1:0:0:0:
260,114,173480,6,0,P|326:78|360:92,1,105,2|2,1:0|2:1,0:0:0:0:
405,139,173855,2,0,L|397:246,1,105,2|0,1:2|0:0,0:0:0:0:
460,290,174230,2,0,P|417:293|336:312,1,105,2|2,1:0|1:0,0:0:0:0:
302,362,174605,1,2,2:0:0:0:
302,362,174730,2,0,P|259:359|241:355,1,52.5,2|2,0:1|1:2,0:0:0:0:
174,380,174980,2,0,L|188:252,1,105,2|2,2:1|1:0,0:0:0:0:
119,132,175480,6,0,P|57:140|-8:148,1,105,6|8,1:0|2:3,0:0:0:0:
6,67,175855,2,0,L|-6:-2,1,52.5,4|0,1:3|0:0,0:0:0:0:
156,8,176230,2,0,L|208:3,1,52.5,2|2,1:0|0:1,0:0:0:0:
233,77,176480,2,0,P|261:110|333:105,1,105,2|2,1:0|2:0,0:0:0:0:
377,59,176855,1,2,1:2:0:0:
395,135,176980,2,0,P|392:177|389:207,1,52.5,2|2,2:0|2:0,0:0:0:0:
362,263,177230,1,2,1:0:0:0:
362,263,177480,6,0,P|296:299|262:285,1,105,2|0,1:0|2:0,0:0:0:0:
201,258,177855,1,4,1:3:0:0:
201,258,177980,2,0,L|195:188,1,52.5,2|8,2:1|2:3,0:0:0:0:
257,155,178230,2,0,P|214:152|133:133,1,105,2|2,1:0|1:0,0:0:0:0:
108,80,178605,1,2,2:0:0:0:
108,80,178730,2,0,P|65:83|47:87,1,52.5,2|2,2:1|1:2,0:0:0:0:
6,147,178980,2,0,L|20:275,1,105,2|2,2:1|1:0,0:0:0:0:
155,326,179480,6,0,P|217:318|282:310,1,105,0|2,1:0|3:2,0:0:0:0:
338,307,179855,2,0,L|350:376,1,52.5,0|2,1:0|2:0,0:0:0:0:
502,346,180230,2,0,L|497:294,1,52.5,2|2,1:0|2:1,0:0:0:0:
441,237,180480,2,0,P|474:209|469:137,1,105,2|2,1:0|3:1,0:0:0:0:
420,95,180855,1,0,1:0:0:0:
349,129,180980,2,0,P|307:132|277:135,1,52.5,2|2,2:1|2:1,0:0:0:0:
234,84,181230,6,0,L|239:51,3,26.25,2|0|2|0,1:0|3:0|3:0|3:0,0:0:0:0:
240,196,193480,5,6,3:2:0:0:
