osu file format v14

[General]
AudioFilename: audio.mp3
AudioLeadIn: 0
PreviewTime: 143417
Countdown: 0
SampleSet: Soft
StackLeniency: 0.5
Mode: 0
LetterboxInBreaks: 0
WidescreenStoryboard: 1

[Editor]
Bookmarks: 7490,23480,39522,55480,71480,87480,103480,119480,127480,135480,151480,167480,181480,193480
DistanceSpacing: 0.5
BeatDivisor: 4
GridSize: 4
TimelineZoom: 1.5

[Metadata]
Title:Replica feat. mami
TitleUnicode:レプリカ feat. mami
Artist:UKRampage
ArtistUnicode:有形ランペイジ
Creator:Amamya
Version:Extreme feat. Enon
Source:
Tags:cc22 hd1 sf corsace closed hidden one semi finals japanese rock jrock j-rock riana dailycare morinaga atipir enon cellina reana sasakure.uk odyssey ささくれP sasakureP sasakuration ササクレイション 佐々木秀尚 sasaki hidehisa 二家本亮介 nikamoto ryosuke 今井義頼 yoshinori imai 岸田勇気 yuki kishida
BeatmapID:3621507
BeatmapSetID:1769121

[Difficulty]
HPDrainRate:5
CircleSize:4
OverallDifficulty:9.3
ApproachRate:9.6
SliderMultiplier:1.8
SliderTickRate:1

[Events]
//Background and Video events
0,0,"89504775_p0.jpg",0,0
//Break Periods
2,53680,54685
2,181617,192971
//Storyboard Layer 0 (Background)
//Storyboard Layer 1 (Fail)
//Storyboard Layer 2 (Pass)
//Storyboard Layer 3 (Foreground)
//Storyboard Layer 4 (Overlay)
//Storyboard Sound Samples

[TimingPoints]
520,244.897959183673,4,2,99,78,1,0
2480,250,4,2,99,78,1,0
6605,-100,4,2,99,35,0,0
7490,248.96265560166,4,2,99,64,1,0
7490,-125,4,2,99,64,0,0
9480,250,4,2,99,64,1,0
9480,-125,4,2,99,64,0,0
13480,-111.111111111111,4,2,99,64,0,0
15480,-125,4,2,99,64,0,0
21480,-111.111111111111,4,2,99,64,0,0
23480,-133.333333333333,4,2,99,50,0,0
39229,-133.333333333333,4,2,99,64,0,0
39480,255.31914893617,4,2,99,78,1,0
39480,-133.333333333333,4,2,99,78,0,0
40500,250,4,2,99,78,1,0
40500,-100,4,2,99,78,0,0
41500,244.897959183673,4,2,99,78,1,0
42480,255.31914893617,4,2,99,78,1,0
43500,244.897959183673,4,2,99,78,1,0
44480,250,4,2,99,78,1,0
46480,247.422680412371,4,2,99,78,1,0
48460,250,4,2,99,78,1,0
53210,-66.6666666666667,4,2,99,78,0,0
53460,247.933884297521,4,2,99,78,1,0
53460,-66.6666666666667,4,2,99,50,0,0
55194,285.714285714286,4,2,99,50,1,0
55194,-66.6666666666667,4,2,99,35,0,0
55480,250,4,2,99,75,1,0
55480,-66.6666666666667,4,2,99,75,0,0
56980,-83.3333333333333,4,2,99,75,0,0
71480,-125,4,2,99,64,0,0
77480,-111.111111111111,4,2,99,64,0,0
79480,-125,4,2,99,64,0,0
85480,-111.111111111111,4,2,99,64,0,0
87480,-133.333333333333,4,2,99,50,0,0
102855,187.5,4,2,99,50,1,0
102948,272.727272727273,4,2,99,50,1,0
102948,-133.333333333333,4,2,99,64,0,0
103220,260.869565217391,4,2,99,64,1,0
103480,250,4,2,99,78,1,1
103480,-133.333333333333,4,2,99,78,0,0
104480,-100,4,2,99,78,0,0
105480,244.897959183673,4,2,99,78,1,0
106460,247.422680412371,4,2,99,78,1,0
107449,255.31914893617,4,2,99,78,1,0
109491,244.897959183673,4,2,99,78,1,0
110960,255.31914893617,4,2,99,78,1,0
111470,252.631578947368,4,2,99,78,1,0
112480,250,4,2,99,78,1,0
118980,-100,4,2,99,84,0,0
119480,-161.290322580645,4,2,99,50,0,0
119730,-161.290322580645,4,2,99,35,0,0
119855,-161.290322580645,4,2,99,50,0,0
120105,-161.290322580645,4,2,99,35,0,0
120230,-161.290322580645,4,2,99,50,0,0
120480,-161.290322580645,4,2,99,35,0,0
120605,-161.290322580645,4,2,99,50,0,0
120667,-161.290322580645,4,2,99,35,0,0
120980,-161.290322580645,4,2,99,50,0,0
121105,-161.290322580645,4,2,99,35,0,0
121480,-161.290322580645,4,2,99,50,0,0
121730,-161.290322580645,4,2,99,35,0,0
121855,-161.290322580645,4,2,99,50,0,0
122105,-161.290322580645,4,2,99,35,0,0
122230,-161.290322580645,4,2,99,50,0,0
122480,-161.290322580645,4,2,99,35,0,0
122605,-161.290322580645,4,2,99,50,0,0
122667,-161.290322580645,4,2,99,35,0,0
122855,-161.290322580645,4,2,99,50,0,0
123105,-161.290322580645,4,2,99,35,0,0
123230,-161.290322580645,4,2,99,50,0,0
123730,-161.290322580645,4,2,99,35,0,0
123855,-161.290322580645,4,2,99,50,0,0
124105,-161.290322580645,4,2,99,35,0,0
124230,-161.290322580645,4,2,99,50,0,0
124480,-161.290322580645,4,2,99,35,0,0
124605,-161.290322580645,4,2,99,50,0,0
124667,-161.290322580645,4,2,99,35,0,0
124980,-161.290322580645,4,2,99,50,0,0
125105,-161.290322580645,4,2,99,35,0,0
125480,-161.290322580645,4,2,99,50,0,0
125730,-161.290322580645,4,2,99,35,0,0
125855,-161.290322580645,4,2,99,50,0,0
126105,-161.290322580645,4,2,99,35,0,0
126230,-161.290322580645,4,2,99,50,0,0
126480,-98.0392156862745,4,2,99,35,0,0
126980,-121.951219512195,4,2,99,50,0,0
127355,-121.951219512195,4,2,99,60,0,0
127480,-98.0392156862745,4,2,99,75,0,0
133480,-161.290322580645,4,2,99,50,0,0
133730,-161.290322580645,4,2,99,35,0,0
133855,-161.290322580645,4,2,99,50,0,0
134105,-161.290322580645,4,2,99,35,0,0
134230,-161.290322580645,4,2,99,50,0,0
134667,-161.290322580645,4,2,99,35,0,0
134855,-161.290322580645,4,2,99,50,0,0
135105,-161.290322580645,4,2,99,35,0,0
135230,-161.290322580645,4,2,99,50,0,0
135480,-116.279069767442,4,2,99,62,0,0
148730,-116.279069767442,4,2,99,66,0,0
148980,-116.279069767442,4,2,99,70,0,0
149230,-116.279069767442,4,2,99,74,0,0
149980,-172.413793103448,4,2,99,74,0,0
150480,-285.714285714286,4,2,99,64,0,0
151230,-66.6666666666667,4,2,99,50,0,0
151480,-66.6666666666667,4,2,99,75,0,0
152980,-83.3333333333333,4,2,99,75,0,0
166480,-83.3333333333333,4,2,99,77,0,0
167480,-100,4,2,99,84,0,0

[Colours]
Combo1 : 255,179,179
Combo2 : 201,184,192

[HitObjects]
16,268,520,5,4,1:2:0:0:
40,348,642,1,0,2:0:0:0:
104,180,764,1,4,2:3:0:0:
96,288,887,1,0,1:0:0:0:
212,124,1009,5,0,2:0:0:0:
168,240,1132,1,4,2:3:0:0:
16,148,1254,2,0,P|24:76|24:32,1,90,0|4,1:0|2:3,2:0:0:0:
272,188,1499,6,0,P|264:260|264:304,1,90,0|4,1:0|2:3,2:0:0:0:
212,344,1744,1,8,2:3:0:0:
212,344,1866,1,0,1:0:0:0:
348,253,1989,5,0,2:3:0:0:
130,103,2111,1,4,2:3:0:0:
221,34,2234,2,0,P|218:78|212:123,1,90,0|0,1:0|2:0,2:0:0:0:
352,104,2480,6,0,P|412:92|440:56,1,90,0|0,1:0|2:0,2:0:0:0:
464,0,2730,1,4,2:3:0:0:
272,188,2855,1,0,1:0:0:0:
376,16,2980,1,0,2:0:0:0:
263,277,3105,1,4,2:3:0:0:
212,124,3230,2,0,P|205:79|197:35,1,90,0|0,1:0|2:0,2:0:0:0:
352,276,3480,6,0,P|340:348|336:384,1,90,0|4,1:0|2:3,2:0:0:0:
256,376,3730,1,8,2:3:0:0:
8,280,3855,6,0,P|20:208|24:172,1,90,0|0,1:0|2:0,2:0:0:0:
104,180,4105,1,4,2:3:0:0:
0,112,4230,5,0,1:0:0:0:
168,240,4355,1,4,2:3:0:0:
197,35,4480,5,0,1:0:0:0:
299,102,4605,2,0,P|236:116|183:133,1,90,0|4,2:0|2:3,2:0:0:0:
168,240,4855,1,0,1:0:0:0:
66,307,4980,2,0,P|129:321|182:338,1,90,0|4,2:0|2:3,2:0:0:0:
352,196,5230,1,0,1:0:0:0:
256,376,5355,1,0,2:0:0:0:
168,240,5480,5,0,1:0:0:0:
403,264,5605,2,0,P|380:345|376:372,1,90,4|8,2:3|2:3,2:0:0:0:
284,26,5855,5,0,1:0:0:0:
381,120,5980,2,0,P|395:77|404:33,1,90,0|4,2:0|2:3,2:0:0:0:
477,85,6230,5,0,1:0:0:0:
211,123,6355,1,0,2:0:0:0:
151,67,6605,5,2,2:0:0:0:
151,67,6667,1,2,2:0:0:0:
151,67,6730,1,0,2:0:0:0:
211,123,6855,1,2,2:0:0:0:
151,179,6980,2,0,P|143:231|139:271,1,90,2|0,3:2|2:0,2:0:0:0:
59,267,7230,1,2,2:0:0:0:
256,376,7355,1,2,2:0:0:0:
311,316,7490,6,0,P|359:306|466:288,1,144,6|2,1:2|2:0,2:0:0:0:
452,289,7801,1,2,2:0:0:0:
452,289,7863,1,2,2:0:0:0:
424,214,7987,1,2,1:2:0:0:
495,158,8112,1,2,2:0:0:0:
440,91,8236,1,0,2:0:0:0:
512,37,8361,1,2,2:0:0:0:
394,17,8485,6,0,P|360:37|320:47,1,72,2|2,1:2|2:0,2:0:0:0:
294,126,8734,2,0,P|312:156|322:191,1,72,0|2,2:0|2:0,2:0:0:0:
424,214,8983,1,2,1:2:0:0:
424,214,9232,5,2,2:0:0:0:
220,346,9357,1,0,2:0:0:0:
424,214,9480,6,0,P|436:141|453:55,1,144,2|2,1:2|2:0,2:0:0:0:
394,17,9855,1,2,2:0:0:0:
231,201,9980,6,0,P|237:236|243:271,1,72,2|2,1:2|2:0,2:0:0:0:
369,362,10230,2,0,P|333:368|298:374,1,72,0|2,2:0|2:0,2:0:0:0:
322,191,10480,5,2,1:2:0:0:
155,325,10605,1,2,2:0:0:0:
269,132,10730,1,0,2:0:0:0:
120,116,10855,1,2,2:0:0:0:
329,75,10980,5,2,1:2:0:0:
243,271,11105,1,2,2:0:0:0:
69,174,11230,1,2,2:0:0:0:
278,16,11480,6,0,P|199:30|126:40,1,144,6|2,1:2|2:0,2:0:0:0:
135,38,11792,1,2,2:0:0:0:
135,38,11855,1,2,2:0:0:0:
59,10,11980,1,2,1:2:0:0:
121,120,12105,1,2,2:0:0:0:
0,166,12230,1,0,2:0:0:0:
132,229,12355,1,2,2:0:0:0:
235,310,12480,6,0,P|199:315|164:323,1,72,2|2,1:2|2:0,2:0:0:0:
80,356,12730,2,0,P|74:320|66:285,1,72,0|2,2:0|2:0,2:0:0:0:
132,229,12980,1,2,1:2:0:0:
132,229,13230,5,2,2:0:0:0:
0,93,13355,1,0,2:0:0:0:
132,229,13480,6,0,P|166:176|256:196,1,161.999995056153,2|2,1:2|2:0,2:0:0:0:
500,129,13855,1,2,2:0:0:0:
500,129,13917,1,2,2:0:0:0:
500,129,13980,2,0,P|427:151|378:92,1,161.999995056153,2|2,1:2|2:0,2:0:0:0:
338,188,14355,1,2,2:0:0:0:
294,125,14480,5,2,1:2:0:0:
404,259,14605,1,2,2:0:0:0:
377,91,14730,1,2,2:0:0:0:
387,331,14855,1,2,2:0:0:0:
281,46,14980,1,2,1:2:0:0:
281,46,15230,5,2,2:0:0:0:
253,191,15355,1,2,2:0:0:0:
468,280,15480,6,0,P|385:290|312:301,1,144,6|2,1:2|2:0,2:0:0:0:
325,298,15792,1,2,2:0:0:0:
325,298,15855,1,2,2:0:0:0:
251,273,15980,1,2,1:2:0:0:
210,344,16105,1,2,2:0:0:0:
147,297,16230,1,0,2:0:0:0:
106,368,16355,1,2,2:0:0:0:
11,262,16480,6,0,P|9:227|3:191,1,72,2|2,1:2|2:0,2:0:0:0:
11,115,16730,2,0,P|46:113|82:107,1,72,0|2,2:0|2:0,2:0:0:0:
180,127,16980,1,2,1:2:0:0:
180,127,17230,5,2,2:0:0:0:
2,33,17355,1,0,2:0:0:0:
180,127,17480,6,0,P|233:130|322:92,1,144,2|2,1:2|2:0,2:0:0:0:
469,331,17855,1,2,2:0:0:0:
469,331,17917,1,2,2:0:0:0:
469,331,17980,2,0,P|436:315|400:315,1,72,2|2,1:2|2:0,2:0:0:0:
414,23,18230,2,0,P|398:55|398:91,1,72,0|2,2:0|2:0,2:0:0:0:
316,96,18480,5,2,1:2:0:0:
385,232,18605,1,2,2:0:0:0:
316,176,18730,5,0,2:0:0:0:
401,315,18855,1,2,2:0:0:0:
432,160,18980,5,2,1:2:0:0:
269,260,19105,1,2,2:0:0:0:
329,20,19230,1,2,2:0:0:0:
459,83,19480,6,0,P|378:91|300:97,1,144,6|2,1:2|2:0,2:0:0:0:
315,95,19792,1,2,2:0:0:0:
315,95,19855,1,2,2:0:0:0:
237,70,19980,1,2,1:2:0:0:
316,176,20105,1,2,2:0:0:0:
231,151,20230,1,0,2:0:0:0:
269,260,20355,1,2,2:0:0:0:
193,384,20480,6,0,P|198:348|206:313,1,72,2|2,1:2|2:0,2:0:0:0:
190,240,20730,2,0,P|154:234|119:226,1,72,0|2,2:0|2:0,2:0:0:0:
48,259,20980,1,2,1:2:0:0:
48,259,21230,5,2,2:0:0:0:
8,103,21355,1,0,2:0:0:0:
48,259,21480,6,0,P|39:192|7:101,1,161.999995056153,2|2,1:2|2:0,2:0:0:0:
273,0,21855,1,2,2:0:0:0:
273,0,21917,1,2,2:0:0:0:
273,0,21980,2,0,P|245:75|233:155,1,161.999995056153,2|2,1:2|2:0,2:0:0:0:
161,244,22355,1,2,2:0:0:0:
48,259,22480,5,2,1:2:0:0:
232,155,22605,1,2,2:0:0:0:
112,313,22730,1,2,2:0:0:0:
298,382,22855,1,2,2:0:0:0:
41,364,22980,1,2,1:2:0:0:
41,364,23230,5,2,2:0:0:0:
244,321,23355,1,2,2:0:0:0:
292,151,23480,6,0,P|289:117|284:83,1,67.5000025749208,6|0,3:2|2:0,2:0:0:0:
231,210,23730,1,0,2:0:0:0:
300,258,23855,1,2,2:0:0:0:
244,321,23980,1,0,3:0:0:0:
316,365,24105,2,0,P|348:327|429:326,1,135.000005149842,2|2,2:0|2:0,2:0:0:0:
512,232,24480,6,0,P|476:224|440:219,1,67.5000025749208,2|0,3:2|2:0,2:0:0:0:
367,183,24730,2,0,P|373:147|378:111,1,67.5000025749208,2|2,2:0|2:0,2:0:0:0:
258,57,24980,2,0,P|226:19|145:18,1,135.000005149842,2|0,3:2|2:0,2:0:0:0:
160,228,25355,1,2,2:0:0:0:
18,129,25480,6,0,P|12:165|0:205,1,67.5000025749208,6|0,3:2|2:0,2:0:0:0:
44,288,25730,2,0,P|80:293|111:304,1,67.5000025749208,2|2,2:0|2:0,2:0:0:0:
209,377,25980,5,0,3:0:0:0:
287,345,26105,1,2,2:0:0:0:
478,286,26230,1,0,2:0:0:0:
398,265,26355,1,2,2:0:0:0:
280,211,26480,5,2,3:2:0:0:
271,165,26563,1,0,2:0:0:0:
264,117,26646,1,0,2:0:0:0:
257,71,26730,1,2,2:0:0:0:
387,120,26855,1,2,2:0:0:0:
220,279,26980,6,0,P|157:290|77:299,1,135.000005149842,2|0,3:2|2:0,2:0:0:0:
2,254,27355,1,0,2:0:0:0:
74,37,27480,5,6,3:2:0:0:
163,151,27605,1,0,2:0:0:0:
241,109,27730,1,2,2:0:0:0:
232,206,27855,1,2,2:0:0:0:
253,20,27980,1,0,3:0:0:0:
311,158,28105,1,2,2:0:0:0:
421,79,28230,1,0,2:0:0:0:
378,218,28355,5,2,2:0:0:0:
378,218,28480,2,0,P|457:225|524:226,1,135.000005149842,2|2,3:2|2:0,2:0:0:0:
331,352,28855,1,2,2:0:0:0:
331,352,28980,2,0,P|260:357|181:368,1,135.000005149842,2|2,3:2|2:0,2:0:0:0:
129,302,29355,1,0,2:0:0:0:
38,211,29480,6,0,P|43:167|44:136,1,67.5000025749208,6|2,3:2|2:0,2:0:0:0:
131,30,29730,2,0,P|126:74|125:105,1,67.5000025749208,0|2,2:0|2:0,2:0:0:0:
221,172,29980,1,0,3:0:0:0:
293,131,30105,1,0,2:0:0:0:
409,180,30230,1,2,2:0:0:0:
481,141,30355,1,2,2:0:0:0:
328,58,30480,6,0,L|323:24,7,33.7500012874604,2|2|2|2|2|2|2|2,3:2|2:0|2:0|2:0|2:0|2:0|2:0|2:0,2:0:0:0:
290,140,30980,2,0,P|325:97|407:100,1,135.000005149842,2|0,3:2|2:0,2:0:0:0:
481,141,31355,1,0,2:0:0:0:
343,272,31480,6,0,P|309:267|275:264,1,67.5000025749208,6|0,3:2|2:0,2:0:0:0:
168,342,31730,1,2,2:0:0:0:
42,359,31855,1,2,2:0:0:0:
185,255,31980,1,0,3:0:0:0:
94,289,32105,1,2,2:0:0:0:
197,171,32230,1,0,2:0:0:0:
0,194,32355,5,2,2:0:0:0:
0,194,32480,2,0,P|68:177|118:231,1,135.000005149842,2|2,3:2|2:0,2:0:0:0:
216,324,32855,1,2,2:0:0:0:
216,324,32980,2,0,P|149:307|99:361,1,135.000005149842,2|0,3:2|2:0,2:0:0:0:
297,365,33355,1,2,2:0:0:0:
464,291,33480,6,0,P|473:253|484:223,1,67.5000025749208,6|0,3:2|2:0,2:0:0:0:
461,137,33730,2,0,P|423:129|394:121,1,67.5000025749208,2|2,2:0|2:0,2:0:0:0:
242,83,33980,5,2,3:2:0:0:
326,52,34105,1,2,2:0:0:0:
248,225,34230,1,0,2:0:0:0:
167,184,34355,1,2,2:0:0:0:
34,309,34480,5,2,3:2:0:0:
76,298,34563,1,0,2:0:0:0:
119,287,34646,1,0,2:0:0:0:
164,276,34729,1,2,2:0:0:0:
246,316,34854,1,2,2:0:0:0:
412,244,34979,6,0,P|419:181|424:99,1,135.000005149842,2|0,3:2|2:0,2:0:0:0:
333,0,35354,1,2,2:0:0:0:
195,70,35479,6,0,P|156:69|118:62,1,67.5000025749208,6|0,3:2|2:0,2:0:0:0:
20,170,35729,2,0,P|53:163|86:161,1,67.5000025749208,2|0,2:0|2:0,2:0:0:0:
167,266,35979,1,2,3:2:0:0:
305,213,36104,1,2,2:0:0:0:
216,187,36229,1,0,2:0:0:0:
424,109,36354,5,2,2:0:0:0:
424,109,36479,2,0,P|344:119|279:124,1,135.000005149842,2|2,3:2|2:0,2:0:0:0:
95,331,36854,1,2,2:0:0:0:
95,331,36979,2,0,P|168:336|250:343,1,135.000005149842,2|2,3:2|2:0,2:0:0:0:
275,228,37354,1,2,2:0:0:0:
179,113,37479,6,0,P|174:69|173:38,1,67.5000025749208,6|2,3:2|2:0,2:0:0:0:
90,0,37729,2,0,P|46:5|15:6,1,67.5000025749208,2|0,2:0|2:0,2:0:0:0:
97,195,37979,1,2,3:2:0:0:
1,191,38104,1,2,2:0:0:0:
170,247,38229,1,0,2:0:0:0:
60,114,38354,1,2,2:0:0:0:
231,42,38479,6,0,L|227:76,7,33.7500012874604,2|2|2|2|2|2|2|2,3:2|2:0|2:0|2:0|2:0|2:0|2:0|2:0,2:0:0:0:
166,133,38979,6,0,P|225:116|321:110,1,135.000005149842,2|2,3:2|2:3,2:0:0:0:
103,58,39480,5,6,1:2:0:0:
165,265,39607,1,0,2:0:0:0:
301,98,39735,1,4,2:3:0:0:
267,193,39862,1,8,2:3:0:0:
489,125,39990,1,0,2:0:0:0:
342,262,40118,1,8,2:3:0:0:
301,98,40245,1,0,1:0:0:0:
267,193,40373,1,4,2:3:0:0:
34,104,40500,6,0,P|136:81|236:71,1,180,6|4,1:2|2:3,2:0:0:0:
274,349,40875,2,0,P|172:372|72:382,1,180,8|4,2:3|2:3,2:0:0:0:
54,203,41250,1,0,1:0:0:0:
133,260,41375,1,0,2:0:0:0:
255,5,41500,5,4,1:2:0:0:
143,164,41622,1,0,2:0:0:0:
327,170,41744,1,4,2:3:0:0:
219,222,41867,1,8,2:3:0:0:
355,352,41989,1,0,2:0:0:0:
213,310,42112,1,8,2:3:0:0:
219,222,42234,1,0,1:0:0:0:
327,170,42357,1,4,2:3:0:0:
512,306,42480,6,0,P|430:275|310:267,1,180,6|4,1:2|2:3,2:0:0:0:
213,310,42862,1,8,2:3:0:0:
58,38,42990,2,0,P|140:69|260:77,1,180,0|0,2:0|1:0,2:0:0:0:
150,175,43500,5,6,1:2:0:0:
184,262,43622,1,0,2:0:0:0:
239,191,43744,1,8,2:3:0:0:
95,245,43867,1,8,2:3:0:0:
273,279,43989,5,4,2:3:0:0:
392,377,44112,1,8,2:3:0:0:
303,364,44234,1,0,1:0:0:0:
362,292,44357,1,4,2:3:0:0:
336,145,44480,5,6,1:2:0:0:
454,308,44605,1,4,2:3:0:0:
306,374,44730,1,4,2:3:0:0:
179,283,44855,2,0,P|181:238|188:193,1,90,8|0,2:3|2:0,2:0:0:0:
231,98,45105,5,0,2:0:0:0:
0,26,45230,2,0,P|8:81|10:133,1,90,8|4,1:3|2:3,2:0:0:0:
3,279,45480,5,6,1:2:0:0:
62,204,45605,1,4,2:3:0:0:
94,291,45730,1,4,2:3:0:0:
131,135,45855,1,4,1:2:0:0:
205,196,45980,5,0,2:3:0:0:
219,102,46105,1,4,2:3:0:0:
290,162,46230,1,4,2:0:0:0:
248,9,46355,1,4,2:3:0:0:
386,153,46480,5,4,2:3:0:0:
423,9,46603,1,4,1:2:0:0:
456,93,46727,1,4,2:3:0:0:
512,19,46851,1,4,2:3:0:0:
482,286,46974,6,0,P|393:300|306:324,1,180,4|4,1:2|1:2,2:0:0:0:
216,360,47345,1,4,1:3:0:0:
339,146,47469,5,4,1:2:0:0:
321,225,47593,1,0,2:0:0:0:
198,107,47717,1,4,2:3:0:0:
227,267,47840,1,8,2:3:0:0:
353,36,47964,1,0,2:0:0:0:
324,115,48088,1,4,2:3:0:0:
198,107,48211,1,0,1:0:0:0:
227,267,48335,1,4,2:3:0:0:
50,243,48460,6,0,P|29:159|29:51,1,180,6|4,1:2|2:3,2:0:0:0:
432,0,48835,2,0,P|453:84|453:192,1,180,8|4,2:3|2:3,2:0:0:0:
244,356,49210,1,0,1:0:0:0:
142,318,49335,1,0,2:0:0:0:
253,187,49460,5,6,1:2:0:0:
229,280,49585,1,0,2:0:0:0:
364,112,49710,1,4,2:3:0:0:
412,288,49835,1,8,2:3:0:0:
424,5,49960,1,0,2:0:0:0:
512,58,50085,1,4,2:3:0:0:
364,112,50210,1,0,1:0:0:0:
412,288,50335,1,4,2:3:0:0:
234,384,50460,6,0,P|152:353|32:345,1,180,6|4,1:2|2:3,2:0:0:0:
16,47,50835,2,0,P|98:78|218:86,1,180,8|4,2:3|2:3,2:0:0:0:
263,35,51210,1,0,1:0:0:0:
381,30,51335,1,0,2:0:0:0:
436,133,51460,1,6,1:2:0:0:
20,221,51710,5,4,2:3:0:0:
95,168,51835,1,0,2:0:0:0:
182,201,51960,1,4,2:3:0:0:
210,316,52085,1,4,2:3:0:0:
332,360,52210,1,0,1:0:0:0:
378,247,52335,1,4,2:3:0:0:
494,195,52460,1,6,1:2:0:0:
494,195,52585,2,0,P|509:71|513:11,1,180,4|8,2:3|2:3,2:0:0:0:
5,123,53210,6,0,P|39:255|70:386,1,270.000010299683,0|6,1:0|1:2,2:0:0:0:
487,161,55194,6,0,P|415:179|331:197,1,135.000005149842,2|0,2:3|2:0,2:0:0:0:
229,377,55480,5,6,1:2:0:0:
164,174,55605,1,4,2:3:0:0:
301,123,55730,5,12,2:3:0:0:
251,198,55855,1,4,2:3:0:0:
350,50,55980,5,4,1:2:0:0:
286,290,56105,1,4,2:3:0:0:
286,290,56167,1,2,2:3:0:0:
286,290,56230,1,12,2:3:0:0:
512,341,56355,1,6,2:3:0:0:
164,174,56480,5,4,1:2:0:0:
349,215,56605,1,4,2:3:0:0:
349,215,56667,1,2,2:3:0:0:
350,215,56730,1,12,2:3:0:0:
377,39,56855,1,6,2:3:0:0:
208,304,56980,6,0,P|119:289|-14:271,1,215.999993408203,4|12,1:2|2:3,2:0:0:0:
90,129,57355,1,4,2:3:0:0:
276,53,57480,5,6,1:2:0:0:
90,129,57605,2,0,P|176:119|221:116,1,107.999996704102,4|12,2:3|2:3,2:0:0:0:
408,252,57855,1,4,2:3:0:0:
361,13,57980,5,4,1:2:0:0:
334,196,58105,1,4,2:3:0:0:
334,196,58167,1,2,2:3:0:0:
334,196,58230,1,12,2:3:0:0:
512,218,58355,1,6,2:3:0:0:
301,370,58480,5,4,1:2:0:0:
322,185,58605,1,12,2:3:0:0:
334,196,58667,1,2,2:3:0:0:
334,196,58730,1,4,2:3:0:0:
149,153,58855,1,6,2:3:0:0:
334,196,58980,6,0,P|400:189|456:185,1,107.999996704102,4|0,1:2|1:0,2:0:0:0:
100,230,59230,5,10,1:3:0:0:
61,152,59355,1,10,1:3:0:0:
251,254,59480,5,6,1:2:0:0:
352,69,59605,1,4,2:3:0:0:
183,324,59730,5,14,2:3:0:0:
149,153,59855,1,6,2:3:0:0:
183,324,59980,1,4,1:2:0:0:
441,185,60105,5,4,2:3:0:0:
260,133,60230,1,14,2:3:0:0:
80,65,60355,1,6,2:3:0:0:
0,344,60480,6,0,P|56:333|189:314,1,107.999996704102,4|6,1:2|2:3,2:0:0:0:
411,310,60730,5,12,2:3:0:0:
255,368,60855,1,6,2:3:0:0:
342,160,60980,5,4,1:2:0:0:
324,244,61105,1,6,2:3:0:0:
458,140,61230,5,12,2:3:0:0:
344,44,61355,1,6,2:3:0:0:
32,112,61480,6,0,P|138:93|250:72,1,215.999993408203,4|12,1:2|2:3,2:0:0:0:
435,4,61855,1,6,2:3:0:0:
219,234,61980,2,0,P|325:252|436:270,1,215.999993408203,4|14,1:2|2:3,2:0:0:0:
182,358,62355,5,4,2:3:0:0:
119,217,62480,1,2,1:0:0:0:
264,155,62605,1,0,1:0:0:0:
298,0,62730,1,0,1:0:0:0:
457,36,62855,1,0,1:0:0:0:
40,246,62980,5,2,1:0:0:0:
272,291,63105,1,2,1:3:0:0:
397,102,63230,1,10,1:3:0:0:
182,50,63355,1,10,1:3:0:0:
384,193,63480,5,6,1:2:0:0:
83,321,63605,2,0,P|130:326|195:337,1,107.999996704102,4|12,2:3|2:3,2:0:0:0:
272,384,63855,1,4,2:3:0:0:
502,131,63980,5,4,1:2:0:0:
305,235,64105,1,4,2:3:0:0:
305,235,64167,1,2,2:3:0:0:
305,235,64230,1,12,2:3:0:0:
174,61,64355,1,4,2:3:0:0:
125,224,64480,5,4,1:2:0:0:
332,127,64605,1,12,2:3:0:0:
332,127,64667,1,2,2:3:0:0:
332,127,64730,1,4,2:3:0:0:
462,290,64855,1,4,2:3:0:0:
284,354,64980,6,0,P|129:373|45:383,1,215.999993408203,4|12,1:2|2:3,2:0:0:0:
0,313,65355,1,4,2:3:0:0:
255,227,65480,5,6,1:2:0:0:
85,135,65605,2,0,P|155:146|207:155,1,107.999996704102,4|12,2:3|2:3,2:0:0:0:
332,41,65855,1,4,2:3:0:0:
422,96,65980,5,4,1:2:0:0:
352,248,66105,1,4,2:3:0:0:
352,248,66167,1,2,2:3:0:0:
352,248,66230,1,12,2:3:0:0:
181,234,66355,1,4,2:3:0:0:
512,105,66480,5,4,1:2:0:0:
398,339,66605,1,12,2:3:0:0:
398,339,66667,1,2,2:3:0:0:
398,339,66730,1,4,2:3:0:0:
154,321,66855,1,4,2:3:0:0:
457,168,66980,6,0,P|395:155|344:145,1,107.999996704102,4|0,1:2|1:0,2:0:0:0:
142,127,67230,1,10,2:3:0:0:
263,216,67355,1,14,2:3:0:0:
501,0,67480,6,0,P|404:12|268:23,1,215.999993408203,6|14,1:2|2:3,2:0:0:0:
187,34,67855,1,6,2:3:0:0:
17,277,67980,2,0,P|118:287|255:298,1,215.999993408203,4|14,1:2|2:3,2:0:0:0:
331,275,68355,1,6,2:3:0:0:
489,316,68480,5,4,1:2:0:0:
453,238,68605,1,6,2:3:0:0:
297,0,68730,1,12,2:3:0:0:
246,207,68855,1,6,2:3:0:0:
36,264,68980,1,4,1:2:0:0:
1,175,69105,1,4,2:3:0:0:
94,140,69230,6,0,P|164:123|237:109,1,107.999996704102,14|6,2:3|2:3,2:0:0:0:
476,135,69480,1,4,1:2:0:0:
350,190,69605,1,4,2:3:0:0:
148,15,69730,1,14,2:3:0:0:
21,79,69855,1,4,2:3:0:0:
120,220,69980,5,4,1:2:0:0:
165,232,70042,1,0,2:0:0:0:
199,202,70105,1,4,2:3:0:0:
348,384,70230,5,14,2:3:0:0:
361,327,70292,1,4,2:3:0:0:
399,284,70355,1,4,2:3:0:0:
452,260,70417,1,4,2:3:0:0:
511,261,70480,1,0,2:0:0:0:
470,193,71480,6,0,P|422:183|315:165,1,144,6|2,1:2|2:0,2:0:0:0:
329,166,71792,1,2,2:0:0:0:
329,166,71855,1,2,2:0:0:0:
263,113,71980,1,2,1:2:0:0:
294,251,72105,1,2,2:0:0:0:
204,198,72230,1,0,2:0:0:0:
250,330,72355,1,2,2:0:0:0:
388,327,72480,6,0,P|382:292|376:257,1,72,2|2,1:2|2:0,2:0:0:0:
439,170,72730,2,0,P|475:164|510:158,1,72,0|2,2:0|2:0,2:0:0:0:
352,74,72980,1,2,1:2:0:0:
140,234,73230,5,2,2:0:0:0:
0,147,73355,1,0,2:0:0:0:
140,234,73480,6,0,P|213:222|299:205,1,144,2|2,1:2|2:0,2:0:0:0:
368,163,73855,1,2,2:0:0:0:
505,266,73980,6,0,P|494:303|493:336,1,72,2|2,1:2|2:0,2:0:0:0:
414,384,74230,2,0,P|377:373|344:372,1,72,0|2,2:0|2:0,2:0:0:0:
290,111,74480,1,2,1:2:0:0:
198,307,74605,1,2,2:0:0:0:
119,97,74730,1,0,2:0:0:0:
140,234,74855,1,2,2:0:0:0:
338,40,74980,5,2,1:2:0:0:
397,239,75105,1,2,2:0:0:0:
203,141,75230,1,2,2:0:0:0:
0,337,75480,6,0,P|79:351|152:361,1,144,6|2,1:2|2:0,2:0:0:0:
143,359,75792,1,2,2:0:0:0:
143,359,75855,1,2,2:0:0:0:
201,297,75980,1,2,1:2:0:0:
271,350,76105,1,2,2:0:0:0:
327,281,76230,1,0,2:0:0:0:
396,332,76355,1,2,2:0:0:0:
508,224,76480,6,0,P|473:216|438:212,1,72,2|2,1:2|2:0,2:0:0:0:
394,141,76730,2,0,P|400:105|408:70,1,72,0|2,2:0|2:0,2:0:0:0:
308,171,76980,1,2,1:2:0:0:
123,315,77230,5,2,2:0:0:0:
249,103,77355,1,0,2:0:0:0:
123,315,77480,6,0,P|89:262|-1:282,1,161.999995056153,2|2,1:2|2:0,2:0:0:0:
55,51,77855,1,2,2:0:0:0:
55,51,77917,1,2,2:0:0:0:
55,51,77980,2,0,P|128:73|177:14,1,161.999995056153,2|2,1:2|2:0,2:0:0:0:
356,155,78355,1,2,2:0:0:0:
439,110,78480,5,2,1:2:0:0:
285,232,78605,1,2,2:0:0:0:
361,62,78730,1,2,2:0:0:0:
363,292,78855,1,2,2:0:0:0:
289,4,78980,1,2,1:2:0:0:
289,4,79230,5,2,2:0:0:0:
202,201,79355,1,2,2:0:0:0:
18,89,79480,6,0,P|101:99|174:110,1,144,6|2,1:2|2:0,2:0:0:0:
160,107,79792,1,2,2:0:0:0:
160,107,79855,1,2,2:0:0:0:
112,190,79980,1,2,1:2:0:0:
185,253,80105,1,2,2:0:0:0:
134,329,80230,1,0,2:0:0:0:
208,378,80355,1,2,2:0:0:0:
311,229,80480,6,0,P|346:231|382:237,1,72,2|2,1:2|2:0,2:0:0:0:
473,267,80730,2,0,P|475:232|481:196,1,72,0|2,2:0|2:0,2:0:0:0:
512,119,80980,1,2,1:2:0:0:
221,107,81230,5,2,2:0:0:0:
374,16,81355,1,0,2:0:0:0:
221,107,81480,6,0,P|168:110|79:72,1,144,2|2,1:2|2:0,2:0:0:0:
183,255,81855,1,2,2:0:0:0:
183,255,81917,1,2,2:0:0:0:
183,255,81980,2,0,P|199:288|199:324,1,72,2|2,1:2|2:0,2:0:0:0:
332,384,82230,2,0,P|363:368|399:367,1,72,0|2,2:0|2:0,2:0:0:0:
437,72,82480,5,2,1:2:0:0:
336,204,82605,1,2,2:0:0:0:
417,158,82730,5,0,2:0:0:0:
390,280,82855,1,2,2:0:0:0:
254,182,82980,5,2,1:2:0:0:
468,230,83105,1,2,2:0:0:0:
365,15,83230,1,2,2:0:0:0:
20,117,83480,6,0,P|101:125|179:131,1,144,6|2,1:2|2:0,2:0:0:0:
164,129,83792,1,2,2:0:0:0:
164,129,83855,1,2,2:0:0:0:
257,83,83980,1,2,1:2:0:0:
153,260,84105,1,2,2:0:0:0:
253,180,84230,1,0,2:0:0:0:
230,344,84355,1,2,2:0:0:0:
369,282,84480,6,0,P|364:246|356:211,1,72,2|2,1:2|2:0,2:0:0:0:
328,135,84730,2,0,P|364:129|399:121,1,72,0|2,2:0|2:0,2:0:0:0:
465,72,84980,1,2,1:2:0:0:
131,351,85230,5,2,2:0:0:0:
279,269,85355,1,0,2:0:0:0:
131,351,85480,6,0,P|97:298|7:318,1,161.999995056153,2|2,1:2|2:0,2:0:0:0:
135,46,85855,1,2,2:0:0:0:
135,46,85917,1,2,2:0:0:0:
135,46,85980,2,0,P|169:99|259:79,1,161.999995056153,2|2,1:2|2:0,2:0:0:0:
375,178,86355,1,2,2:0:0:0:
358,306,86480,5,2,1:2:0:0:
288,164,86605,1,2,2:0:0:0:
450,131,86730,1,2,2:0:0:0:
369,384,86855,1,2,2:0:0:0:
256,82,86980,1,2,1:2:0:0:
256,82,87230,5,2,2:0:0:0:
420,254,87355,1,2,2:0:0:0:
438,25,87480,6,0,P|433:59|431:93,1,67.5000025749208,6|0,3:2|2:0,2:0:0:0:
288,164,87730,1,0,2:0:0:0:
357,299,87855,1,2,2:0:0:0:
260,241,87980,1,0,3:0:0:0:
249,369,88105,2,0,P|209:298|174:249,1,135.000005149842,2|2,2:0|2:0,2:0:0:0:
197,186,88480,6,0,P|157:209|118:212,1,67.5000025749208,2|0,3:2|2:0,2:0:0:0:
75,265,88730,2,0,P|56:234|63:181,1,67.5000025749208,2|0,2:0|2:0,2:0:0:0:
0,136,88980,2,0,P|6:71|63:38,1,135.000005149842,0|0,3:2|2:0,2:0:0:0:
255,83,89355,1,2,2:0:0:0:
197,186,89480,6,0,P|190:141|181:112,1,67.5000025749208,6|0,3:2|2:0,2:0:0:0:
342,17,89730,2,0,P|333:49|328:83,1,67.5000025749208,2|2,2:0|2:0,2:0:0:0:
260,241,89980,1,0,2:0:0:0:
373,384,90105,1,2,2:0:0:0:
375,178,90230,1,2,2:0:0:0:
249,369,90355,1,2,2:0:0:0:
444,224,90480,5,2,3:2:0:0:
460,184,90563,1,2,2:0:0:0:
452,140,90646,1,2,2:0:0:0:
413,104,90730,1,2,2:0:0:0:
375,178,90855,1,2,2:0:0:0:
147,346,90980,2,0,P|143:279|136:212,1,135.000005149842,2|0,3:2|2:0,2:0:0:0:
183,119,91355,1,0,2:0:0:0:
11,95,91480,5,6,3:2:0:0:
136,212,91605,1,0,2:0:0:0:
95,109,91730,1,2,2:0:0:0:
197,147,91855,1,2,2:0:0:0:
170,72,91980,1,0,3:0:0:0:
275,161,92105,1,2,2:0:0:0:
209,0,92230,1,0,2:0:0:0:
331,93,92355,1,2,2:0:0:0:
292,0,92480,6,0,P|352:8|436:8,1,135.000005149842,2|2,3:2|2:0,2:0:0:0:
270,204,92855,1,0,2:0:0:0:
270,204,92980,2,0,P|202:204|135:212,1,135.000005149842,0|0,3:0|2:0,2:0:0:0:
56,169,93355,1,0,2:0:0:0:
388,145,93480,6,0,P|379:178|375:211,1,67.5000025749208,6|2,3:2|2:0,2:0:0:0:
249,369,93730,2,0,P|244:335|235:303,1,67.5000025749208,0|2,2:0|2:0,2:0:0:0:
135,210,93980,1,0,3:0:0:0:
315,281,94105,1,0,2:0:0:0:
459,84,94230,1,2,2:0:0:0:
254,110,94355,1,2,2:0:0:0:
386,325,94480,6,0,L|438:312,7,33.7500012874604,2|0|2|0|0|0|0|0,3:2|2:0|2:0|2:0|2:0|2:0|2:0|2:0,2:0:0:0:
315,281,94980,2,0,P|256:304|232:376,1,135.000005149842,2|0,3:2|2:0,2:0:0:0:
152,337,95355,1,0,2:0:0:0:
0,180,95480,6,0,P|33:176|66:169,1,67.5000025749208,6|0,3:2|2:0,2:0:0:0:
92,92,95730,1,2,2:0:0:0:
135,210,95855,1,2,2:0:0:0:
172,138,95980,1,0,3:0:0:0:
195,268,96105,1,2,2:0:0:0:
254,110,96230,1,0,2:0:0:0:
262,318,96355,1,2,2:0:0:0:
315,164,96480,6,0,P|323:106|341:16,1,135.000005149842,2|2,3:2|2:0,2:0:0:0:
256,4,96855,1,0,2:0:0:0:
135,210,96980,2,0,P|127:268|109:358,1,135.000005149842,0|2,3:0|2:0,2:0:0:0:
194,370,97355,1,2,2:0:0:0:
4,146,97480,2,0,P|34:152|68:164,1,67.5000025749208,6|2,3:2|2:0,2:0:0:0:
135,210,97730,2,0,P|141:180|153:145,1,67.5000025749208,0|2,2:0|2:0,2:0:0:0:
119,73,97980,5,2,3:2:0:0:
230,190,98105,1,2,2:0:0:0:
197,61,98230,1,0,2:0:0:0:
262,107,98355,1,2,2:0:0:0:
256,4,98480,6,0,P|197:17|101:24,1,135.000005149842,2|2,3:2|2:0,2:0:0:0:
46,69,98855,1,0,2:0:0:0:
289,254,98980,2,0,P|348:241|444:234,1,135.000005149842,0|0,3:0|2:0,2:0:0:0:
499,189,99355,1,2,2:0:0:0:
469,113,99480,6,0,P|385:91|367:35,1,135.000005149842,6|2,3:2|2:0,2:0:0:0:
262,107,99855,1,0,2:0:0:0:
422,234,99980,1,2,3:2:0:0:
422,234,100105,2,0,P|414:285|400:384,1,135.000005149842,2|2,2:0|2:0,2:0:0:0:
477,376,100480,5,0,3:0:0:0:
254,328,100605,1,2,2:0:0:0:
499,189,100730,1,2,2:0:0:0:
282,249,100855,2,0,P|214:255|175:335,1,135.000005149842,0|0,2:0|2:0,2:0:0:0:
28,360,101230,1,2,2:0:0:0:
254,328,101355,1,2,2:0:0:0:
28,360,101480,6,0,P|24:291|21:268,1,67.5000025749208,6|2,3:2|2:0,2:0:0:0:
0,214,101730,2,0,P|69:210|92:207,1,67.5000025749208,2|0,2:0|2:0,2:0:0:0:
107,135,101980,1,2,3:2:0:0:
231,185,102105,1,2,2:0:0:0:
46,69,102230,1,0,2:0:0:0:
256,4,102355,1,2,2:0:0:0:
121,23,102480,6,0,P|197:33|277:43,1,135.000005149842,2|0,3:2|2:0,2:0:0:0:
337,11,102855,1,2,2:0:0:0:
321,96,102948,1,4,2:3:0:0:
231,185,103084,1,4,2:3:0:0:
236,164,103152,1,4,2:3:0:0:
232,140,103220,1,2,2:3:0:0:
412,40,103350,1,0,2:0:0:0:
254,40,103480,5,6,1:2:0:0:
468,105,103605,1,0,2:0:0:0:
321,96,103730,1,4,2:3:0:0:
512,171,103855,1,8,2:3:0:0:
282,249,103980,1,0,2:0:0:0:
476,236,104105,1,8,2:3:0:0:
242,325,104230,1,0,1:0:0:0:
503,354,104355,1,4,2:3:0:0:
298,384,104480,6,0,P|205:350|95:344,1,180,6|4,1:2|2:3,2:0:0:0:
0,128,104855,2,0,P|89:118|173:86,1,180,8|4,2:3|2:3,2:0:0:0:
185,6,105230,1,0,1:0:0:0:
258,175,105355,1,0,2:0:0:0:
254,40,105480,5,4,1:2:0:0:
149,210,105602,1,0,2:0:0:0:
347,319,105724,1,4,2:3:0:0:
314,116,105847,1,8,2:3:0:0:
87,270,105969,1,0,2:0:0:0:
298,384,106092,1,8,2:3:0:0:
71,183,106214,1,0,1:0:0:0:
332,36,106337,1,4,2:3:0:0:
250,11,106460,6,0,P|276:93|290:199,1,180,6|4,1:2|2:3,2:0:0:0:
372,137,106831,1,8,2:3:0:0:
149,210,106954,2,0,P|123:292|109:398,1,180,0|0,2:0|1:0,2:0:0:0:
71,183,107449,6,0,P|65:113|57:77,1,90,6|0,1:2|2:0,2:0:0:0:
12,34,107704,1,8,2:3:0:0:
141,112,107831,1,0,2:0:0:0:
0,232,107959,1,4,2:3:0:0:
250,11,108087,2,0,P|242:55|240:100,1,90,8|0,2:3|1:0,2:0:0:0:
195,172,108342,1,4,2:3:0:0:
141,112,108470,5,6,1:2:0:0:
332,36,108597,1,4,2:3:0:0:
137,229,108725,1,4,2:3:0:0:
298,384,108853,1,8,2:3:0:0:
347,319,108980,2,0,P|344:274|337:229,1,90,0|0,2:0|2:0,2:0:0:0:
477,15,109236,2,0,P|469:59|467:104,1,90,8|4,1:3|2:3,2:0:0:0:
276,168,109491,5,6,1:2:0:0:
417,218,109613,1,4,2:3:0:0:
332,36,109735,1,4,2:3:0:0:
490,187,109858,1,4,1:2:0:0:
477,15,109980,2,0,P|469:59|467:104,1,90,0|4,2:3|2:3,2:0:0:0:
347,319,110225,2,0,P|344:274|337:229,1,90,4|4,2:0|2:3,2:0:0:0:
364,152,110470,5,4,2:3:0:0:
416,371,110593,1,4,1:2:0:0:
197,301,110715,2,0,P|126:294|32:364,1,180,4|4,2:3|1:2,2:0:0:0:
0,280,111087,1,0,2:0:0:0:
65,234,111215,2,0,L|76:132,1,90,4|4,1:2|1:3,2:0:0:0:
0,42,111470,5,4,1:2:0:0:
74,144,111596,1,0,2:0:0:0:
78,55,111722,1,4,2:3:0:0:
165,197,111848,1,8,2:3:0:0:
144,4,111975,1,0,2:0:0:0:
225,139,112101,1,4,2:3:0:0:
223,40,112227,1,0,1:0:0:0:
362,155,112354,1,4,2:3:0:0:
307,21,112480,6,0,P|396:19|486:8,1,180,6|4,1:2|2:3,2:0:0:0:
244,246,112855,2,0,P|177:237|111:236,1,90,8|0,2:3|2:0,2:0:0:0:
18,224,113105,1,4,2:3:0:0:
128,160,113230,1,0,1:0:0:0:
29,311,113355,1,0,2:0:0:0:
0,136,113480,5,6,1:2:0:0:
151,236,113605,1,0,2:0:0:0:
126,7,113730,1,4,2:3:0:0:
203,173,113855,1,8,2:3:0:0:
195,45,113980,2,0,P|189:111|184:141,1,90,0|4,2:0|2:3,2:0:0:0:
347,319,114230,2,0,P|340:274|337:229,1,90,0|4,1:0|2:3,2:0:0:0:
270,16,114480,6,0,P|330:29|454:30,1,180,6|4,1:2|2:3,2:0:0:0:
504,88,114855,1,8,2:3:0:0:
335,230,114980,1,0,2:0:0:0:
450,148,115105,1,4,2:3:0:0:
296,298,115230,1,0,1:0:0:0:
505,210,115355,1,0,2:0:0:0:
333,366,115480,6,0,P|260:318|178:348,1,180,6|4,1:2|2:3,2:0:0:0:
112,310,115855,1,8,2:3:0:0:
308,80,115980,2,0,P|292:137|288:182,1,90,0|4,2:0|2:3,2:0:0:0:
61,371,116230,2,0,P|54:326|41:283,1,90,0|4,1:0|2:3,2:0:0:0:
5,216,116480,5,6,1:2:0:0:
102,232,116605,1,4,2:3:0:0:
51,50,116730,1,4,2:3:0:0:
165,186,116855,2,0,L|154:299,1,90,8|0,2:3|2:0,2:0:0:0:
61,371,117105,1,4,2:3:0:0:
5,216,117230,2,0,L|13:126,1,90,0|0,1:0|2:0,2:0:0:0:
186,52,117480,6,0,P|256:43|379:4,1,180,6|8,1:2|2:3,2:0:0:0:
429,50,117855,1,0,1:0:0:0:
421,340,117980,2,0,P|351:349|228:388,1,180,4|8,2:3|1:3,2:0:0:0:
178,342,118355,1,4,2:3:0:0:
178,342,118417,1,0,2:0:0:0:
178,342,118480,5,4,2:3:0:0:
228,269,118605,1,4,1:2:0:0:
100,381,118730,1,0,2:0:0:0:
5,216,118855,1,0,2:0:0:0:
196,193,118980,5,0,1:0:0:0:
304,237,119105,1,0,1:0:0:0:
422,134,119230,1,0,1:0:0:0:
336,368,119355,1,0,1:0:0:0:
305,77,119480,6,0,P|252:78|201:28,1,111.59999557251,2|0,2:0|2:0,2:0:0:0:
149,91,119855,2,0,P|94:90|51:125,1,111.59999557251,2|0,2:0|2:0,2:0:0:0:
9,61,120230,1,2,2:0:0:0:
157,240,120480,5,0,2:0:0:0:
206,174,120605,2,0,L|202:132,2,27.8999988931275,2|2|0,2:0|2:0|2:0,2:0:0:0:
149,91,120855,1,2,2:0:0:0:
207,42,120980,2,0,P|237:39|283:29,1,55.799997786255,2|2,2:0|2:0,2:0:0:0:
326,86,121230,2,0,P|353:88|381:93,1,55.799997786255,2|0,2:0|2:0,2:0:0:0:
448,57,121480,6,0,P|457:85|452:115,1,55.799997786255,2|0,2:0|2:0,2:0:0:0:
403,167,121730,1,2,2:0:0:0:
418,325,121855,2,0,P|410:298|413:271,1,55.799997786255,2|0,2:0|2:0,2:0:0:0:
462,215,122105,1,2,2:0:0:0:
403,167,122230,2,0,P|360:181|340:185,1,55.799997786255,2|0,2:0|2:0,2:0:0:0:
278,156,122480,5,2,2:0:0:0:
270,234,122605,1,2,2:0:0:0:
270,234,122667,1,2,2:0:0:0:
270,234,122730,1,2,2:0:0:0:
314,295,122855,1,2,2:0:0:0:
418,325,122980,5,2,2:0:0:0:
283,369,123105,1,0,2:0:0:0:
314,295,123230,1,2,2:0:0:0:
190,374,123355,1,2,2:0:0:0:
118,336,123480,6,0,P|115:300|103:268,1,55.799997786255,2|0,2:0|2:0,2:0:0:0:
144,212,123730,1,0,2:0:0:0:
43,70,123855,2,0,P|46:106|58:138,1,55.799997786255,2|0,2:0|2:0,2:0:0:0:
17,194,124105,1,0,2:0:0:0:
126,136,124230,2,0,P|166:135|184:130,1,55.799997786255,2|0,2:0|2:0,2:0:0:0:
236,79,124480,5,0,2:0:0:0:
278,156,124605,1,2,2:0:0:0:
278,156,124667,1,2,2:0:0:0:
278,156,124730,1,0,2:0:0:0:
270,234,124855,1,2,2:0:0:0:
329,94,124980,1,2,2:0:0:0:
199,267,125105,1,2,2:0:0:0:
340,199,125230,1,2,2:0:0:0:
359,375,125355,1,0,2:0:0:0:
414,321,125480,6,0,P|450:303|475:296,1,55.799997786255,2|0,2:0|2:0,2:0:0:0:
499,229,125730,1,2,2:0:0:0:
512,99,125855,2,0,P|476:117|451:124,1,55.799997786255,2|0,2:0|2:0,2:0:0:0:
427,191,126105,1,2,2:0:0:0:
329,94,126230,2,0,P|338:53|343:28,1,55.799997786255,2|0,2:0|2:0,2:0:0:0:
340,39,126480,6,0,B|299:14|258:49|261:69|265:89|231:121|186:95,1,183.600001120605,2|2,2:0|2:0,2:0:0:0:
189,97,126792,1,2,2:0:0:0:
189,97,126855,2,0,L|202:152,1,45.9000002801514,2|2,2:0|2:0,2:0:0:0:
239,206,126980,6,0,P|130:214|56:301,1,221.400003378296,2|0,2:1|2:0,2:0:0:0:
10,228,127480,6,0,P|5:176|-1:125,1,91.8000005603027,4|0,1:2|2:0,2:0:0:0:
42,72,127730,1,4,2:3:0:0:
239,206,127855,2,0,P|244:258|250:309,1,91.8000005603027,0|0,1:0|2:0,2:0:0:0:
207,362,128105,1,0,2:0:0:0:
292,153,128230,1,0,1:0:0:0:
248,29,128480,6,0,P|293:34|339:38,1,91.8000005603027,0|0,1:0|2:0,2:0:0:0:
425,17,128730,1,2,2:0:0:0:
425,17,128855,1,2,1:2:0:0:
292,153,128980,1,2,2:0:0:0:
425,91,129105,1,2,2:0:0:0:
344,217,129230,1,0,1:0:0:0:
499,229,129355,1,2,2:0:0:0:
298,371,129480,6,0,P|248:363|191:362,1,91.8000005603027,0|0,1:0|2:0,2:0:0:0:
151,297,129730,1,4,2:3:0:0:
333,81,129855,2,0,P|383:89|440:90,1,91.8000005603027,0|0,1:0|2:0,2:0:0:0:
480,155,130105,1,0,2:0:0:0:
262,236,130230,1,0,1:0:0:0:
21,29,130480,5,0,1:0:0:0:
189,96,130605,1,2,2:0:0:0:
189,96,130667,1,2,2:0:0:0:
189,96,130730,1,2,2:0:0:0:
0,136,130855,1,2,1:2:0:0:
256,70,130980,2,0,P|239:139|236:175,1,91.8000005603027,2|0,2:0|2:0,2:0:0:0:
101,360,131230,2,0,P|94:314|81:270,1,91.8000005603027,2|2,1:2|2:0,2:0:0:0:
21,29,131480,6,0,P|66:41|117:42,1,91.8000005603027,2|2,1:2|2:0,2:0:0:0:
189,96,131730,1,4,2:3:0:0:
249,337,131855,2,0,P|204:325|153:324,1,91.8000005603027,2|0,1:2|2:0,2:0:0:0:
81,270,132105,1,0,2:0:0:0:
236,159,132230,1,2,1:2:0:0:
484,64,132480,6,0,P|501:107|489:150,1,91.8000005603027,0|2,1:0|2:0,2:0:0:0:
426,112,132730,1,2,2:0:0:0:
426,112,132855,1,0,1:0:0:0:
352,73,132980,1,2,2:0:0:0:
423,242,133105,1,2,2:0:0:0:
489,151,133230,1,0,1:0:0:0:
444,334,133355,1,2,2:0:0:0:
365,368,133480,6,0,P|320:358|253:353,1,111.59999557251,2|0,2:0|2:0,2:0:0:0:
239,278,133855,2,0,P|184:289|128:293,1,111.59999557251,2|0,2:0|2:0,2:0:0:0:
69,343,134230,1,2,2:0:0:0:
0,107,134480,5,2,2:0:0:0:
44,38,134605,1,2,2:0:0:0:
44,38,134667,1,2,2:0:0:0:
44,38,134730,1,2,2:0:0:0:
120,56,134855,1,2,2:0:0:0:
54,162,134980,5,0,2:0:0:0:
123,133,135105,1,2,2:0:0:0:
11,228,135230,1,0,2:0:0:0:
196,165,135355,1,2,2:0:0:0:
60,292,135480,6,0,P|132:301|219:361,1,154.800002362061,4|0,1:2|2:0,2:0:0:0:
263,294,135813,1,0,1:0:0:0:
263,294,135896,1,0,1:0:0:0:
263,294,135980,2,0,P|339:283|390:252,1,103.200001574707,0|2,1:0|2:0,2:0:0:0:
464,358,136313,1,2,2:0:0:0:
347,199,136480,5,10,1:3:0:0:
501,280,136646,1,2,2:0:0:0:
380,129,136813,1,2,2:0:0:0:
512,10,136980,1,2,1:2:0:0:
313,82,137230,1,2,2:0:0:0:
313,82,137480,6,0,P|242:88|151:31,1,154.800002362061,4|0,1:3|2:0,2:0:0:0:
116,113,137813,1,0,1:0:0:0:
116,113,137896,1,0,1:0:0:0:
116,113,137980,2,0,P|52:117|21:149,1,103.200001574707,0|2,1:0|2:0,2:0:0:0:
6,12,138313,1,2,2:0:0:0:
167,181,138480,5,10,1:3:0:0:
3,359,138646,1,2,2:0:0:0:
116,113,138813,1,2,2:0:0:0:
6,12,138980,1,2,1:2:0:0:
127,262,139230,1,2,2:0:0:0:
127,262,139480,6,0,P|211:251|242:161,1,154.800002362061,4|2,1:3|2:0,2:0:0:0:
338,147,139813,1,0,1:0:0:0:
338,147,139896,1,0,1:0:0:0:
338,147,139980,2,0,P|316:215|319:269,1,103.200001574707,0|0,1:0|2:0,2:0:0:0:
257,308,140230,2,0,P|322:346|359:389,1,103.200001574707,2|0,2:0|2:0,2:0:0:0:
385,294,140480,5,10,1:3:0:0:
420,118,140646,1,0,1:0:0:0:
420,118,140730,1,2,2:0:0:0:
243,195,140896,1,0,1:0:0:0:
243,195,140980,2,0,P|229:117|213:72,1,103.200001574707,0|0,1:0|2:0,2:0:0:0:
285,57,141230,2,0,P|318:9|374:4,1,103.200001574707,2|0,2:0|2:0,2:0:0:0:
356,74,141480,5,4,1:3:0:0:
189,21,141730,1,2,1:2:0:0:
189,21,141813,1,0,1:0:0:0:
189,21,141896,1,0,1:0:0:0:
189,21,141980,2,0,P|125:46|77:44,1,103.200001574707,2|0,1:2|2:0,2:0:0:0:
21,8,142230,2,0,P|11:61|29:94,1,77.4000011810303,2|0,2:0|2:0,2:0:0:0:
86,127,142480,5,10,1:3:0:0:
5,304,142688,1,2,2:0:0:0:
86,127,142813,2,0,P|152:114|222:217,1,206.400003149414,2|0,2:0|2:0,2:0:0:0:
281,282,143230,2,0,L|311:168,1,103.200001574707,2|0,2:0|2:0,2:0:0:0:
270,107,143480,6,0,P|331:103|392:24,1,154.800002362061,4|0,1:2|2:0,2:0:0:0:
462,0,143813,1,0,1:0:0:0:
462,0,143896,1,0,1:0:0:0:
462,0,143980,2,0,L|468:118,1,103.200001574707,0|2,1:0|2:0,2:0:0:0:
307,182,144313,1,2,2:0:0:0:
512,169,144480,5,10,1:3:0:0:
341,365,144646,1,2,2:0:0:0:
441,209,144813,1,2,2:0:0:0:
270,107,144980,1,2,1:2:0:0:
431,294,145230,1,2,2:0:0:0:
431,294,145480,6,0,P|333:271|277:335,1,154.800002362061,4|0,1:3|2:0,2:0:0:0:
227,261,145813,1,0,1:0:0:0:
227,261,145896,1,0,1:0:0:0:
227,261,145980,2,0,P|195:319|201:363,1,103.200001574707,0|2,1:0|2:0,2:0:0:0:
307,182,146313,1,2,2:0:0:0:
100,296,146480,5,10,1:3:0:0:
228,178,146646,1,2,2:0:0:0:
47,232,146813,1,2,2:0:0:0:
270,107,146980,1,2,1:2:0:0:
25,27,147230,6,0,P|28:80|28:140,1,77.4000011810303,2|2,2:0|2:0,2:0:0:0:
88,159,147480,1,4,1:3:0:0:
307,182,147730,2,0,P|304:235|304:295,1,77.4000011810303,2|2,2:0|2:0,2:0:0:0:
244,314,147980,1,0,1:0:0:0:
9,362,148230,2,0,P|80:320|92:317,1,77.4000011810303,2|0,2:0|2:0,2:0:0:0:
270,107,148480,6,0,P|206:89|127:7,1,154.800002362061,10|2,1:3|2:0,2:0:0:0:
80,83,148855,1,0,2:0:0:0:
25,199,148980,2,0,P|20:149|8:102,1,77.4000011810303,2|0,1:2|2:0,2:0:0:0:
177,264,149230,2,0,P|169:301|166:340,1,77.4000011810303,2|0,2:0|2:0,2:0:0:0:
105,384,149480,6,0,P|214:371|274:367,1,154.800002362061,4|0,1:3|2:0,2:0:0:0:
266,347,149813,2,0,P|306:315|316:312,1,51.6000007873535
288,233,149980,6,0,P|236:239|184:243,1,104.400003186035,4|0,1:3|2:0,2:0:0:0:
177,264,150313,2,0,P|154:281|149:283,1,34.8000010620118
5,150,150480,6,0,P|4:118|-3:77,1,62.9999980773926,2|0,2:0|2:0,2:0:0:0:
0,88,151230,6,0,P|72:106|161:123,1,135.000005149842,2|0,2:0|2:0,2:0:0:0:
283,7,151480,5,6,1:2:0:0:
370,180,151605,1,4,2:3:0:0:
206,269,151730,5,12,2:3:0:0:
261,186,151855,1,4,2:3:0:0:
145,346,151980,5,4,1:2:0:0:
248,101,152105,1,4,2:3:0:0:
248,101,152167,1,2,2:3:0:0:
248,101,152230,1,12,2:3:0:0:
0,0,152355,1,6,2:3:0:0:
298,275,152480,5,4,1:2:0:0:
94,219,152605,1,4,2:3:0:0:
94,219,152667,1,2,2:3:0:0:
94,219,152730,1,12,2:3:0:0:
139,4,152855,1,6,2:3:0:0:
260,185,152980,6,0,P|358:195|483:210,1,215.999993408203,4|12,1:2|2:3,2:0:0:0:
296,43,153355,1,4,2:3:0:0:
111,118,153480,5,6,1:2:0:0:
296,43,153605,2,0,P|210:53|165:56,1,107.999996704102,4|12,2:3|2:3,2:0:0:0:
291,272,153855,1,4,2:3:0:0:
59,384,153980,5,4,1:2:0:0:
187,199,154105,1,4,2:3:0:0:
187,199,154167,1,2,2:3:0:0:
187,199,154230,1,12,2:3:0:0:
0,84,154355,1,6,2:3:0:0:
222,348,154480,5,4,1:2:0:0:
37,231,154605,1,4,2:3:0:0:
37,231,154667,1,2,2:3:0:0:
37,231,154730,1,12,2:3:0:0:
141,53,154855,1,6,2:3:0:0:
338,93,154980,6,0,P|272:100|216:104,1,107.999996704102,4|0,1:2|1:0,2:0:0:0:
177,227,155230,5,10,1:3:0:0:
303,263,155355,1,10,1:3:0:0:
386,0,155480,5,6,1:2:0:0:
402,188,155605,1,4,2:3:0:0:
222,311,155730,1,14,2:3:0:0:
255,185,155855,1,6,2:3:0:0:
473,243,155980,5,4,1:2:0:0:
180,4,156105,1,4,2:3:0:0:
115,116,156230,1,14,2:3:0:0:
303,34,156355,1,6,2:3:0:0:
490,114,156480,6,0,P|434:125|301:144,1,107.999996704102,4|6,1:2|2:3,2:0:0:0:
107,237,156730,5,12,2:3:0:0:
45,19,156855,1,6,2:3:0:0:
283,203,156980,5,4,1:2:0:0:
117,151,157105,1,6,2:3:0:0:
194,272,157230,5,12,2:3:0:0:
151,383,157355,1,6,2:3:0:0:
510,294,157480,6,0,P|403:309|290:326,1,215.999993408203,4|12,1:2|2:3,2:0:0:0:
194,272,157855,1,6,2:3:0:0:
0,55,157980,2,0,P|107:66|213:80,1,215.999993408203,4|14,1:2|2:3,2:0:0:0:
182,358,158355,5,4,2:3:0:0:
119,217,158480,1,2,1:0:0:0:
264,155,158605,1,0,1:0:0:0:
298,0,158730,1,0,1:0:0:0:
457,36,158855,1,0,1:0:0:0:
40,246,158980,5,2,1:0:0:0:
272,291,159105,1,2,1:3:0:0:
401,101,159230,1,10,1:3:0:0:
182,50,159355,1,10,1:3:0:0:
206,233,159480,5,6,1:2:0:0:
440,192,159605,2,0,P|393:187|328:176,1,107.999996704102,4|12,2:3|2:3,2:0:0:0:
259,116,159855,1,4,2:3:0:0:
122,209,159980,5,4,1:2:0:0:
299,260,160105,1,4,2:3:0:0:
299,260,160167,1,2,2:3:0:0:
299,260,160230,1,12,2:3:0:0:
405,105,160355,1,4,2:3:0:0:
100,304,160480,5,4,1:2:0:0:
147,121,160605,1,4,2:3:0:0:
147,121,160667,1,2,2:3:0:0:
147,121,160730,1,12,2:3:0:0:
0,2,160855,1,4,2:3:0:0:
254,82,160980,6,0,P|407:57|490:40,1,215.999993408203,4|12,1:2|2:3,2:0:0:0:
512,119,161355,1,4,2:3:0:0:
215,188,161480,5,6,1:2:0:0:
421,272,161605,2,0,P|351:261|299:252,1,107.999996704102,4|12,2:3|2:3,2:0:0:0:
220,289,161855,1,4,2:3:0:0:
100,243,161980,5,4,1:2:0:0:
299,353,162105,1,4,2:3:0:0:
299,353,162167,1,2,2:3:0:0:
299,353,162230,1,12,2:3:0:0:
369,149,162355,1,4,2:3:0:0:
49,315,162480,5,4,1:2:0:0:
204,119,162605,1,4,2:3:0:0:
204,119,162667,1,2,2:3:0:0:
204,119,162730,1,12,2:3:0:0:
451,166,162855,1,4,2:3:0:0:
188,200,162980,6,0,P|250:213|301:223,1,107.999996704102,4|0,1:2|1:0,2:0:0:0:
322,45,163230,5,10,2:3:0:0:
384,220,163355,1,14,2:3:0:0:
248,344,163480,2,0,P|194:349|140:356,1,107.999996704102,6|4,1:2|2:3,2:0:0:0:
97,225,163730,5,14,2:3:0:0:
204,119,163855,1,6,2:3:0:0:
113,12,163980,2,0,P|16:0|-43:-5,1,107.999996704102,4|4,1:2|2:3,2:0:0:0:
185,214,164230,1,14,2:3:0:0:
285,92,164355,1,6,2:3:0:0:
448,163,164480,5,4,1:2:0:0:
490,246,164605,1,6,2:3:0:0:
339,174,164730,1,12,2:3:0:0:
407,7,164855,1,6,2:3:0:0:
231,171,164980,1,4,1:2:0:0:
271,254,165105,1,4,2:3:0:0:
64,360,165230,1,14,2:3:0:0:
180,249,165355,1,6,2:3:0:0:
112,112,165480,6,0,P|32:102|-8:98,1,107.999996704102,4|4,1:2|2:3,2:0:0:0:
188,24,165730,1,14,2:3:0:0:
20,208,165855,1,6,2:3:0:0:
166,348,165980,6,0,P|246:338|286:334,1,107.999996704102,4|4,1:2|2:3,2:0:0:0:
275,74,166230,1,14,2:3:0:0:
370,218,166355,1,6,2:3:0:0:
97,101,166480,5,4,1:2:0:0:
264,175,166605,1,4,1:3:0:0:
407,34,166730,1,4,1:3:0:0:
264,175,166855,1,4,1:3:0:0:
295,341,166980,5,6,1:3:0:0:
320,346,167042,1,8,1:3:0:0:
347,352,167105,1,8,2:3:0:0:
373,358,167167,1,8,2:3:0:0:
400,363,167230,1,4,2:3:0:0:
512,186,167355,5,8,1:3:0:0:
512,186,167417,1,8,1:3:0:0:
512,186,167480,2,0,P|474:127|369:136,1,180,6|8,1:0|2:3,2:0:0:0:
56,56,167855,2,0,P|93:114|196:105,1,180,4|8,1:3|2:3,2:0:0:0:
327,252,168230,1,2,1:0:0:0:
141,384,168355,1,2,2:1:0:0:
327,252,168480,6,0,P|307:156|297:51,1,180,2|2,1:0|2:0,2:0:0:0:
298,74,168792,1,0,2:0:0:0:
298,74,168855,1,2,1:2:0:0:
443,197,168980,5,2,2:0:0:0:
247,0,169105,1,2,2:0:0:0:
489,126,169230,1,2,1:0:0:0:
250,278,169355,1,2,2:1:0:0:
403,353,169480,6,0,P|313:363|225:381,1,180,2|8,1:0|2:3,2:0:0:0:
62,138,169855,2,0,P|150:156|239:167,1,180,4|8,1:3|2:3,2:0:0:0:
300,1,170230,1,2,1:0:0:0:
131,59,170355,1,2,2:1:0:0:
312,227,170480,5,2,1:0:0:0:
125,369,170605,1,2,2:0:0:0:
97,325,170688,1,2,2:0:0:0:
51,305,170771,1,2,2:0:0:0:
1,312,170855,1,2,1:2:0:0:
63,117,170980,1,2,2:1:0:0:
221,57,171105,1,2,2:0:0:0:
357,304,171230,1,2,1:0:0:0:
112,199,171355,1,2,2:0:0:0:
372,136,171480,6,0,P|384:179|399:221,1,90,8|4,1:3|2:3,2:0:0:0:
264,370,171730,1,4,2:3:0:0:
264,370,171855,2,0,P|252:327|238:285,1,90,8|4,1:3|2:3,2:0:0:0:
231,78,172105,1,4,2:3:0:0:
497,215,172230,2,0,P|477:267|467:311,1,90,2|2,1:0|2:1,2:0:0:0:
154,301,172480,6,0,P|134:205|124:100,1,180,2|2,1:0|2:1,2:0:0:0:
126,124,172792,1,2,2:0:0:0:
126,124,172855,1,2,1:2:0:0:
0,105,172980,1,2,2:1:0:0:
214,0,173105,1,0,2:0:0:0:
53,184,173230,1,2,1:0:0:0:
238,279,173355,1,2,2:0:0:0:
167,384,173480,6,0,P|222:315|321:336,1,180,2|2,1:0|2:1,2:0:0:0:
468,229,173855,1,2,1:2:0:0:
483,0,173980,2,0,P|446:58|343:49,1,180,2|2,2:1|1:0,2:0:0:0:
164,137,174355,1,2,2:0:0:0:
426,384,174480,5,2,1:0:0:0:
373,201,174605,1,2,2:0:0:0:
401,157,174688,1,2,2:0:0:0:
447,137,174771,1,2,2:0:0:0:
497,144,174855,1,2,1:2:0:0:
399,292,174980,1,2,2:1:0:0:
222,355,175105,1,2,2:0:0:0:
0,42,175230,1,2,1:0:0:0:
288,166,175355,1,2,2:0:0:0:
113,207,175480,6,0,P|132:294|141:393,1,180,6|8,1:0|2:3,2:0:0:0:
373,201,175855,2,0,P|381:111|400:23,1,180,4|8,1:3|2:3,2:0:0:0:
139,126,176230,6,0,P|176:68|279:77,1,180,2|2,1:0|1:0,2:0:0:0:
278,76,176542,1,2,2:0:0:0:
278,76,176605,1,2,2:0:0:0:
266,252,176730,1,2,2:0:0:0:
384,81,176855,1,2,1:2:0:0:
180,203,176980,1,2,2:0:0:0:
47,6,177105,1,2,2:0:0:0:
87,233,177230,2,0,P|97:323|104:350,1,90,2|0,1:0|2:0,2:0:0:0:
350,200,177480,5,2,1:0:0:0:
156,68,177605,2,0,P|200:60|245:58,1,90,4|0,2:3|2:0,2:0:0:0:
434,190,177855,1,4,1:3:0:0:
332,374,177980,6,0,P|316:315|307:264,1,90,2|8,2:1|2:3,2:0:0:0:
512,55,178230,2,0,P|453:71|402:80,1,90,2|0,1:0|2:0,2:0:0:0:
79,25,178480,5,2,1:0:0:0:
156,358,178605,1,2,2:0:0:0:
241,131,178730,1,2,2:1:0:0:
214,253,178855,1,2,1:2:0:0:
318,70,178980,5,2,2:1:0:0:
339,295,179105,1,2,2:0:0:0:
454,135,179230,1,2,1:0:0:0:
428,240,179355,1,2,2:0:0:0:
104,10,179480,6,0,P|122:63|133:107,1,90,0|2,1:0|2:0,2:0:0:0:
255,200,179730,1,2,3:2:0:0:
233,33,179855,5,0,1:0:0:0:
172,180,179980,1,2,2:0:0:0:
108,323,180105,1,0,2:0:0:0:
23,154,180230,6,0,P|59:197|84:235,1,90,2|2,1:0|2:1,2:0:0:0:
197,373,180480,1,2,1:0:0:0:
338,183,180605,1,2,2:0:0:0:
370,159,180667,1,0,2:0:0:0:
410,158,180730,1,2,3:1:0:0:
444,179,180792,1,0,2:0:0:0:
462,215,180855,1,0,1:0:0:0:
290,341,180980,6,0,P|275:285|272:242,1,90,2|2,2:1|2:1,2:0:0:0:
158,81,181230,1,2,1:0:0:0:
124,40,181292,1,0,3:0:0:0:
76,11,181355,1,2,3:0:0:0:
13,0,181417,1,0,3:0:0:0:
256,192,193480,5,6,3:2:0:0:
