osu file format v14

[General]
AudioFilename: audio.mp3
AudioLeadIn: 0
PreviewTime: 143417
Countdown: 0
SampleSet: Soft
StackLeniency: 0.7
Mode: 0
LetterboxInBreaks: 0
WidescreenStoryboard: 0

[Editor]
Bookmarks: 7490,23480,39522,55480,71480,87480,103480,119480,127480,135480,151480,167480,181480,193480
DistanceSpacing: 0.95
BeatDivisor: 4
GridSize: 8
TimelineZoom: 1.5

[Metadata]
Title:Replica feat. mami
TitleUnicode:レプリカ feat. mami
Artist:UKRampage
ArtistUnicode:有形ランペイジ
Creator:Amamya
Version:Dailycare's Normal
Source:
Tags:cc22 hd1 sf corsace closed hidden one semi finals japanese rock jrock j-rock riana dailycare morinaga atipir enon cellina reana sasakure.uk odyssey ささくれP sasakureP sasakuration ササクレイション 佐々木秀尚 sasaki hidehisa 二家本亮介 nikamoto ryosuke 今井義頼 yoshinori imai 岸田勇気 yuki kishida
BeatmapID:3772511
BeatmapSetID:1769121

[Difficulty]
HPDrainRate:3
CircleSize:3.2
OverallDifficulty:4
ApproachRate:5.5
SliderMultiplier:0.949999999999999
SliderTickRate:1

[Events]
//Background and Video events
0,0,"89504775_p0.jpg",0,0
//Break Periods
2,181680,192355
//Storyboard Layer 0 (Background)
//Storyboard Layer 1 (Fail)
//Storyboard Layer 2 (Pass)
//Storyboard Layer 3 (Foreground)
//Storyboard Layer 4 (Overlay)
//Storyboard Sound Samples

[TimingPoints]
520,244.897959183673,4,2,99,78,1,0
2480,250,4,2,99,78,1,0
6480,-100,4,2,99,35,0,0
7490,248.96265560166,4,2,99,64,1,0
7490,-100,4,2,99,64,0,0
9480,250,4,2,99,64,1,0
23480,-100,4,2,99,50,0,0
39230,-100,4,2,99,64,0,0
39480,255.31914893617,4,2,99,78,1,0
39480,-100,4,2,99,78,0,0
40500,250,4,2,99,78,1,0
41500,244.897959183673,4,2,99,78,1,0
42480,255.31914893617,4,2,99,78,1,0
43500,244.897959183673,4,2,99,78,1,0
44480,250,4,2,99,78,1,0
46480,247.422680412371,4,2,99,78,1,0
48460,250,4,2,99,78,1,0
53460,247.933884297521,4,2,99,78,1,0
53460,-100,4,2,99,50,0,0
55194,285.714285714286,4,2,99,50,1,0
55194,-100,4,2,99,35,0,0
55480,250,4,2,99,75,1,0
55480,-100,4,2,99,75,0,0
71480,-100,4,2,99,64,0,0
87480,-100,4,2,99,50,0,0
102855,187.5,4,2,99,50,1,0
102948,272.727272727273,4,2,99,50,1,0
102948,-100,4,2,99,64,0,0
103220,260.869565217391,4,2,99,64,1,0
103480,250,4,2,99,78,1,1
103480,-100,4,2,99,78,0,0
105480,244.897959183673,4,2,99,78,1,0
106460,247.422680412371,4,2,99,78,1,0
107449,255.31914893617,4,2,99,78,1,0
109491,244.897959183673,4,2,99,78,1,0
110960,255.31914893617,4,2,99,78,1,0
111470,252.631578947368,4,2,99,78,1,0
112480,250,4,2,99,78,1,0
118980,-100,4,2,99,84,0,0
119480,-100,4,2,99,50,0,0
120730,-100,4,2,99,35,0,0
120980,-100,4,2,99,50,0,0
121230,-100,4,2,99,35,0,0
121480,-100,4,2,99,50,0,0
122730,-100,4,2,99,35,0,0
122980,-100,4,2,99,50,0,0
124480,-100,4,2,99,35,0,0
124980,-100,4,2,99,50,0,0
125230,-100,4,2,99,35,0,0
125480,-100,4,2,99,50,0,0
126480,-100,4,2,99,35,0,0
126980,-100,4,2,99,50,0,0
127355,-100,4,2,99,60,0,0
127480,-100,4,2,99,75,0,0
133480,-100,4,2,99,50,0,0
134730,-100,4,2,99,35,0,0
134980,-100,4,2,99,50,0,0
135480,-100,4,2,99,62,0,0
148980,-100,4,2,99,70,0,0
149230,-100,4,2,99,74,0,0
150480,-100,4,2,99,64,0,0
151230,-100,4,2,99,50,0,0
151480,-100,4,2,99,75,0,0
166480,-100,4,2,99,77,0,0
167480,-100,4,2,99,84,0,0

[Colours]
Combo1 : 255,179,179
Combo2 : 201,184,192

[HitObjects]
417,19,520,6,0,P|443:61|451:116,1,94.9999999999999,4|4,1:2|2:3,2:0:0:0:
483,137,887,2,0,P|424:164|388:245,1,142.5,0|0,1:0|1:0,2:0:0:0:
299,218,1499,2,0,P|310:275|319:360,2,142.5,0|0|0,1:0|1:0|1:0,2:0:0:0:
330,133,2480,6,0,P|300:99|234:89,1,94.9999999999999,0|4,1:0|2:3,2:0:0:0:
231,46,2855,2,0,P|193:84|93:79,1,142.5,0|0,1:0|1:0,2:0:0:0:
33,138,3480,2,0,P|19:72|-2:-2,2,142.5,0|0|0,1:0|1:0|1:0,2:0:0:0:
110,184,4480,6,0,P|98:230|91:286,1,94.9999999999999,0|4,1:0|2:3,2:0:0:0:
65,314,4855,2,0,P|123:294|210:292,1,142.5,0|0,1:0|1:0,2:0:0:0:
260,221,5480,2,0,P|313:248|397:268,2,142.5,0|0|0,1:0|1:0|1:0,2:0:0:0:
200,152,6480,6,0,P|193:101|183:55,1,94.9999999999999,2|0,2:0|2:0,2:0:0:0:
268,25,6980,2,0,P|275:76|285:122,1,94.9999999999999,2|2,3:2|2:0,2:0:0:0:
341,188,7490,6,0,P|330:224|318:301,1,94.9999999999999,6|2,1:2|2:0,2:0:0:0:
340,368,7987,1,2,1:2:0:0:
419,326,8236,1,0,2:0:0:0:
509,324,8485,2,0,P|486:275|450:124,1,190,2|2,1:2|1:2,2:0:0:0:
503,69,9232,5,2,2:0:0:0:
424,25,9480,2,0,P|393:64|345:90,1,94.9999999999999,2|2,1:2|2:0,2:0:0:0:
267,60,9980,2,0,P|300:138|255:195,1,142.5,2|2,1:2|2:0,2:0:0:0:
238,208,10480,2,0,P|207:169|159:143,1,94.9999999999999,2|0,1:2|2:0,2:0:0:0:
87,105,10980,2,0,P|94:85|100:56,2,47.5,2|2|2,1:2|2:0|2:0,2:0:0:0:
21,175,11480,6,0,P|45:217|52:281,1,94.9999999999999,6|2,1:2|2:0,2:0:0:0:
95,342,11980,1,2,1:2:0:0:
178,307,12230,1,0,2:0:0:0:
242,370,12480,2,0,P|223:280|214:169,1,190,2|2,1:2|1:2,2:0:0:0:
251,100,13230,5,2,2:0:0:0:
204,22,13480,2,0,P|267:56|389:90,1,190,2|2,1:2|1:2,2:0:0:0:
445,150,14230,1,2,2:0:0:0:
402,229,14480,2,0,P|357:244|316:267,1,94.9999999999999,2|2,1:2|2:0,2:0:0:0:
258,337,14980,1,2,1:2:0:0:
224,253,15230,1,2,2:0:0:0:
138,282,15480,6,0,P|93:267|52:244,1,94.9999999999999,6|2,1:2|2:0,2:0:0:0:
9,163,15980,1,2,1:2:0:0:
89,121,16230,1,0,2:0:0:0:
51,38,16480,2,0,P|132:24|257:12,1,190,2|2,1:2|1:2,2:0:0:0:
324,43,17230,5,2,2:0:0:0:
265,111,17480,2,0,P|283:169|291:225,1,94.9999999999999,2|2,1:2|2:0,2:0:0:0:
241,279,17980,2,0,P|268:316|363:334,1,142.5,2|2,1:2|2:0,2:0:0:0:
403,328,18480,2,0,P|411:281|426:236,1,94.9999999999999,2|0,1:2|2:0,2:0:0:0:
466,155,18980,2,0,P|491:163|531:169,2,47.5,2|2|2,1:2|2:0|2:0,2:0:0:0:
411,83,19480,6,0,P|367:102|303:115,1,94.9999999999999,6|2,1:2|2:0,2:0:0:0:
248,166,19980,1,2,1:2:0:0:
212,83,20230,1,0,2:0:0:0:
132,124,20480,2,0,P|116:197|71:307,1,190,2|2,1:2|1:2,2:0:0:0:
128,374,21230,5,2,2:0:0:0:
198,317,21480,2,0,P|259:304|392:286,1,190,2|2,1:2|1:2,2:0:0:0:
445,219,22230,1,2,2:0:0:0:
372,165,22480,2,0,P|387:120|394:52,1,94.9999999999999,2|2,1:2|2:0,2:0:0:0:
330,9,22980,1,2,1:2:0:0:
247,46,23230,1,2,2:0:0:0:
158,26,23480,6,0,P|130:29|68:166,1,190,6|0,3:2|3:0,2:0:0:0:
139,205,24230,1,0,2:0:0:0:
205,143,24480,2,0,P|192:205|173:333,2,190,2|2|6,3:2|3:2|3:2,2:0:0:0:
129,94,25730,1,2,2:0:0:0:
63,156,25980,2,0,P|55:208|45:267,1,94.9999999999999,0|0,3:0|2:0,2:0:0:0:
12,333,26480,2,0,P|63:289|181:311,1,190,2|2,3:2|3:2,2:0:0:0:
348,363,27480,6,0,P|432:338|445:240,1,190,6|0,3:2|3:0,2:0:0:0:
381,185,28230,1,0,2:0:0:0:
330,259,28480,2,0,P|314:179|284:53,1,190,2|2,3:2|3:2,2:0:0:0:
354,11,29230,1,2,2:0:0:0:
441,34,29480,2,0,P|465:71|465:131,1,94.9999999999999,6|0,3:2|2:0,2:0:0:0:
511,200,29980,2,0,P|462:217|419:308,1,142.5,0|2,3:0|2:0,2:0:0:0:
406,336,30480,2,0,P|362:326|306:319,1,94.9999999999999,2|2,3:2|2:0,2:0:0:0:
256,248,30980,1,2,3:2:0:0:
75,251,31480,6,0,P|29:221|28:97,1,190,6|0,3:2|3:0,2:0:0:0:
110,59,32230,1,0,2:0:0:0:
175,121,32480,2,0,P|236:113|264:3,2,190,2|2|6,3:2|3:2|3:2,2:0:0:0:
93,160,33730,1,2,2:0:0:0:
27,97,33980,2,0,P|32:63|87:31,1,94.9999999999999,2|0,3:2|2:0,2:0:0:0:
167,10,34480,2,0,P|187:81|208:211,1,190,2|2,3:2|3:2,2:0:0:0:
331,326,35480,6,0,P|345:232|370:140,1,190,6|2,3:2|3:2,2:0:0:0:
312,70,36230,1,0,2:0:0:0:
384,16,36480,2,0,P|441:25|482:147,1,190,0|0,3:0|3:0,2:0:0:0:
512,225,37230,1,2,2:0:0:0:
437,275,37480,2,0,P|413:253|336:242,1,94.9999999999999,6|2,3:2|2:0,2:0:0:0:
271,278,37980,2,0,P|258:207|241:138,1,142.5,2|2,3:2|2:0,2:0:0:0:
204,111,38480,2,0,P|157:118|120:147,1,94.9999999999999,2|2,3:2|2:0,2:0:0:0:
45,197,38980,1,2,3:2:0:0:
108,260,39230,5,2,2:3:0:0:
63,338,39480,2,0,P|116:357|158:381,1,94.9999999999999,6|4,1:2|2:3,2:0:0:0:
186,349,39862,2,0,P|194:274|210:194,1,142.5,8|0,2:3|1:0,2:0:0:0:
249,126,40500,2,0,P|210:67|130:60,2,142.5,6|8|0,1:2|2:3|1:0,2:0:0:0:
338,150,41500,6,0,P|385:142|422:96,1,94.9999999999999,4|4,1:2|2:3,2:0:0:0:
458,90,41867,2,0,P|445:160|437:230,1,142.5,8|0,2:3|1:0,2:0:0:0:
445,317,42480,2,0,P|398:306|351:300,1,94.9999999999999,6|4,1:2|2:3,2:0:0:0:
311,320,42862,2,0,P|307:296|300:273,1,47.5,8|0,2:3|2:0,2:0:0:0:
220,230,43245,1,0,1:0:0:0:
161,305,43500,6,0,P|129:330|68:344,1,94.9999999999999,6|8,1:2|2:3,2:0:0:0:
42,315,43867,2,0,P|23:256|-4:212,1,94.9999999999999,8|8,2:3|2:3,2:0:0:0:
31,188,44234,1,0,1:0:0:0:
6,101,44480,2,0,P|27:79|102:66,1,94.9999999999999,6|4,1:2|2:3,2:0:0:0:
113,26,44855,2,0,P|185:51|213:120,1,142.5,8|8,2:3|1:3,2:0:0:0:
293,146,45480,6,0,P|278:186|263:238,1,94.9999999999999,6|4,1:2|2:3,2:0:0:0:
230,266,45855,2,0,P|275:279|320:295,1,94.9999999999999,4|4,1:2|2:3,2:0:0:0:
355,324,46230,1,4,2:0:0:0:
436,285,46480,2,0,P|431:255|427:233,1,47.5,4|4,2:3|1:2,2:0:0:0:
482,165,46851,2,0,P|477:141|474:118,1,47.5,4|4,2:3|1:2,2:0:0:0:
512,33,47222,1,4,1:2:0:0:
423,13,47469,6,0,P|376:20|343:58,1,94.9999999999999,4|4,1:2|2:3,2:0:0:0:
304,74,47840,2,0,P|341:102|346:201,1,142.5,8|0,2:3|1:0,2:0:0:0:
285,255,48460,2,0,P|351:302|403:360,2,142.5,6|8|0,1:2|2:3|1:0,2:0:0:0:
202,210,49460,6,0,P|155:210|121:241,1,94.9999999999999,6|4,1:2|2:3,2:0:0:0:
79,260,49835,2,0,P|40:226|46:132,1,142.5,8|0,2:3|1:0,2:0:0:0:
114,88,50460,2,0,P|137:82|160:77,1,47.5,6|0,1:2|2:0,2:0:0:0:
239,32,50835,2,0,P|297:36|345:120,1,142.5,8|4,2:3|1:0,2:0:0:0:
324,190,51460,6,0,P|314:236|306:288,1,94.9999999999999,6|4,1:2|2:3,2:0:0:0:
385,327,51960,2,0,P|431:322|467:293,1,94.9999999999999,4|0,2:3|1:0,2:0:0:0:
500,208,52460,2,0,P|494:182|488:150,1,47.5,6|4,1:2|2:3,2:0:0:0:
442,84,52835,2,0,P|400:35|321:41,1,142.5,8|0,2:3|1:0,2:0:0:0:
256,96,53460,1,6,1:2:0:0:
256,96,55194,1,2,2:3:0:0:
239,184,55480,6,0,P|147:199|66:124,1,190,6|4,1:2|1:2,2:0:0:0:
3,198,56230,1,12,2:3:0:0:
69,258,56480,2,0,P|58:305|85:347,1,94.9999999999999,4|12,1:2|2:3,2:0:0:0:
112,376,56855,2,0,P|138:366|165:363,1,47.5,6|4,0:3|1:2,0:0:0:0:
234,324,57230,1,12,2:3:0:0:
160,271,57480,6,0,P|197:195|170:80,1,190,6|4,1:2|1:2,2:0:0:0:
132,16,58230,1,12,2:3:0:0:
224,15,58480,2,0,P|270:38|322:52,1,94.9999999999999,4|4,1:2|2:3,2:0:0:0:
338,86,58855,2,0,P|369:71|404:65,1,47.5,6|4,0:3|1:2,0:0:0:0:
471,81,59230,6,0,P|491:108|494:141,1,47.5,10|10,1:3|1:3,2:0:0:0:
497,167,59480,2,0,P|459:181|422:232,1,94.9999999999999,6|14,1:2|2:3,2:0:0:0:
369,293,59980,2,0,P|325:266|269:272,1,94.9999999999999,4|14,1:2|2:3,2:0:0:0:
204,311,60480,1,4,1:2:0:0:
169,227,60730,1,12,2:3:0:0:
100,285,60980,1,4,1:2:0:0:
84,373,61230,1,12,2:3:0:0:
6,326,61480,6,0,P|0:251|-8:169,1,142.5,4|6,1:2|2:3,2:0:0:0:
20,147,61980,1,4,1:2:0:0:
106,173,62230,2,0,P|110:120|121:62,1,94.9999999999999,14|2,2:3|1:0,2:0:0:0:
188,23,62730,1,0,2:0:0:0:
205,111,62980,1,2,1:0:0:0:
289,79,63230,1,10,1:3:0:0:
337,154,63480,6,0,P|391:153|472:256,1,190,6|4,1:2|1:2,2:0:0:0:
414,320,64230,1,12,2:3:0:0:
334,276,64480,2,0,P|299:305|283:366,1,94.9999999999999,4|4,1:2|2:3,2:0:0:0:
242,372,64855,2,0,P|221:358|189:356,1,47.5,4|4,0:3|1:2,0:0:0:0:
141,285,65230,1,12,2:3:0:0:
229,263,65480,6,0,P|246:198|168:95,1,190,6|4,1:2|1:2,2:0:0:0:
136,23,66230,1,12,2:3:0:0:
68,82,66480,2,0,P|80:129|85:184,1,94.9999999999999,4|4,1:2|2:3,2:0:0:0:
109,212,66855,2,0,P|140:197|175:191,1,47.5,4|4,0:3|1:2,0:0:0:0:
237,160,67230,6,0,P|271:166|292:184,1,47.5,10|14,2:3|2:3,2:0:0:0:
309,208,67480,2,0,P|336:165|345:113,1,94.9999999999999,6|14,1:2|2:3,2:0:0:0:
353,31,67980,2,0,P|402:18|476:67,1,142.5,4|6,1:2|0:3,2:0:0:0:
490,107,68480,1,4,1:2:0:0:
428,175,68730,1,12,2:3:0:0:
501,226,68980,1,4,1:2:0:0:
464,308,69230,1,14,2:3:0:0:
389,256,69480,6,0,P|368:249|328:260,2,47.5,4|4|14,1:2|2:3|2:3,2:0:0:0:
428,175,69980,2,0,P|412:139|353:117,1,94.9999999999999,4|14,1:2|2:3,2:0:0:0:
363,116,71480,6,0,P|322:134|261:140,1,94.9999999999999,6|2,1:2|2:0,2:0:0:0:
188,173,71980,1,2,1:2:0:0:
146,93,72230,1,0,2:0:0:0:
59,118,72480,2,0,P|37:179|127:277,1,190,2|2,1:2|1:2,2:0:0:0:
107,363,73230,5,2,2:0:0:0:
192,333,73480,2,0,P|213:273|244:241,1,94.9999999999999,2|2,1:2|2:0,2:0:0:0:
315,212,73980,2,0,P|245:200|198:149,1,142.5,2|2,1:2|2:0,2:0:0:0:
156,132,74480,2,0,P|158:86|204:39,1,94.9999999999999,2|0,1:2|2:0,2:0:0:0:
275,33,74980,2,0,P|299:15|332:12,2,47.5,2|2|2,1:2|2:0|2:0,2:0:0:0:
322,109,75480,6,0,P|370:130|409:175,1,94.9999999999999,6|2,1:2|2:0,2:0:0:0:
485,131,75980,1,2,1:2:0:0:
506,218,76230,1,0,2:0:0:0:
423,253,76480,2,0,P|363:275|260:353,1,190,2|2,1:2|1:2,2:0:0:0:
206,279,77230,5,2,2:0:0:0:
116,288,77480,2,0,P|96:218|22:119,1,190,2|2,1:2|1:2,2:0:0:0:
57,38,78230,1,2,2:0:0:0:
132,87,78480,2,0,P|167:57|195:5,1,94.9999999999999,2|2,1:2|2:0,2:0:0:0:
273,52,78980,1,2,1:2:0:0:
350,6,79230,1,2,2:0:0:0:
385,88,79480,6,0,P|338:107|296:145,1,94.9999999999999,6|2,1:2|2:0,2:0:0:0:
214,138,79980,1,2,1:2:0:0:
248,221,80230,1,0,2:0:0:0:
187,287,80480,2,0,P|246:306|364:376,1,190,2|2,1:2|1:2,2:0:0:0:
441,339,81230,5,2,2:0:0:0:
494,266,81480,2,0,P|469:227|418:215,1,94.9999999999999,2|2,1:2|2:0,2:0:0:0:
338,243,81980,2,0,P|332:193|304:86,1,142.5,2|2,1:2|2:0,2:0:0:0:
292,61,82480,2,0,P|336:44|378:15,1,94.9999999999999,2|0,1:2|2:0,2:0:0:0:
456,56,82980,2,0,P|464:27|475:2,2,47.5,2|2|2,1:2|2:0|2:0,2:0:0:0:
407,132,83480,6,0,P|440:182|451:227,1,94.9999999999999,6|2,1:2|2:0,2:0:0:0:
413,297,83980,1,2,1:2:0:0:
330,259,84230,1,0,2:0:0:0:
292,341,84480,2,0,P|266:324|106:281,1,190,2|2,1:2|1:2,2:0:0:0:
56,212,85230,5,2,2:0:0:0:
122,151,85480,2,0,P|96:102|199:32,1,190,2|2,1:2|1:2,2:0:0:0:
260,70,86230,1,2,2:0:0:0:
345,41,86480,2,0,P|368:55|392:117,1,94.9999999999999,2|2,1:2|2:0,2:0:0:0:
325,177,86980,1,2,1:2:0:0:
410,205,87230,1,2,2:0:0:0:
413,295,87480,6,0,P|356:365|266:350,1,190,6|0,3:2|3:0,2:0:0:0:
277,260,88230,1,0,2:0:0:0:
190,235,88480,2,0,P|95:248|-3:257,2,190,2|0|6,3:2|3:2|3:2,2:0:0:0:
178,324,89730,1,2,2:0:0:0:
266,350,89980,2,0,P|271:300|283:250,1,94.9999999999999,0|2,2:0|2:0,2:0:0:0:
361,297,90480,2,0,P|403:241|521:235,1,190,2|2,3:2|3:2,2:0:0:0:
407,87,91480,6,0,P|344:19|252:22,1,190,6|0,3:2|3:0,2:0:0:0:
211,103,92230,1,0,2:0:0:0:
299,120,92480,2,0,P|209:151|123:191,1,190,2|0,3:2|3:0,2:0:0:0:
45,145,93230,1,0,2:0:0:0:
122,98,93480,2,0,P|119:44|33:24,2,142.5,6|2|2,3:2|2:0|2:0,2:0:0:0:
45,145,94480,2,0,P|132:161|253:187,1,190,2|2,3:2|3:2,2:0:0:0:
316,341,95480,6,0,P|436:340|460:269,1,190,6|0,3:2|3:0,2:0:0:0:
415,211,96230,1,0,2:0:0:0:
330,244,96480,2,0,P|264:255|138:285,2,190,2|0|6,3:2|3:0|3:2,2:0:0:0:
383,317,97730,1,0,2:0:0:0:
295,337,97980,2,0,P|246:345|187:366,1,94.9999999999999,2|0,3:2|2:0,2:0:0:0:
144,283,98480,1,2,3:2:0:0:
58,313,98730,2,0,P|44:262|20:208,1,94.9999999999999,2|0,2:0|3:0,2:0:0:0:
95,55,99480,6,0,P|167:71|247:-6,1,190,6|2,3:2|3:2,2:0:0:0:
311,59,100230,1,0,2:0:0:0:
396,30,100480,2,0,P|489:61|477:153,1,190,0|0,3:0|3:0,2:0:0:0:
411,189,101230,1,2,2:0:0:0:
328,151,101480,2,0,P|281:149|220:134,1,94.9999999999999,6|2,3:2|2:0,2:0:0:0:
145,122,101980,2,0,P|160:183|173:271,1,142.5,2|2,3:2|2:0,2:0:0:0:
177,306,102480,2,0,P|223:295|270:293,1,94.9999999999999,2|0,3:2|2:0,2:0:0:0:
357,318,102948,1,4,2:3:0:0:
451,164,103480,6,0,P|406:154|359:136,1,94.9999999999999,6|4,1:2|2:3,2:0:0:0:
317,151,103855,2,0,P|314:93|235:42,1,142.5,8|0,2:3|1:0,2:0:0:0:
171,85,104480,2,0,P|103:104|26:120,2,142.5,6|8|0,1:2|2:3|1:0,2:0:0:0:
180,176,105480,6,0,P|168:213|158:277,1,94.9999999999999,4|4,1:2|2:3,2:0:0:0:
123,297,105847,2,0,P|185:311|240:371,1,142.5,8|0,2:3|1:0,2:0:0:0:
317,325,106460,2,0,P|355:319|392:266,1,94.9999999999999,6|4,1:2|2:3,2:0:0:0:
423,246,106831,2,0,P|416:221|414:187,1,47.5,8|0,2:3|2:0,2:0:0:0:
349,137,107202,1,0,1:0:0:0:
376,50,107449,6,0,P|332:39|267:19,1,94.9999999999999,6|8,1:2|2:3,2:0:0:0:
200,56,107959,2,0,P|213:101|225:147,1,94.9999999999999,4|0,2:3|1:0,2:0:0:0:
290,210,108470,2,0,P|277:255|265:301,1,94.9999999999999,6|4,1:2|2:3,2:0:0:0:
275,345,108853,2,0,P|225:306|136:303,1,142.5,8|8,2:3|1:3,2:0:0:0:
56,322,109491,6,0,P|21:285|23:228,1,94.9999999999999,6|4,1:2|2:3,2:0:0:0:
19,197,109858,2,0,P|65:189|121:173,1,94.9999999999999,4|4,1:2|2:3,2:0:0:0:
156,183,110225,1,4,2:0:0:0:
233,136,110470,2,0,L|241:85,1,47.5,4|4,2:3|1:2,2:0:0:0:
330,83,110837,2,0,L|338:32,1,47.5,4|4,2:3|1:2,2:0:0:0:
422,6,111215,1,4,1:2:0:0:
485,70,111470,6,0,P|448:102|428:165,1,94.9999999999999,4|4,1:2|2:3,2:0:0:0:
398,175,111848,2,0,P|452:224|457:296,1,142.5,8|0,2:3|1:0,2:0:0:0:
396,357,112480,2,0,P|326:363|272:310,1,142.5,6|8,1:2|2:3,2:0:0:0:
235,235,113105,2,0,P|212:255|186:267,1,47.5,4|0,2:3|1:0,2:0:0:0:
112,294,113480,6,0,P|111:246|78:187,1,94.9999999999999,6|4,1:2|2:3,2:0:0:0:
50,185,113855,2,0,P|11:146|33:64,1,142.5,8|0,2:3|1:0,2:0:0:0:
119,11,114480,2,0,P|163:26|228:39,1,94.9999999999999,6|4,1:2|2:3,2:0:0:0:
255,38,114855,2,0,P|221:87|197:185,1,142.5,8|0,2:3|1:0,2:0:0:0:
257,233,115480,6,0,P|301:218|366:205,1,94.9999999999999,6|4,1:2|2:3,2:0:0:0:
371,168,115855,1,8,2:3:0:0:
453,203,116105,2,0,L|441:249,2,47.5,4|0|4,2:3|1:0|2:3,2:0:0:0:
478,116,116605,2,0,L|489:69,2,47.5,4|4|8,2:3|2:3|2:3,2:0:0:0:
393,83,117105,6,0,P|349:68|284:55,1,94.9999999999999,4|0,2:3|2:0,2:0:0:0:
264,83,117480,2,0,P|239:51|140:7,2,142.5,6|0|8,1:2|1:0|1:3,2:0:0:0:
214,158,118480,1,4,2:3:0:0:
214,158,118605,2,0,P|223:196|209:271,1,94.9999999999999,4|0,1:2|2:0,2:0:0:0:
192,288,118980,1,0,1:0:0:0:
103,270,119230,2,0,P|96:292|85:313,1,47.5,0|0,1:0|1:0,2:0:0:0:
48,340,119480,6,0,P|0:280|17:216,1,142.5,2|2,2:0|2:0,2:0:0:0:
46,89,120230,2,0,B|126:101|75:150|170:163,1,142.5,2|2,2:0|2:0,2:0:0:0:
196,190,120730,1,0,2:0:0:0:
283,169,120980,2,0,P|289:122|324:89,1,94.9999999999999,2|2,2:0|2:0,2:0:0:0:
364,10,121480,6,0,P|416:10|480:84,1,142.5,2|2,2:0|2:0,2:0:0:0:
367,162,122230,2,0,P|400:201|384:298,1,142.5,2|2,2:0|2:0,2:0:0:0:
410,329,122730,2,0,P|373:361|317:348,1,94.9999999999999,2|2,2:0|2:0,2:0:0:0:
286,277,123230,1,2,2:0:0:0:
205,316,123480,6,0,P|160:302|53:283,2,142.5,2|2|2,2:0|2:0|2:0,2:0:0:0:
286,277,124480,2,0,P|293:209|238:152,1,142.5,0|2,2:0|2:0,2:0:0:0:
223,117,124980,2,0,P|185:154|128:144,1,94.9999999999999,2|2,2:0|2:0,2:0:0:0:
121,65,125480,6,0,P|41:53|-25:38,2,142.5,2|2|2,2:0|2:0|2:0,2:0:0:0:
203,28,126480,1,2,2:0:0:0:
256,192,126980,2,0,P|325:176|396:166,1,142.5,2|0,2:1|2:0,2:0:0:0:
422,129,127480,6,0,P|409:217|399:334,1,190,4|0,1:2|2:0,2:0:0:0:
331,376,128230,1,0,1:0:0:0:
241,363,128480,2,0,P|249:315|253:251,1,94.9999999999999,0|2,1:0|2:0,2:0:0:0:
206,190,128980,1,2,2:0:0:0:
289,155,129230,1,0,1:0:0:0:
261,68,129480,6,0,P|213:64|166:56,1,94.9999999999999,0|4,1:0|2:3,2:0:0:0:
127,33,129855,2,0,P|118:99|107:178,1,142.5,0|0,1:0|1:0,2:0:0:0:
27,215,130480,1,0,1:0:0:0:
72,293,130730,2,0,P|119:296|166:304,1,94.9999999999999,2|2,2:0|2:0,2:0:0:0:
222,374,131230,1,2,1:2:0:0:
303,334,131480,6,0,P|332:297|326:144,1,190,2|0,1:2|2:0,2:0:0:0:
272,94,132230,1,2,1:2:0:0:
324,20,132480,2,0,P|370:27|418:31,1,94.9999999999999,0|2,1:0|2:0,2:0:0:0:
493,81,132980,1,2,2:0:0:0:
422,137,133230,1,0,1:0:0:0:
459,218,133480,6,0,P|448:275|439:359,2,142.5,2|2|2,2:0|2:0|2:0,2:0:0:0:
422,137,134480,2,0,P|429:90|433:42,1,94.9999999999999,2|2,2:0|2:0,2:0:0:0:
349,9,134980,2,0,P|341:55|337:103,1,94.9999999999999,0|0,2:0|2:0,2:0:0:0:
246,100,135480,6,0,P|231:70|83:37,2,190,4|0|10,1:2|1:0|1:3,2:0:0:0:
178,160,136730,1,0,2:0:0:0:
263,187,136980,2,0,P|251:223|246:291,1,94.9999999999999,2|2,1:2|2:0,2:0:0:0:
217,365,137480,2,0,P|232:335|380:302,2,190,4|0|10,1:3|1:0|1:3,2:0:0:0:
133,329,138730,2,0,P|129:281|115:236,1,94.9999999999999,0|2,2:0|1:2,2:0:0:0:
45,179,139230,1,2,2:0:0:0:
82,96,139480,6,0,P|121:99|182:67,1,94.9999999999999,4|2,1:3|2:0,2:0:0:0:
250,121,139980,2,0,P|277:58|395:20,2,190,0|10|0,1:0|1:3|1:0,2:0:0:0:
176,173,141230,1,2,2:0:0:0:
247,227,141480,2,0,P|255:275|264:337,1,94.9999999999999,4|2,1:3|2:0,2:0:0:0:
334,375,141980,1,2,1:2:0:0:
368,291,142230,1,2,2:0:0:0:
450,326,142480,2,0,P|504:286|480:167,1,190,10|0,1:3|1:0,2:0:0:0:
405,208,143230,1,2,2:0:0:0:
340,144,143480,6,0,P|312:58|216:13,2,190,4|0|10,1:2|1:0|1:3,2:0:0:0:
257,180,144730,1,0,2:0:0:0:
206,105,144980,2,0,P|163:112|127:158,1,94.9999999999999,2|2,1:2|2:0,2:0:0:0:
175,226,145480,2,0,P|147:312|51:357,2,190,4|0|10,1:3|1:0|1:3,2:0:0:0:
129,148,146730,2,0,P|86:141|50:95,1,94.9999999999999,0|2,2:0|1:2,2:0:0:0:
55,13,147230,1,2,2:0:0:0:
140,41,147480,6,0,P|185:29|237:23,1,94.9999999999999,4|2,1:3|2:0,2:0:0:0:
289,94,147980,2,0,P|242:124|221:263,2,190,0|10|2,1:0|1:3|1:2,2:0:0:0:
371,129,149230,1,2,2:0:0:0:
459,113,149480,6,0,P|496:71|482:19,1,94.9999999999999,4|0,1:3|2:0,2:0:0:0:
404,11,149980,2,0,P|419:88|439:212,1,190,8|2,1:3|2:0,2:0:0:0:
219,360,151230,1,2,2:0:0:0:
129,352,151480,6,0,P|97:323|109:176,1,190,6|4,1:2|1:2,2:0:0:0:
52,109,152230,1,12,2:3:0:0:
121,51,152480,2,0,P|159:71|216:79,1,94.9999999999999,4|12,1:2|2:3,2:0:0:0:
221,123,152855,2,0,P|252:127|288:135,1,47.5,6|4,0:3|1:2,0:0:0:0:
354,107,153230,1,12,2:3:0:0:
295,37,153480,6,0,P|307:96|331:237,1,190,6|4,1:2|1:2,2:0:0:0:
380,297,154230,1,12,2:3:0:0:
467,273,154480,2,0,P|496:245|493:177,1,94.9999999999999,4|12,1:2|2:3,2:0:0:0:
471,157,154855,2,0,P|446:156|414:174,1,47.5,6|4,0:3|1:2,2:0:0:0:
354,107,155230,6,0,P|329:108|297:90,1,47.5,10|10,1:3|1:3,2:0:0:0:
266,116,155480,2,0,P|240:81|182:67,1,94.9999999999999,6|14,1:2|2:3,2:0:0:0:
121,9,155980,2,0,P|85:15|35:73,1,94.9999999999999,4|14,1:2|2:3,2:0:0:0:
81,134,156480,1,4,1:2:0:0:
0,175,156730,1,12,2:3:0:0:
56,245,156980,1,4,1:2:0:0:
143,268,157230,1,12,2:3:0:0:
101,348,157480,6,0,P|179:354|259:366,1,142.5,4|6,1:2|2:3,2:0:0:0:
281,340,157980,1,4,1:2:0:0:
239,259,158230,2,0,P|300:254|348:247,1,94.9999999999999,14|2,2:3|1:0,2:0:0:0:
422,268,158730,1,0,2:0:0:0:
410,178,158980,1,2,1:0:0:0:
497,157,159230,1,10,1:3:0:0:
445,83,159480,6,0,P|403:73|344:31,1,94.9999999999999,6|12,1:2|2:3,2:0:0:0:
272,20,159980,2,0,P|280:85|280:123,1,94.9999999999999,4|12,1:2|2:3,2:0:0:0:
192,92,160480,2,0,P|146:103|106:128,1,94.9999999999999,4|12,1:2|2:3,2:0:0:0:
64,146,160855,2,0,P|35:140|5:126,1,47.5,4|4,0:3|1:2,0:0:0:0:
5,222,161230,1,12,2:3:0:0:
88,255,161480,6,0,P|144:275|248:365,1,190,6|4,1:2|1:2,2:0:0:0:
317,307,162230,1,12,2:3:0:0:
274,227,162480,2,0,P|279:181|297:120,1,94.9999999999999,4|12,1:2|2:3,2:0:0:0:
252,111,162855,2,0,P|246:84|233:55,1,47.5,4|4,0:3|1:2,0:0:0:0:
309,7,163230,6,0,P|335:10|366:33,1,47.5,10|14,2:3|2:3,2:0:0:0:
398,14,163480,2,0,P|433:55|442:103,1,94.9999999999999,6|14,1:2|2:3,2:0:0:0:
493,168,163980,2,0,P|435:189|404:270,1,142.5,4|6,1:2|0:3,2:0:0:0:
385,300,164480,1,4,1:2:0:0:
309,353,164730,1,12,2:3:0:0:
291,264,164980,1,4,1:2:0:0:
204,288,165230,6,0,P|201:314|195:346,2,47.5,14|6|4,2:3|2:3|1:2,2:0:0:0:
135,229,165730,2,0,P|133:205|128:181,2,47.5,14|6|4,2:3|2:3|1:2,2:0:0:0:
221,200,166230,1,14,2:3:0:0:
306,170,166480,2,0,P|342:126|326:25,1,142.5,4|4,1:2|1:3,2:0:0:0:
310,8,166980,2,0,P|263:21|200:24,1,94.9999999999999,6|4,1:3|2:3,2:0:0:0:
148,83,167480,6,0,P|101:86|65:121,1,94.9999999999999,6|8,1:0|2:3,2:0:0:0:
23,131,167855,2,0,P|52:168|74:227,1,94.9999999999999,4|8,1:3|2:3,2:0:0:0:
66,257,168230,1,2,1:0:0:0:
155,243,168480,2,0,P|145:313|137:384,2,142.5,2|2|2,1:0|1:2|1:0,2:0:0:0:
211,171,169480,6,0,P|261:167|301:208,1,94.9999999999999,2|8,1:0|2:3,2:0:0:0:
295,238,169855,2,0,P|304:289|382:351,1,142.5,4|2,1:3|1:0,2:0:0:0:
453,378,170480,1,2,1:0:0:0:
492,297,170730,1,2,2:1:0:0:
414,251,170980,1,2,2:1:0:0:
385,165,171230,1,2,1:0:0:0:
437,91,171480,6,0,P|379:79|329:66,1,94.9999999999999,8|4,1:3|2:3,2:0:0:0:
304,48,171855,2,0,P|292:105|279:156,1,94.9999999999999,8|4,1:3|2:3,2:0:0:0:
244,164,172230,2,0,P|255:189|263:226,1,47.5,2|2,1:0|2:1,2:0:0:0:
290,241,172480,1,2,1:0:0:0:
246,320,172730,1,2,2:1:0:0:
162,355,172980,1,2,2:1:0:0:
74,332,173230,1,2,1:0:0:0:
29,253,173480,6,0,P|28:207|73:159,1,94.9999999999999,2|2,1:0|2:1,2:0:0:0:
35,127,173855,2,0,P|64:97|164:96,1,142.5,2|2,1:2|1:0,2:0:0:0:
185,180,174480,1,2,1:0:0:0:
252,119,174730,2,0,P|241:63|234:18,2,94.9999999999999,2|2|2,2:1|2:1|1:0,2:0:0:0:
339,142,175480,6,0,P|314:194|319:244,1,94.9999999999999,6|8,1:0|2:3,2:0:0:0:
288,267,175855,2,0,P|342:285|376:322,1,94.9999999999999,4|8,1:3|2:3,2:0:0:0:
408,331,176230,1,2,1:0:0:0:
468,264,176480,2,0,P|513:240|512:157,2,142.5,2|2|2,1:0|1:2|1:0,2:0:0:0:
390,217,177480,6,0,P|400:191|403:169,1,47.5,2|4,1:0|2:3,2:0:0:0:
315,147,177855,2,0,P|310:123|302:101,1,47.5,4|2,1:3|2:1,2:0:0:0:
221,62,178230,1,2,1:0:0:0:
203,150,178480,5,2,1:0:0:0:
123,106,178730,1,2,2:1:0:0:
99,18,178980,1,2,2:1:0:0:
25,69,179230,1,2,1:0:0:0:
2,156,179480,6,0,P|42:184|74:229,1,94.9999999999999,0|2,1:0|3:2,2:0:0:0:
81,264,179855,2,0,P|122:252|186:248,1,94.9999999999999,0|0,1:0|2:0,2:0:0:0:
218,239,180230,2,0,P|218:268|224:306,1,47.5,2|2,1:0|2:1,2:0:0:0:
204,328,180480,1,2,1:0:0:0:
287,361,180730,1,2,3:1:0:0:
370,327,180980,2,0,P|370:298|364:260,1,47.5,2|2,2:1|2:1,2:0:0:0:
396,255,181230,2,0,P|391:208|392:146,1,94.9999999999999,2|0,1:0|2:0,2:0:0:0:
391,160,193480,5,6,3:2:0:0:
