osu file format v14

[General]
AudioFilename: audio.mp3
AudioLeadIn: 0
PreviewTime: 143417
Countdown: 0
SampleSet: Soft
StackLeniency: 0.5
Mode: 0
LetterboxInBreaks: 0
WidescreenStoryboard: 1

[Editor]
Bookmarks: 7417,127417,151417
DistanceSpacing: 0.7
BeatDivisor: 4
GridSize: 4
TimelineZoom: 1.5

[Metadata]
Title:Replica feat. mami
TitleUnicode:レプリカ feat. mami
Artist:UKRampage
ArtistUnicode:有形ランペイジ
Creator:Amamya
Version:Dailycare's Facsimile
Source:
Tags:cc22 hd1 sf corsace closed hidden one semi finals japanese rock jrock j-rock riana dailycare morinaga atipir enon cellina reana sasakure.uk odyssey ささくれP sasakureP sasakuration ササクレイション 佐々木秀尚 sasaki hidehisa 二家本亮介 nikamoto ryosuke 今井義頼 yoshinori imai 岸田勇気 yuki kishida
BeatmapID:3772513
BeatmapSetID:1769121

[Difficulty]
HPDrainRate:5
CircleSize:4
OverallDifficulty:9.6
ApproachRate:9.9
SliderMultiplier:2.1
SliderTickRate:1

[Events]
//Background and Video events
0,0,"dd7.jpg",0,0
//Break Periods
2,181617,193015
//Storyboard Layer 0 (Background)
//Storyboard Layer 1 (Fail)
//Storyboard Layer 2 (Pass)
//Storyboard Layer 3 (Foreground)
//Storyboard Layer 4 (Overlay)
//Storyboard Sound Samples

[TimingPoints]
520,244.897959183673,4,2,99,78,1,0
2480,250,4,2,99,78,1,0
6480,-100,4,2,99,35,0,0
7490,248.96265560166,4,2,99,64,1,0
7490,-125,4,2,99,64,0,0
9480,250,4,2,99,64,1,0
9480,-125,4,2,99,64,0,0
23480,-153.846153846154,4,2,99,50,0,0
39230,-250,4,2,99,64,0,0
39417,-250,4,2,99,5,0,0
39480,255.31914893617,4,2,99,78,1,1
39480,-83.3333333333333,4,2,99,78,0,1
40500,250,4,2,99,78,1,1
40500,-83.3333333333333,4,2,99,78,0,1
41500,244.897959183673,4,2,99,78,1,1
41500,-83.3333333333333,4,2,99,78,0,1
42480,255.31914893617,4,2,99,78,1,1
42480,-83.3333333333333,4,2,99,78,0,1
43500,244.897959183673,4,2,99,78,1,1
43500,-83.3333333333333,4,2,99,78,0,1
44480,250,4,2,99,78,1,1
44480,-83.3333333333333,4,2,99,78,0,1
46480,247.422680412371,4,2,99,78,1,1
46480,-83.3333333333333,4,2,99,78,0,1
48460,250,4,2,99,78,1,1
48460,-83.3333333333333,4,2,99,78,0,1
53460,247.933884297521,4,2,99,78,1,1
53460,-83.3333333333333,4,2,99,50,0,0
55194,285.714285714286,4,2,99,50,1,0
55194,-83.3333333333333,4,2,99,35,0,0
55480,250,4,2,99,75,1,1
55480,-90.9090909090909,4,2,99,75,0,1
55542,-90.9090909090909,4,2,99,75,0,0
63271,-90.9090909090909,4,2,99,20,0,0
63355,-90.9090909090909,4,2,99,75,0,0
63396,-90.9090909090909,4,2,99,20,0,0
63480,-90.9090909090909,4,2,99,75,0,1
63542,-90.9090909090909,4,2,99,75,0,0
70917,-90.9090909090909,4,2,99,35,0,0
71480,-125,4,2,99,64,0,0
87480,-153.846153846154,4,2,99,50,0,0
102855,187.5,4,2,99,50,1,0
102948,272.727272727273,4,2,99,50,1,0
102948,-500,4,2,99,64,0,0
103220,260.869565217391,4,2,99,64,1,0
103220,-500,4,2,99,64,0,0
103480,250,4,2,99,78,1,1
103480,-80,4,2,99,78,0,1
105480,244.897959183673,4,2,99,78,1,1
105480,-80,4,2,99,78,0,1
106460,247.422680412371,4,2,99,78,1,1
106460,-80,4,2,99,78,0,1
107449,255.31914893617,4,2,99,78,1,1
107449,-80,4,2,99,78,0,1
109491,244.897959183673,4,2,99,78,1,1
109491,-80,4,2,99,78,0,1
110960,255.31914893617,4,2,99,78,1,1
110960,-80,4,2,99,78,0,1
111470,252.631578947368,4,2,99,78,1,1
111470,-80,4,2,99,78,0,1
112480,250,4,2,99,78,1,1
112480,-80,4,2,99,78,0,1
118980,-80,4,2,99,84,0,1
119480,-1000,4,2,99,50,0,0
119730,-1000,4,2,99,35,0,0
119855,-1000,4,2,99,50,0,0
120105,-1000,4,2,99,35,0,0
120230,-1000,4,2,99,50,0,0
120480,-1000,4,2,99,35,0,0
120605,-1000,4,2,99,50,0,0
120667,-1000,4,2,99,35,0,0
120980,-1000,4,2,99,50,0,0
121105,-1000,4,2,99,35,0,0
121480,-1000,4,2,99,50,0,0
121730,-1000,4,2,99,35,0,0
121855,-1000,4,2,99,50,0,0
122105,-1000,4,2,99,35,0,0
122230,-1000,4,2,99,50,0,0
122480,-1000,4,2,99,35,0,0
122605,-1000,4,2,99,50,0,0
122667,-1000,4,2,99,35,0,0
122855,-1000,4,2,99,50,0,0
123105,-1000,4,2,99,35,0,0
123230,-1000,4,2,99,50,0,0
123730,-1000,4,2,99,35,0,0
123855,-1000,4,2,99,50,0,0
124105,-1000,4,2,99,35,0,0
124230,-1000,4,2,99,50,0,0
124480,-1000,4,2,99,35,0,0
124605,-1000,4,2,99,50,0,0
124667,-1000,4,2,99,35,0,0
124980,-1000,4,2,99,50,0,0
125105,-1000,4,2,99,35,0,0
125480,-1000,4,2,99,50,0,0
125730,-1000,4,2,99,35,0,0
125855,-1000,4,2,99,50,0,0
126105,-1000,4,2,99,35,0,0
126230,-1000,4,2,99,50,0,0
126480,-1000,4,2,99,35,0,0
126959,-1000,4,2,99,50,0,0
127209,-1000,4,2,99,60,0,0
127480,-108.695652173913,4,2,99,75,0,1
127542,-108.695652173913,4,2,99,75,0,0
133480,-250,4,2,99,50,0,0
133605,-250,4,2,99,35,0,0
133855,-250,4,2,99,50,0,0
133980,-250,4,2,99,35,0,0
134230,-250,4,2,99,50,0,0
134355,-250,4,2,99,35,0,0
134480,-250,4,2,99,50,0,0
134667,-250,4,2,99,35,0,0
134855,-250,4,2,99,50,0,0
135105,-250,4,2,99,35,0,0
135230,-250,4,2,99,50,0,0
135480,-166.666666666667,4,2,99,62,0,0
148730,-166.666666666667,4,2,99,66,0,0
148980,-166.666666666667,4,2,99,70,0,0
149230,-166.666666666667,4,2,99,74,0,0
150480,-500,4,2,99,64,0,1
150646,-200,4,2,99,64,0,1
150813,-125,4,2,99,64,0,1
151230,-90.9090909090909,4,2,99,50,0,1
151417,-90.9090909090909,4,2,99,50,0,0
151480,-90.9090909090909,4,2,99,75,0,1
151542,-90.9090909090909,4,2,99,75,0,0
159271,-90.9090909090909,4,2,99,20,0,0
159355,-90.9090909090909,4,2,99,75,0,0
159396,-90.9090909090909,4,2,99,20,0,0
159480,-90.9090909090909,4,2,99,75,0,1
159542,-90.9090909090909,4,2,99,75,0,0
166480,-90.9090909090909,4,2,99,77,0,0
167480,-66.6666666666667,4,2,99,84,0,1
167542,-66.6666666666667,4,2,99,20,0,1
167605,-66.6666666666667,4,2,99,84,0,1
167667,-66.6666666666667,4,2,99,20,0,1
167730,-66.6666666666667,4,2,99,84,0,1
167792,-66.6666666666667,4,2,99,20,0,1
167855,-100,4,2,99,84,0,1
167917,-100,4,2,99,20,0,1
167980,-100,4,2,99,84,0,1
168042,-100,4,2,99,20,0,1
168105,-100,4,2,99,84,0,1
168167,-100,4,2,99,20,0,1
168230,-100,4,2,99,84,0,1
168480,-66.6666666666667,4,2,99,84,0,1
168542,-66.6666666666667,4,2,99,20,0,1
168605,-100,4,2,99,84,0,1
168792,-100,4,2,99,20,0,1
168855,-66.6666666666667,4,2,99,84,0,1
169542,-66.6666666666667,4,2,99,20,0,1
169605,-66.6666666666667,4,2,99,84,0,1
169667,-66.6666666666667,4,2,99,20,0,1
169730,-66.6666666666667,4,2,99,84,0,1
169792,-66.6666666666667,4,2,99,20,0,1
169855,-100,4,2,99,84,0,1
169917,-100,4,2,99,20,0,1
169980,-100,4,2,99,84,0,1
170042,-100,4,2,99,20,0,1
170105,-100,4,2,99,84,0,1
170167,-100,4,2,99,20,0,1
170230,-100,4,2,99,84,0,1
170480,-66.6666666666667,4,2,99,84,0,1
170542,-66.6666666666667,4,2,99,20,0,1
170605,-66.6666666666667,4,2,99,84,0,1
171042,-66.6666666666667,4,2,99,20,0,1
171105,-66.6666666666667,4,2,99,84,0,1
173542,-66.6666666666667,4,2,99,20,0,1
173605,-66.6666666666667,4,2,99,84,0,1
174042,-66.6666666666667,4,2,99,20,0,1
174105,-66.6666666666667,4,2,99,84,0,1
175417,-66.6666666666667,4,2,99,84,0,0
175480,-66.6666666666667,4,2,99,84,0,1
175542,-66.6666666666667,4,2,99,20,0,1
175605,-66.6666666666667,4,2,99,84,0,1
175667,-66.6666666666667,4,2,99,20,0,1
175730,-66.6666666666667,4,2,99,84,0,1
175792,-66.6666666666667,4,2,99,20,0,1
175855,-100,4,2,99,84,0,1
175917,-100,4,2,99,20,0,1
175980,-100,4,2,99,84,0,1
176042,-100,4,2,99,20,0,1
176105,-100,4,2,99,84,0,1
176167,-100,4,2,99,20,0,1
176230,-100,4,2,99,84,0,1
176480,-66.6666666666667,4,2,99,84,0,1
176542,-66.6666666666667,4,2,99,20,0,1
176605,-100,4,2,99,84,0,1
176792,-100,4,2,99,20,0,1
176855,-66.6666666666667,4,2,99,84,0,1
177542,-66.6666666666667,4,2,99,20,0,1
177605,-66.6666666666667,4,2,99,84,0,1
177667,-66.6666666666667,4,2,99,20,0,1
177730,-100,4,2,99,84,0,1
177792,-100,4,2,99,20,0,1
177855,-100,4,2,99,84,0,1
177917,-100,4,2,99,20,0,1
177980,-66.6666666666667,4,2,99,84,0,1
178042,-66.6666666666667,4,2,99,20,0,1
178105,-66.6666666666667,4,2,99,84,0,1
178167,-66.6666666666667,4,2,99,20,0,1
178230,-66.6666666666667,4,2,99,84,0,1
178542,-66.6666666666667,4,2,99,20,0,1
178605,-66.6666666666667,4,2,99,84,0,1
179042,-66.6666666666667,4,2,99,20,0,1
179105,-66.6666666666667,4,2,99,84,0,1
179480,-90.9090909090909,4,2,99,84,0,1
181417,-90.9090909090909,4,2,99,84,0,0
193480,-90.9090909090909,4,2,99,84,0,0

[Colours]
Combo1 : 243,61,61
Combo2 : 155,224,122
Combo3 : 92,218,121
Combo4 : 231,231,228
Combo5 : 213,237,209
Combo6 : 101,190,233
Combo7 : 117,170,236
Combo8 : 240,100,100

[HitObjects]
236,118,520,70,0,P|288:111|340:108,1,105,4|0,1:2|0:0,0:0:0:0:
381,35,764,1,4,0:3:0:0:
157,90,887,2,0,P|104:96|52:99,1,105,0|0,1:0|0:0,0:0:0:0:
12,173,1132,1,4,0:3:0:0:
199,13,1254,2,0,P|251:6|303:3,1,105,0|4,1:0|0:3,0:0:0:0:
483,23,1499,5,0,1:0:0:0:
423,122,1622,1,4,0:3:0:0:
506,103,1744,1,8,0:3:0:0:
366,187,1866,1,0,1:0:0:0:
500,263,1989,1,0,0:3:0:0:
355,294,2111,1,4,0:3:0:0:
439,324,2234,1,0,1:0:0:0:
313,371,2356,1,0,0:0:0:0:
276,266,2480,102,0,P|223:272|171:275,1,105,0|0,1:0|0:0,0:0:0:0:
131,349,2730,1,4,0:3:0:0:
355,294,2855,2,0,P|407:287|459:284,1,105,0|0,1:0|0:0,0:0:0:0:
500,211,3105,1,4,0:3:0:0:
313,371,3230,2,0,P|260:377|208:380,1,105,0|0,1:0|0:0,0:0:0:0:
29,361,3480,5,0,1:0:0:0:
89,262,3605,1,4,0:3:0:0:
6,281,3730,1,8,0:3:0:0:
146,197,3855,1,0,1:0:0:0:
12,121,3980,1,0,0:0:0:0:
157,90,4105,1,4,0:3:0:0:
73,60,4230,1,0,1:0:0:0:
199,13,4355,1,4,0:3:0:0:
236,118,4480,102,0,P|229:170|226:222,1,105,0|0,1:0|0:0,0:0:0:0:
169,283,4730,1,4,0:3:0:0:
315,182,4855,2,0,P|321:129|324:77,1,105,0|0,1:0|0:0,0:0:0:0:
382,17,5105,1,4,0:3:0:0:
157,90,5230,2,0,P|150:142|147:194,1,105,0|0,1:0|0:0,0:0:0:0:
315,308,5480,5,0,1:0:0:0:
184,361,5605,1,4,0:3:0:0:
226,222,5730,1,8,0:3:0:0:
72,172,5855,1,0,1:0:0:0:
263,73,5980,1,0,0:0:0:0:
157,90,6105,1,4,0:3:0:0:
354,26,6230,1,0,1:0:0:0:
196,2,6355,1,0,0:0:0:0:
280,166,6480,69,2,0:0:0:0:
346,110,6605,1,2,0:0:0:0:
346,110,6667,1,2,0:0:0:0:
346,110,6730,1,0,0:0:0:0:
363,186,6855,1,2,0:0:0:0:
443,167,6980,1,2,3:2:0:0:
443,167,7105,1,0,0:0:0:0:
422,246,7230,1,2,0:0:0:0:
502,263,7355,1,2,0:0:0:0:
351,371,7490,86,0,P|353:322|340:252,1,84,6|0,1:2|0:0,0:0:0:0:
315,125,7738,2,0,P|313:174|326:244,1,84,2|0,0:0|0:0,0:0:0:0:
267,281,7987,1,2,1:2:0:0:
233,201,8112,1,2,0:0:0:0:
180,270,8236,1,0,0:0:0:0:
100,246,8361,1,2,0:0:0:0:
113,337,8485,6,0,P|166:346|226:369,1,84,2|2,1:2|0:0,0:0:0:0:
159,173,8734,2,0,P|105:163|45:140,1,84,0|2,0:0|0:0,0:0:0:0:
25,219,8983,2,0,P|-8:152|62:74,1,168,2|2,1:2|0:0,0:0:0:0:
11,6,9357,1,0,0:0:0:0:
204,102,9480,102,0,P|199:59|199:-5,1,84,2|0,1:2|0:0,0:0:0:0:
122,88,9730,1,2,0:0:0:0:
159,173,9855,1,2,0:0:0:0:
283,26,9980,5,2,1:2:0:0:
240,182,10105,1,2,0:0:0:0:
288,107,10230,1,0,0:0:0:0:
331,245,10355,1,2,0:0:0:0:
384,15,10480,101,2,1:2:0:0:
347,165,10605,1,2,0:0:0:0:
397,94,10730,1,0,0:0:0:0:
421,227,10855,1,2,0:0:0:0:
512,118,10980,1,2,1:2:0:0:
507,195,11105,1,2,0:0:0:0:
434,68,11230,2,0,P|439:110|441:152,1,84,2|0,0:0|0:0,0:0:0:0:
331,245,11480,6,0,P|329:294|342:364,1,84,6|0,1:2|0:0,0:0:0:0:
185,378,11730,2,0,P|187:329|174:259,1,84,2|0,0:0|0:0,0:0:0:0:
251,236,11980,1,2,1:2:0:0:
172,200,12105,1,2,0:0:0:0:
219,126,12230,1,0,0:0:0:0:
133,122,12355,1,2,0:0:0:0:
143,39,12480,102,0,P|102:45|48:49,1,84,2|2,1:2|0:0,0:0:0:0:
6,206,12730,2,0,P|47:200|101:196,1,84,0|2,0:0|0:0,0:0:0:0:
107,281,12980,2,0,P|188:295|228:369,1,168,2|2,1:2|0:0,0:0:0:0:
305,328,13355,1,0,0:0:0:0:
172,200,13480,6,0,P|178:159|182:105,1,84,2|0,1:2|0:0,0:0:0:0:
292,37,13730,1,2,0:0:0:0:
213,1,13855,1,2,0:0:0:0:
264,155,13980,2,0,P|305:149|359:145,1,84,2|0,1:2|0:0,0:0:0:0:
470,210,14230,1,2,0:0:0:0:
494,127,14355,1,2,0:0:0:0:
384,222,14480,101,2,1:2:0:0:
429,337,14605,1,2,0:0:0:0:
356,302,14730,2,0,P|314:310|272:313,1,84,2|2,0:0|0:0,0:0:0:0:
112,187,14980,2,0,P|153:178|195:175,1,84,2|0,1:2|0:0,0:0:0:0:
317,28,15230,5,2,0:0:0:0:
279,183,15355,1,2,0:0:0:0:
161,13,15480,102,0,P|159:62|172:132,1,84,6|0,1:2|0:0,0:0:0:0:
196,258,15730,2,0,P|198:209|185:138,1,84,2|0,0:0|0:0,0:0:0:0:
245,103,15980,1,2,1:2:0:0:
279,183,16105,1,2,0:0:0:0:
332,114,16230,1,0,0:0:0:0:
412,138,16355,1,2,0:0:0:0:
399,47,16480,6,0,P|345:37|285:14,1,84,2|2,1:2|0:0,0:0:0:0:
353,211,16730,2,0,P|406:220|466:243,1,84,0|2,0:0|0:0,0:0:0:0:
487,165,16980,2,0,P|520:232|450:310,1,168,2|2,1:2|0:0,0:0:0:0:
501,378,17355,1,0,0:0:0:0:
308,282,17480,102,0,P|313:325|313:389,1,84,2|0,1:2|0:0,0:0:0:0:
390,296,17730,1,2,0:0:0:0:
353,211,17855,1,2,0:0:0:0:
229,358,17980,5,2,1:2:0:0:
272,202,18105,1,2,0:0:0:0:
224,277,18230,1,0,0:0:0:0:
181,139,18355,1,2,0:0:0:0:
128,369,18480,101,2,1:2:0:0:
165,219,18605,1,2,0:0:0:0:
115,290,18730,1,0,0:0:0:0:
91,157,18855,1,2,0:0:0:0:
0,266,18980,1,2,1:2:0:0:
5,189,19105,1,2,0:0:0:0:
77,315,19230,2,0,P|72:273|70:232,1,84,2|0,0:0|0:0,0:0:0:0:
181,139,19480,6,0,P|183:90|170:20,1,84,6|0,1:2|0:0,0:0:0:0:
327,6,19730,2,0,P|325:55|338:125,1,84,2|0,0:0|0:0,0:0:0:0:
261,148,19980,1,2,1:2:0:0:
340,184,20105,1,2,0:0:0:0:
293,258,20230,1,0,0:0:0:0:
379,262,20355,1,2,0:0:0:0:
369,345,20480,102,0,P|410:339|464:335,1,84,2|2,1:2|0:0,0:0:0:0:
506,178,20730,2,0,P|465:184|411:188,1,84,0|2,0:0|0:0,0:0:0:0:
405,103,20980,2,0,P|324:89|284:15,1,168,2|2,1:2|0:0,0:0:0:0:
207,56,21355,1,0,0:0:0:0:
340,184,21480,6,0,P|334:225|330:279,1,84,2|0,1:2|0:0,0:0:0:0:
220,347,21730,1,2,0:0:0:0:
299,383,21855,1,2,0:0:0:0:
248,229,21980,2,0,P|207:235|153:239,1,84,2|0,1:2|0:0,0:0:0:0:
42,174,22230,1,2,0:0:0:0:
18,257,22355,1,2,0:0:0:0:
128,162,22480,101,2,1:2:0:0:
83,47,22605,1,2,0:0:0:0:
156,82,22730,2,0,P|198:74|240:71,1,84,2|2,0:0|0:0,0:0:0:0:
400,197,22980,2,0,P|359:206|317:209,1,84,2|0,1:2|0:0,0:0:0:0:
195,356,23230,5,2,0:0:0:0:
233,201,23355,1,2,0:0:0:0:
351,371,23480,22,0,P|413:359|503:350,1,136.499993751526,6|0,3:2|0:0,0:0:0:0:
512,274,23855,1,2,0:0:0:0:
378,203,23980,1,0,3:0:0:0:
378,203,24105,2,0,P|316:215|226:224,1,136.499993751526,2|2,0:0|0:0,0:0:0:0:
180,160,24480,70,0,P|186:126|189:92,1,68.2499968757631,2|0,3:2|0:0,0:0:0:0:
129,35,24730,1,2,0:0:0:0:
129,35,24855,1,2,0:0:0:0:
243,223,24980,2,0,P|231:285|222:375,1,136.499993751526,2|0,3:2|0:0,0:0:0:0:
69,384,25355,37,2,0:0:0:0:
21,316,25480,2,0,P|27:282|30:248,1,68.2499968757631,6|0,3:2|0:0,0:0:0:0:
93,190,25730,1,2,0:0:0:0:
13,169,25855,1,2,0:0:0:0:
189,92,25980,1,0,3:0:0:0:
189,92,26105,2,0,P|177:154|168:244,1,136.499993751526,2|2,0:0|0:0,0:0:0:0:
237,278,26480,70,0,P|270:271|304:268,1,68.2499968757631,2|0,3:2|0:0,0:0:0:0:
390,288,26730,1,2,0:0:0:0:
334,351,26855,1,2,0:0:0:0:
168,225,26980,2,0,P|101:238|34:246,1,136.499993751526,2|0,3:2|0:0,0:0:0:0:
5,322,27355,1,0,0:0:0:0:
168,225,27480,38,0,P|155:158|148:91,1,136.499993751526,6|2,3:2|0:0,0:0:0:0:
82,41,27855,1,2,0:0:0:0:
244,170,27980,1,0,3:0:0:0:
244,170,28105,2,0,P|256:237|264:304,1,136.499993751526,2|2,0:0|0:0,0:0:0:0:
206,370,28480,70,0,P|172:363|138:360,1,68.2499968757631,2|0,3:2|0:0,0:0:0:0:
69,322,28730,1,2,0:0:0:0:
69,322,28855,1,2,0:0:0:0:
264,304,28980,2,0,P|331:316|398:324,2,136.499993751526,2|2|6,3:2|0:0|3:2,0:0:0:0:
292,95,29605,38,0,P|359:102|426:115,1,136.499993751526,2|2,0:0|0:0,0:0:0:0:
483,180,29980,1,0,3:0:0:0:
510,98,30105,1,0,0:0:0:0:
400,194,30230,1,2,0:0:0:0:
456,262,30355,1,2,0:0:0:0:
426,115,30480,85,2,3:2:0:0:
425,106,30542,1,2,0:0:0:0:
424,97,30605,1,2,0:0:0:0:
424,89,30667,1,2,0:0:0:0:
422,81,30730,1,2,0:0:0:0:
421,72,30792,1,2,0:0:0:0:
419,64,30855,1,2,0:0:0:0:
418,55,30917,1,2,0:0:0:0:
416,47,30980,1,2,3:2:0:0:
416,47,31480,22,0,P|349:60|281:67,1,136.499993751526,6|2,3:2|0:0,0:0:0:0:
212,9,31855,1,2,0:0:0:0:
88,154,31980,1,0,3:0:0:0:
88,154,32105,2,0,P|154:140|222:133,1,136.499993751526,2|2,0:0|0:0,0:0:0:0:
281,67,32480,70,0,P|283:33|291:0,1,68.2499968757631,2|0,3:2|0:0,0:0:0:0:
372,47,32730,1,2,0:0:0:0:
372,47,32855,1,2,0:0:0:0:
222,133,32980,2,0,P|214:200|201:267,1,136.499993751526,2|0,3:2|0:0,0:0:0:0:
333,357,33355,37,2,0:0:0:0:
401,301,33480,2,0,P|403:267|411:233,1,68.2499968757631,6|0,3:2|0:0,0:0:0:0:
398,147,33730,1,2,0:0:0:0:
481,114,33855,1,2,0:0:0:0:
328,18,33980,1,2,3:2:0:0:
328,18,34105,2,0,P|320:85|307:152,1,136.499993751526,2|2,0:0|0:0,0:0:0:0:
240,213,34480,70,0,P|206:215|172:223,1,68.2499968757631,2|0,3:2|0:0,0:0:0:0:
91,203,34730,1,2,0:0:0:0:
114,285,34855,1,2,0:0:0:0:
307,152,34980,2,0,P|374:144|441:131,1,136.499993751526,2|0,3:2|0:0,0:0:0:0:
494,71,35355,1,2,0:0:0:0:
307,152,35480,38,0,P|314:219|327:286,1,136.499993751526,6|2,3:2|0:0,0:0:0:0:
401,229,35855,1,0,0:0:0:0:
222,153,35980,1,2,3:2:0:0:
222,153,36105,2,0,P|219:119|211:85,1,68.2499968757631,2|0,0:0|0:0,0:0:0:0:
282,1,36355,69,0,0:0:0:0:
282,1,36480,2,0,P|284:36|292:69,1,68.2499968757631,0|2,3:0|0:0,0:0:0:0:
139,132,36730,2,0,P|72:118|4:111,2,136.499993751526,2|0|2,0:0|3:0|0:0,0:0:0:0:
213,238,37355,37,2,0:0:0:0:
304,192,37480,1,6,3:2:0:0:
289,272,37605,1,2,0:0:0:0:
378,301,37730,1,2,0:0:0:0:
245,342,37855,1,0,0:0:0:0:
333,376,37980,1,2,3:2:0:0:
333,376,38105,2,0,P|325:308|312:241,1,136.499993751526,2|2,0:0|0:0,0:0:0:0:
380,138,38480,69,2,3:2:0:0:
380,146,38542,1,2,0:0:0:0:
381,155,38605,1,2,0:0:0:0:
381,163,38667,1,2,0:0:0:0:
383,171,38730,1,2,0:0:0:0:
384,180,38792,1,2,0:0:0:0:
386,188,38855,1,2,0:0:0:0:
387,197,38917,1,2,0:0:0:0:
389,205,38980,2,0,P|456:212|520:228,1,102.374995313645,2|0,3:2|0:0,0:0:0:0:
316,85,39230,86,0,P|270:81|238:74,1,63,2|0,0:3|0:0,0:0:0:0:
8,240,39480,85,6,1:2:0:0:
265,337,39607,1,0,0:0:0:0:
443,137,39735,1,4,0:3:0:0:
193,9,39862,5,8,0:3:0:0:
104,144,39990,1,0,0:0:0:0:
196,276,40118,1,8,0:3:0:0:
340,58,40245,101,0,1:0:0:0:
253,77,40373,1,4,0:3:0:0:
215,283,40500,5,6,1:2:0:0:
354,151,40625,1,0,0:0:0:0:
169,97,40750,1,4,0:3:0:0:
239,258,40875,101,8,0:3:0:0:
319,142,41000,1,0,0:0:0:0:
179,132,41125,1,4,0:3:0:0:
130,317,41250,5,0,1:0:0:0:
247,175,41375,101,0,0:0:0:0:
364,34,41500,5,4,1:2:0:0:
103,35,41622,1,0,0:0:0:0:
58,294,41744,1,4,0:3:0:0:
344,337,41867,101,8,0:3:0:0:
395,179,41989,1,0,0:0:0:0:
286,68,42112,1,8,0:3:0:0:
116,363,42234,5,0,1:0:0:0:
198,339,42357,1,4,0:3:0:0:
294,97,42480,101,6,1:2:0:0:
121,113,42607,1,0,0:0:0:0:
138,282,42735,1,4,0:3:0:0:
313,266,42862,1,8,0:3:0:0:
202,37,42990,5,0,0:0:0:0:
55,199,43118,1,4,0:3:0:0:
230,336,43245,1,0,1:0:0:0:
367,174,43373,1,0,0:0:0:0:
111,0,43500,101,6,1:2:0:0:
111,0,43744,1,8,0:3:0:0:
225,116,43867,1,8,0:3:0:0:
39,89,43989,1,4,0:3:0:0:
202,193,44112,1,8,0:3:0:0:
1,257,44234,1,0,1:0:0:0:
225,371,44357,1,4,0:3:0:0:
41,331,44480,5,6,1:2:0:0:
253,284,44605,1,4,0:3:0:0:
75,225,44730,1,4,0:3:0:0:
293,172,44855,1,8,0:3:0:0:
293,172,45230,101,8,1:3:0:0:
225,116,45355,1,4,0:3:0:0:
358,113,45480,5,6,1:2:0:0:
154,164,45605,1,4,0:3:0:0:
295,44,45730,1,4,0:3:0:0:
329,246,45855,101,4,1:2:0:0:
140,83,45980,1,0,0:3:0:0:
363,0,46105,1,4,0:3:0:0:
266,308,46230,5,4,0:0:0:0:
222,229,46355,1,4,0:3:0:0:
293,172,46480,1,4,0:3:0:0:
34,305,46603,101,4,1:2:0:0:
282,384,46727,1,4,0:3:0:0:
439,181,46851,1,4,0:3:0:0:
111,26,46974,6,0,L|157:116,1,62.9999980773926,4|0,1:2|0:0,0:0:0:0:
222,229,47098,1,0,0:0:0:0:
85,139,47222,101,4,1:2:0:0:
293,172,47345,1,4,1:3:0:0:
86,372,47469,5,4,1:2:0:0:
5,146,47593,1,0,0:0:0:0:
208,2,47717,1,4,0:3:0:0:
390,261,47840,101,8,0:3:0:0:
282,384,47964,1,0,0:0:0:0:
135,306,48088,1,4,0:3:0:0:
299,54,48211,5,0,1:0:0:0:
279,158,48335,1,4,0:3:0:0:
81,218,48460,101,6,1:2:0:0:
195,91,48585,1,0,0:0:0:0:
253,251,48710,1,4,0:3:0:0:
90,194,48835,5,8,0:3:0:0:
206,121,48960,1,0,0:0:0:0:
218,266,49085,1,4,0:3:0:0:
7,158,49210,101,0,1:0:0:0:
174,191,49335,5,0,0:0:0:0:
345,229,49460,101,6,1:2:0:0:
90,130,49585,1,0,0:0:0:0:
298,313,49710,1,4,0:3:0:0:
165,64,49835,1,8,0:3:0:0:
206,345,49960,1,0,0:0:0:0:
262,69,50085,1,4,0:3:0:0:
120,308,50210,1,0,1:0:0:0:
342,131,50335,1,4,0:3:0:0:
75,221,50460,5,6,1:2:0:0:
298,313,50585,1,0,0:0:0:0:
444,123,50710,1,4,0:3:0:0:
411,35,50835,101,8,0:3:0:0:
319,36,50960,5,0,0:0:0:0:
226,253,51085,1,4,0:3:0:0:
431,371,51210,1,0,1:0:0:0:
511,241,51335,101,0,0:0:0:0:
369,181,51460,5,6,1:2:0:0:
369,181,51710,101,4,0:3:0:0:
369,181,51960,5,4,0:3:0:0:
153,236,52085,1,4,0:3:0:0:
310,122,52210,1,0,1:0:0:0:
104,168,52335,1,4,0:3:0:0:
342,51,52460,101,6,1:2:0:0:
118,309,52585,1,4,0:3:0:0:
118,309,52835,5,8,0:3:0:0:
118,309,53085,101,4,0:3:0:0:
426,253,53210,1,0,1:0:0:0:
223,14,53335,1,0,0:0:0:0:
256,192,53460,85,6,1:2:0:0:
256,192,55194,5,2,0:3:0:0:
256,192,55480,5,6,1:2:0:0:
92,113,55605,1,4,0:3:0:0:
0,271,55730,1,12,0:3:0:0:
162,365,55855,1,4,0:3:0:0:
322,131,55980,5,4,1:2:0:0:
180,245,56105,1,4,0:3:0:0:
128,242,56167,1,2,0:3:0:0:
109,193,56230,1,12,0:3:0:0:
27,162,56355,1,6,0:3:0:0:
135,33,56480,101,4,1:2:0:0:
273,117,56605,1,4,0:3:0:0:
322,131,56667,1,2,0:3:0:0:
357,92,56730,1,12,0:3:0:0:
428,33,56855,1,6,0:3:0:0:
368,313,56980,5,4,1:2:0:0:
459,140,57105,1,4,0:3:0:0:
428,368,57230,1,12,0:3:0:0:
382,100,57355,1,4,0:3:0:0:
497,282,57480,101,6,1:2:0:0:
346,164,57605,1,4,0:3:0:0:
168,199,57730,1,12,0:3:0:0:
110,375,57855,1,4,0:3:0:0:
411,221,57980,5,4,1:2:0:0:
274,206,58105,1,4,0:3:0:0:
236,244,58167,1,2,0:3:0:0:
254,297,58230,1,12,0:3:0:0:
200,380,58355,1,6,0:3:0:0:
154,220,58480,101,4,1:2:0:0:
11,145,58605,1,12,0:3:0:0:
33,94,58667,1,2,0:3:0:0:
86,94,58730,1,4,0:3:0:0:
175,59,58855,1,6,0:3:0:0:
65,215,58980,5,4,1:2:0:0:
106,13,59105,1,0,1:0:0:0:
264,338,59230,5,10,1:3:0:0:
145,173,59355,1,10,1:3:0:0:
25,10,59480,1,6,1:2:0:0:
233,132,59605,85,4,0:3:0:0:
143,260,59730,1,14,0:3:0:0:
0,210,59855,1,6,0:3:0:0:
114,18,59980,5,4,1:2:0:0:
162,89,60105,1,4,0:3:0:0:
184,332,60230,101,14,0:3:0:0:
305,173,60355,5,6,0:3:0:0:
490,244,60480,101,4,1:2:0:0:
470,324,60605,1,6,0:3:0:0:
221,155,60730,5,12,0:3:0:0:
266,356,60855,1,6,0:3:0:0:
437,129,60980,101,4,1:2:0:0:
417,210,61105,1,6,0:3:0:0:
263,12,61230,5,12,0:3:0:0:
281,90,61355,1,6,0:3:0:0:
511,167,61480,101,4,1:2:0:0:
365,68,61605,1,4,0:3:0:0:
240,197,61730,1,12,0:3:0:0:
396,296,61855,1,6,0:3:0:0:
508,83,61980,5,4,1:2:0:0:
508,83,62105,1,6,0:3:0:0:
401,51,62230,101,14,0:3:0:0:
401,51,62355,1,4,0:3:0:0:
293,18,62480,53,2,1:0:0:0:
82,155,62646,5,2,1:0:0:0:
219,366,62813,101,2,1:0:0:0:
424,200,62980,38,0,P|425:215|430:229,1,28.8750008811951,2|0,1:0|0:0,0:0:0:0:
291,231,63105,2,0,P|295:244|297:259,1,28.8750008811951,2|0,1:3|0:0,0:0:0:0:
510,234,63230,70,0,P|506:247|506:262,1,28.8750008811951,10|0,1:3|0:0,0:0:0:0:
216,195,63355,2,0,P|216:210|212:224,1,28.8750008811951,10|0,1:3|0:0,0:0:0:0:
436,314,63480,53,6,1:2:0:0:
250,329,63605,1,4,0:3:0:0:
141,164,63730,1,12,0:3:0:0:
258,10,63855,1,4,0:3:0:0:
368,240,63980,5,4,1:2:0:0:
172,328,64105,1,4,0:3:0:0:
171,281,64167,1,2,0:3:0:0:
134,250,64230,1,12,0:3:0:0:
55,183,64355,1,4,0:3:0:0:
144,27,64480,101,4,1:2:0:0:
299,93,64605,1,12,0:3:0:0:
338,66,64667,1,2,0:3:0:0:
348,21,64730,1,4,0:3:0:0:
437,5,64855,1,4,0:3:0:0:
345,167,64980,5,4,1:2:0:0:
489,307,65105,1,4,0:3:0:0:
417,98,65230,1,12,0:3:0:0:
432,373,65355,1,4,0:3:0:0:
508,80,65480,101,6,1:2:0:0:
334,12,65605,1,4,0:3:0:0:
216,157,65730,1,12,0:3:0:0:
317,315,65855,1,4,0:3:0:0:
477,165,65980,5,4,1:2:0:0:
383,73,66105,1,4,0:3:0:0:
349,116,66167,1,2,0:3:0:0:
295,109,66230,1,12,0:3:0:0:
212,66,66355,1,4,0:3:0:0:
184,243,66480,101,4,1:2:0:0:
52,74,66605,1,12,0:3:0:0:
3,97,66667,1,2,0:3:0:0:
3,150,66730,1,4,0:3:0:0:
68,206,66855,1,4,0:3:0:0:
216,157,66980,5,4,1:2:0:0:
130,33,67105,1,0,1:0:0:0:
84,292,67230,5,10,0:3:0:0:
281,242,67355,1,14,0:3:0:0:
478,192,67480,1,6,1:2:0:0:
478,192,67605,85,4,0:3:0:0:
447,258,67730,5,14,0:3:0:0:
291,222,67855,1,6,0:3:0:0:
135,186,67980,1,4,1:2:0:0:
135,186,68105,53,4,0:3:0:0:
171,265,68230,101,14,0:3:0:0:
301,202,68355,1,6,0:3:0:0:
431,139,68480,1,4,1:2:0:0:
374,85,68605,37,6,0:3:0:0:
446,51,68730,69,12,0:3:0:0:
329,23,68855,1,6,0:3:0:0:
262,125,68980,1,4,1:2:0:0:
355,253,69105,5,4,0:3:0:0:
499,190,69230,37,14,0:3:0:0:
473,120,69355,1,6,0:3:0:0:
284,278,69480,1,4,1:2:0:0:
304,351,69605,1,4,0:3:0:0:
478,266,69730,5,14,0:3:0:0:
301,202,69855,1,4,0:3:0:0:
189,379,69980,1,4,1:2:0:0:
379,326,70105,1,4,0:3:0:0:
224,160,70230,6,0,P|224:188|217:241,1,57.7500017623902,14|4,0:3|0:3,0:0:0:0:
379,245,70355,2,0,P|378:216|386:164,1,57.7500017623902,4|4,0:3|0:3,0:0:0:0:
301,202,70917,53,2,0:0:0:0:
301,202,71042,1,2,0:0:0:0:
301,202,71480,86,0,P|299:153|312:83,1,84,6|0,1:2|0:0,0:0:0:0:
226,7,71730,2,0,P|228:56|215:126,1,84,2|0,0:0|0:0,0:0:0:0:
146,125,71980,1,2,1:2:0:0:
214,178,72105,1,2,0:0:0:0:
136,214,72230,1,0,0:0:0:0:
173,293,72355,1,2,0:0:0:0:
88,285,72480,6,0,P|34:290|-28:307,1,84,2|2,1:2|0:0,0:0:0:0:
62,136,72730,2,0,P|116:131|178:114,1,84,0|2,0:0|0:0,0:0:0:0:
173,40,72980,2,0,P|228:98|214:178,1,168,2|2,1:2|0:0,0:0:0:0:
283,225,73355,1,0,0:0:0:0:
428,204,73480,102,0,P|429:162|434:120,1,84,2|0,1:2|0:0,0:0:0:0:
467,281,73730,1,2,0:0:0:0:
512,212,73855,1,2,0:0:0:0:
393,317,73980,5,2,1:2:0:0:
347,165,74105,1,2,0:0:0:0:
283,225,74230,1,0,0:0:0:0:
326,81,74355,1,2,0:0:0:0:
217,282,74480,101,2,1:2:0:0:
164,163,74605,1,2,0:0:0:0:
132,243,74730,1,0,0:0:0:0:
149,85,74855,1,2,0:0:0:0:
32,193,74980,1,2,1:2:0:0:
0,123,75105,1,2,0:0:0:0:
81,43,75230,2,0,P|75:84|73:126,1,84,2|0,0:0|0:0,0:0:0:0:
217,282,75480,6,0,P|221:323|219:365,1,84,6|0,1:2|0:0,0:0:0:0:
364,264,75730,2,0,P|359:222|361:180,1,84,2|0,0:0|0:0,0:0:0:0:
348,100,75980,1,2,1:2:0:0:
287,155,76105,1,2,0:0:0:0:
272,74,76230,1,0,0:0:0:0:
198,100,76355,1,2,0:0:0:0:
208,21,76480,102,0,P|166:27|124:30,1,84,2|2,1:2|0:0,0:0:0:0:
125,191,76730,2,0,P|166:184|208:181,1,84,0|2,0:0|0:0,0:0:0:0:
287,155,76980,2,0,P|339:202|328:293,1,168,2|2,1:2|0:0,0:0:0:0:
373,365,77355,1,0,0:0:0:0:
251,339,77480,6,0,P|247:297|241:255,1,84,2|0,1:2|0:0,0:0:0:0:
287,155,77730,1,2,0:0:0:0:
221,101,77855,1,2,0:0:0:0:
293,7,77980,2,0,P|334:13|388:17,1,84,2|0,1:2|0:0,0:0:0:0:
460,120,78230,1,2,0:0:0:0:
512,53,78355,1,2,0:0:0:0:
382,98,78480,101,2,1:2:0:0:
436,242,78605,1,2,0:0:0:0:
375,183,78730,2,0,P|333:175|291:172,1,84,2|2,0:0|0:0,0:0:0:0:
138,89,78980,2,0,P|179:98|221:101,1,84,2|0,1:2|0:0,0:0:0:0:
111,246,79230,5,2,0:0:0:0:
57,55,79355,1,2,0:0:0:0:
211,182,79480,102,0,P|213:231|200:301,1,84,6|0,1:2|0:0,0:0:0:0:
286,377,79730,2,0,P|284:328|297:258,1,84,2|0,0:0|0:0,0:0:0:0:
366,259,79980,1,2,1:2:0:0:
298,206,80105,1,2,0:0:0:0:
376,170,80230,1,0,0:0:0:0:
339,91,80355,1,2,0:0:0:0:
424,99,80480,6,0,P|478:94|540:77,1,84,2|2,1:2|0:0,0:0:0:0:
450,248,80730,2,0,P|396:253|334:270,1,84,0|2,0:0|0:0,0:0:0:0:
338,343,80980,2,0,P|283:285|298:206,1,168,2|2,1:2|0:0,0:0:0:0:
229,159,81355,1,0,0:0:0:0:
84,180,81480,102,0,P|82:221|77:263,1,84,2|0,1:2|0:0,0:0:0:0:
45,103,81730,1,2,0:0:0:0:
0,172,81855,1,2,0:0:0:0:
119,67,81980,5,2,1:2:0:0:
165,219,82105,1,2,0:0:0:0:
229,159,82230,1,0,0:0:0:0:
186,303,82355,1,2,0:0:0:0:
295,102,82480,101,2,1:2:0:0:
348,221,82605,1,2,0:0:0:0:
380,141,82730,1,0,0:0:0:0:
363,299,82855,1,2,0:0:0:0:
480,191,82980,1,2,1:2:0:0:
512,261,83105,1,2,0:0:0:0:
431,341,83230,2,0,P|436:299|438:257,1,84,2|0,0:0|0:0,0:0:0:0:
295,102,83480,6,0,P|290:60|292:18,1,84,6|0,1:2|0:0,0:0:0:0:
148,120,83730,2,0,P|152:161|150:203,1,84,2|0,0:0|0:0,0:0:0:0:
164,284,83980,1,2,1:2:0:0:
225,229,84105,1,2,0:0:0:0:
240,310,84230,1,0,0:0:0:0:
314,284,84355,1,2,0:0:0:0:
304,363,84480,102,0,P|345:356|387:353,1,84,2|2,1:2|0:0,0:0:0:0:
387,193,84730,2,0,P|345:199|303:202,1,84,0|2,0:0|0:0,0:0:0:0:
225,229,84980,2,0,P|173:182|184:91,1,168,2|2,1:2|0:0,0:0:0:0:
139,19,85355,1,0,0:0:0:0:
261,45,85480,6,0,P|264:86|270:128,1,84,2|0,1:2|0:0,0:0:0:0:
225,229,85730,1,2,0:0:0:0:
291,283,85855,1,2,0:0:0:0:
219,377,85980,2,0,P|178:371|124:367,1,84,2|0,1:2|0:0,0:0:0:0:
52,264,86230,1,2,0:0:0:0:
0,331,86355,1,2,0:0:0:0:
130,286,86480,101,2,1:2:0:0:
76,142,86605,1,2,0:0:0:0:
137,201,86730,2,0,P|179:209|221:212,1,84,2|2,0:0|0:0,0:0:0:0:
374,295,86980,2,0,P|333:286|291:283,1,84,2|0,1:2|0:0,0:0:0:0:
401,138,87230,5,2,0:0:0:0:
455,329,87355,1,2,0:0:0:0:
301,202,87480,22,0,P|313:140|322:50,1,136.499993751526,6|0,3:2|0:0,0:0:0:0:
397,32,87855,1,2,0:0:0:0:
475,194,87980,1,0,3:0:0:0:
475,194,88105,2,0,P|463:256|454:346,1,136.499993751526,2|2,0:0|0:0,0:0:0:0:
385,376,88480,70,0,P|351:379|317:384,1,68.2499968757631,2|0,3:2|0:0,0:0:0:0:
236,257,88730,2,0,P|174:269|84:278,2,136.499993751526,2|0|0,0:0|3:2|0:0,0:0:0:0:
84,361,89355,37,2,0:0:0:0:
15,303,89480,2,0,P|21:269|24:235,1,68.2499968757631,6|0,3:2|0:0,0:0:0:0:
200,171,89730,1,2,0:0:0:0:
121,142,89855,2,0,P|109:204|100:294,1,136.499993751526,2|2,0:0|0:0,0:0:0:0:
187,256,90230,1,2,0:0:0:0:
171,339,90355,1,2,0:0:0:0:
23,235,90480,70,0,P|35:173|44:83,1,136.499993751526,2|2,3:2|0:0,0:0:0:0:
116,57,90855,1,2,0:0:0:0:
279,182,90980,2,0,P|266:249|258:316,1,136.499993751526,2|0,3:2|0:0,0:0:0:0:
171,339,91355,1,0,0:0:0:0:
279,182,91480,38,0,P|346:174|413:161,1,136.499993751526,6|2,3:2|0:0,0:0:0:0:
490,201,91855,1,2,0:0:0:0:
392,296,91980,1,0,3:0:0:0:
392,296,92105,2,0,P|324:304|257:316,1,136.499993751526,2|2,0:0|0:0,0:0:0:0:
186,258,92480,70,0,P|193:224|196:190,1,68.2499968757631,2|0,3:2|0:0,0:0:0:0:
299,47,92730,2,0,P|287:114|279:181,2,136.499993751526,2|0|0,0:0|3:0|0:0,0:0:0:0:
227,0,93355,1,0,0:0:0:0:
124,140,93480,37,6,3:2:0:0:
66,82,93605,2,0,P|79:148|86:216,1,136.499993751526,2|2,0:0|0:0,0:0:0:0:
123,352,93980,1,0,3:0:0:0:
157,267,94105,1,0,0:0:0:0:
0,224,94230,1,2,0:0:0:0:
59,292,94355,1,2,0:0:0:0:
195,190,94480,69,2,3:2:0:0:
264,253,94605,2,0,P|331:260|398:273,1,136.499993751526,2|0,0:0|0:0,0:0:0:0:
273,150,94980,2,0,P|205:142|138:129,1,136.499993751526,2|0,3:2|0:0,0:0:0:0:
61,172,95355,1,0,0:0:0:0:
273,150,95480,38,0,P|260:83|253:15,1,136.499993751526,6|2,3:2|0:0,0:0:0:0:
175,52,95855,1,2,0:0:0:0:
136,219,95980,1,0,3:0:0:0:
136,219,96105,2,0,P|150:285|157:353,1,136.499993751526,2|2,0:0|0:0,0:0:0:0:
71,320,96480,70,0,P|37:311|3:309,1,68.2499968757631,2|0,3:2|0:0,0:0:0:0:
136,219,96730,2,0,P|202:232|270:240,2,136.499993751526,2|0|2,0:0|3:0|0:0,0:0:0:0:
346,293,97355,37,2,0:0:0:0:
420,252,97480,1,6,3:2:0:0:
348,207,97605,2,0,P|356:140|369:73,1,136.499993751526,2|2,0:0|0:0,0:0:0:0:
270,240,97980,1,2,3:2:0:0:
270,240,98105,2,0,P|262:307|249:374,1,136.499993751526,2|2,0:0|0:0,0:0:0:0:
346,293,98480,70,0,P|379:285|413:283,1,68.2499968757631,2|0,3:2|0:0,0:0:0:0:
273,152,98730,2,0,P|206:165|138:173,2,136.499993751526,2|0|0,0:0|3:0|0:0,0:0:0:0:
26,203,99355,37,2,0:0:0:0:
98,240,99480,2,0,P|105:172|118:105,1,136.499993751526,6|2,3:2|0:0,0:0:0:0:
80,24,99855,1,0,0:0:0:0:
208,117,99980,1,2,3:2:0:0:
208,117,100105,2,0,P|200:83|197:49,1,68.2499968757631,2|0,0:0|0:0,0:0:0:0:
277,8,100355,2,0,P|284:41|287:75,1,68.2499968757631,2|0,0:0|3:0,0:0:0:0:
348,207,100605,69,2,0:0:0:0:
348,207,100730,2,0,P|415:193|483:186,2,136.499993751526,2|0|2,0:0|3:0|0:0,0:0:0:0:
211,243,101355,37,2,0:0:0:0:
274,162,101480,1,6,3:2:0:0:
132,214,101605,1,2,0:0:0:0:
106,59,101730,1,2,0:0:0:0:
73,275,101855,1,0,0:0:0:0:
0,156,101980,1,2,3:2:0:0:
0,156,102105,2,0,P|68:148|135:135,1,136.499993751526,2|2,0:0|0:0,0:0:0:0:
281,307,102480,69,2,3:2:0:0:
281,307,102605,2,0,P|213:315|146:328,1,136.499993751526,2|2,0:0|0:0,0:0:0:0:
313,105,102948,85,4,0:3:0:0:
313,105,103016,1,4,0:3:0:0:
313,105,103084,1,4,0:3:0:0:
313,105,103152,1,4,0:3:0:0:
313,105,103220,2,0,L|319:139,1,31.5,2|0,0:3|0:0,0:0:0:0:
77,272,103480,85,6,1:2:0:0:
334,369,103605,1,0,0:0:0:0:
512,169,103730,1,4,0:3:0:0:
310,14,103855,5,8,0:3:0:0:
237,145,103980,1,0,0:0:0:0:
313,281,104105,1,8,0:3:0:0:
462,96,104230,101,0,1:0:0:0:
377,70,104355,1,4,0:3:0:0:
241,229,104480,5,6,1:2:0:0:
428,184,104605,1,0,0:0:0:0:
295,45,104730,1,4,0:3:0:0:
275,219,104855,101,8,0:3:0:0:
402,159,104980,1,0,0:0:0:0:
286,80,105105,1,4,0:3:0:0:
151,216,105230,5,0,1:0:0:0:
323,152,105355,101,0,0:0:0:0:
495,88,105480,5,4,1:2:0:0:
231,2,105602,1,0,0:0:0:0:
69,223,105724,1,4,0:3:0:0:
273,373,105847,101,8,0:3:0:0:
329,209,105969,1,0,0:0:0:0:
210,85,106092,1,8,0:3:0:0:
120,293,106214,5,0,1:0:0:0:
203,320,106337,1,4,0:3:0:0:
297,61,106460,101,6,1:2:0:0:
106,118,106583,1,0,0:0:0:0:
256,255,106707,1,4,0:3:0:0:
443,197,106831,1,8,0:3:0:0:
130,2,106954,5,0,0:0:0:0:
179,223,107078,1,4,0:3:0:0:
0,352,107202,101,0,1:0:0:0:
92,201,107325,5,0,0:0:0:0:
256,255,107449,101,6,1:2:0:0:
256,255,107704,5,8,0:3:0:0:
256,255,107959,101,4,0:3:0:0:
121,362,108087,1,8,0:3:0:0:
175,139,108214,1,0,1:0:0:0:
340,280,108342,1,4,0:3:0:0:
81,288,108470,5,6,1:2:0:0:
250,106,108597,1,4,0:3:0:0:
315,360,108725,1,4,0:3:0:0:
4,86,108853,101,8,0:3:0:0:
4,86,109236,5,8,1:3:0:0:
188,54,109363,1,4,0:3:0:0:
371,26,109491,1,6,1:2:0:0:
118,7,109613,101,4,0:3:0:0:
345,95,109735,1,4,0:3:0:0:
144,233,109858,5,4,1:2:0:0:
222,206,109980,1,0,0:3:0:0:
78,188,110103,101,4,0:3:0:0:
244,315,110225,1,4,0:0:0:0:
440,236,110348,1,4,0:3:0:0:
265,68,110470,5,4,0:3:0:0:
481,169,110593,101,4,1:2:0:0:
300,366,110715,1,4,0:3:0:0:
64,264,110837,1,4,0:3:0:0:
371,26,110960,6,0,L|350:112,1,65.625,4|0,1:2|0:0,0:0:0:0:
307,225,111087,1,0,0:0:0:0:
265,68,111215,101,4,1:2:0:0:
351,295,111342,1,4,1:3:0:0:
4,325,111470,5,4,1:2:0:0:
138,87,111596,1,0,0:0:0:0:
406,152,111722,1,4,0:3:0:0:
300,367,111848,101,8,0:3:0:0:
187,171,111975,5,0,0:0:0:0:
160,258,112101,1,4,0:3:0:0:
138,87,112227,101,0,1:0:0:0:
220,327,112354,1,4,0:3:0:0:
451,222,112480,1,6,1:2:0:0:
481,23,112605,5,0,0:0:0:0:
408,66,112730,1,4,0:3:0:0:
261,219,112855,101,8,0:3:0:0:
489,293,112980,1,0,0:0:0:0:
347,7,113105,5,4,0:3:0:0:
378,178,113230,1,0,1:0:0:0:
413,351,113355,1,0,0:0:0:0:
408,66,113480,101,6,1:2:0:0:
343,312,113605,1,0,0:0:0:0:
322,90,113730,1,4,0:3:0:0:
250,352,113855,1,8,0:3:0:0:
249,34,113980,1,0,0:0:0:0:
187,279,114105,1,4,0:3:0:0:
159,70,114230,1,0,1:0:0:0:
86,306,114355,1,4,0:3:0:0:
250,160,114480,5,6,1:2:0:0:
80,18,114605,1,0,0:0:0:0:
33,235,114730,1,4,0:3:0:0:
210,137,114855,101,8,0:3:0:0:
80,64,114980,1,0,0:0:0:0:
72,212,115105,1,4,0:3:0:0:
328,7,115230,5,0,1:0:0:0:
127,138,115355,101,0,0:0:0:0:
203,361,115480,5,6,1:2:0:0:
264,303,115605,1,0,0:0:0:0:
141,307,115730,101,4,0:3:0:0:
334,347,115855,1,8,0:3:0:0:
119,234,116105,5,4,0:3:0:0:
370,182,116230,1,0,1:0:0:0:
119,234,116355,1,4,0:3:0:0:
119,234,116480,1,6,1:2:0:0:
397,104,116605,101,4,0:3:0:0:
103,47,116730,1,4,0:3:0:0:
397,104,116855,1,8,0:3:0:0:
53,114,117105,5,4,0:3:0:0:
235,26,117230,101,0,1:0:0:0:
323,207,117355,5,0,0:0:0:0:
142,295,117480,101,6,1:2:0:0:
196,150,117605,1,4,0:3:0:0:
180,379,117730,5,8,0:3:0:0:
162,67,117855,1,0,1:0:0:0:
60,279,117980,101,4,0:3:0:0:
242,219,118105,1,4,0:3:0:0:
17,200,118230,1,8,1:3:0:0:
260,370,118355,1,4,0:3:0:0:
432,82,118480,5,4,0:3:0:0:
329,288,118605,1,4,1:2:0:0:
407,300,118980,5,0,1:0:0:0:
147,343,119105,1,0,1:0:0:0:
104,83,119230,1,0,1:0:0:0:
364,40,119355,1,0,1:0:0:0:
469,352,119480,54,0,L|465:374,1,21,2|0,0:0|0:0,0:0:0:0:
77,309,119855,6,0,L|73:288,1,21,2|0,0:0|0:0,0:0:0:0:
448,210,120230,102,0,L|444:230,1,21,2|0,0:0|0:0,0:0:0:0:
126,179,120605,5,2,0:0:0:0:
124,172,120667,1,2,0:0:0:0:
123,166,120730,1,0,0:0:0:0:
66,110,120855,1,2,0:0:0:0:
199,199,120980,1,2,0:0:0:0:
3,154,121105,1,2,0:0:0:0:
174,99,121230,1,2,0:0:0:0:
56,216,121355,1,0,0:0:0:0:
122,24,121480,102,0,L|118:46,1,21,2|2,0:0|0:0,0:0:0:0:
256,88,121855,6,0,L|256:112,1,21,2|2,0:0|0:0,0:0:0:0:
400,129,122230,102,0,L|404:151,1,21,2|2,0:0|0:0,0:0:0:0:
256,316,122605,5,2,0:0:0:0:
256,321,122667,1,2,0:0:0:0:
256,326,122730,1,2,0:0:0:0:
322,374,122855,1,2,0:0:0:0:
393,344,122980,1,2,0:0:0:0:
408,268,123105,1,0,0:0:0:0:
347,211,123230,1,2,0:0:0:0:
270,236,123355,1,2,0:0:0:0:
43,352,123480,102,0,L|47:374,1,21,2|0,0:0|0:0,0:0:0:0:
435,309,123855,6,0,L|438:288,1,21,2|0,0:0|0:0,0:0:0:0:
64,210,124230,102,0,L|67:230,1,21,2|0,0:0|0:0,0:0:0:0:
386,179,124605,5,2,0:0:0:0:
388,172,124667,1,2,0:0:0:0:
389,166,124730,1,0,0:0:0:0:
446,110,124855,1,2,0:0:0:0:
313,199,124980,1,2,0:0:0:0:
509,154,125105,1,2,0:0:0:0:
338,99,125230,1,2,0:0:0:0:
456,216,125355,1,0,0:0:0:0:
390,24,125480,102,0,L|394:46,1,21,2|2,0:0|0:0,0:0:0:0:
256,88,125855,6,0,L|256:112,1,21,2|2,0:0|0:0,0:0:0:0:
112,129,126230,102,0,L|108:151,1,21,2|2,0:0|0:0,0:0:0:0:
89,163,126709,5,2,0:0:0:0:
113,153,126792,101,2,0:0:0:0:
146,165,126875,5,2,0:0:0:0:
162,192,126959,101,2,0:1:0:0:
162,222,127042,5,0,0:0:0:0:
134,249,127125,69,0,0:0:0:0:
119,280,127209,37,2,0:3:0:0:
127,312,127292,69,2,0:0:0:0:
159,331,127375,5,2,0:0:0:0:
232,376,127480,38,0,P|336:359|425:350,1,193.199993514404,4|4,1:2|0:3,0:0:0:0:
113,153,127855,2,0,P|72:162|-18:172,1,96.5999967572022,0|0,1:0|0:0,0:0:0:0:
3,248,128105,1,0,0:0:0:0:
239,289,128230,2,0,P|280:280|370:270,1,96.5999967572022,0|0,1:0|0:0,0:0:0:0:
511,25,128480,6,0,P|470:34|380:44,1,96.5999967572022,0|0,1:0|0:0,0:0:0:0:
415,41,128667,1,2,0:0:0:0:
415,41,128730,1,2,0:0:0:0:
253,199,128855,1,2,1:2:0:0:
304,123,128980,101,2,0:0:0:0:
423,350,129105,5,2,0:0:0:0:
173,233,129230,1,0,1:0:0:0:
397,136,129355,1,2,0:0:0:0:
280,8,129480,102,0,P|176:25|87:34,1,193.199993514404,0|4,1:0|0:3,0:0:0:0:
399,231,129855,2,0,P|440:222|530:212,1,96.5999967572022,0|0,1:0|0:0,0:0:0:0:
509,136,130105,1,0,0:0:0:0:
273,95,130230,2,0,P|232:104|142:114,1,96.5999967572022,0|0,1:0|0:0,0:0:0:0:
1,359,130480,6,0,P|42:350|132:340,1,96.5999967572022,0|2,1:0|0:0,0:0:0:0:
140,274,130667,1,2,0:0:0:0:
173,279,130730,1,2,0:0:0:0:
206,284,130792,1,2,0:0:0:0:
239,289,130855,1,2,1:2:0:0:
397,136,130980,101,2,0:0:0:0:
292,367,131105,1,0,0:0:0:0:
318,178,131230,1,2,1:2:0:0:
417,317,131355,1,2,0:0:0:0:
226,198,131480,5,2,1:2:0:0:
493,231,131605,2,0,P|499:183|509:135,1,96.5999967572022,2|4,0:0|0:3,0:0:0:0:
339,0,131855,2,0,P|333:48|323:96,1,96.5999967572022,2|0,1:2|0:0,0:0:0:0:
400,228,132105,1,0,0:0:0:0:
173,384,132230,2,0,P|179:336|189:288,1,96.5999967572022,2|0,1:2|0:0,0:0:0:0:
19,153,132480,102,0,P|13:201|3:249,1,96.5999967572022,0|2,1:0|0:0,0:0:0:0:
82,327,132730,1,2,0:0:0:0:
82,327,132792,1,2,0:0:0:0:
82,327,132855,1,0,1:0:0:0:
318,178,132980,5,2,0:0:0:0:
114,9,133105,1,2,0:0:0:0:
226,198,133230,1,0,1:0:0:0:
416,59,133355,1,2,0:0:0:0:
158,128,133480,86,0,L|166:87,2,42,2|2|0,0:0|0:0|0:0,0:0:0:0:
353,255,133855,102,0,L|360:296,2,42,2|0|0,0:0|0:0|0:0,0:0:0:0:
111,241,134230,6,0,L|104:200,2,42,2|0|2,0:0|0:0|0:0,0:0:0:0:
411,163,134605,101,2,0:0:0:0:
409,173,134667,1,2,0:0:0:0:
408,184,134730,1,2,0:0:0:0:
322,177,134855,1,2,0:0:0:0:
282,102,134980,1,0,0:0:0:0:
316,26,135105,1,2,0:0:0:0:
400,22,135230,1,0,0:0:0:0:
450,93,135355,1,2,0:0:0:0:
401,361,135480,5,4,1:2:0:0:
401,361,135980,69,0,1:0:0:0:
462,196,136146,1,2,0:0:0:0:
323,86,136313,1,2,0:0:0:0:
440,194,136480,37,10,1:3:0:0:
329,106,136646,1,2,0:0:0:0:
211,185,136813,1,2,0:0:0:0:
335,126,136980,69,2,1:2:0:0:
367,202,137230,37,2,0:0:0:0:
289,189,137480,69,4,1:3:0:0:
289,189,137980,37,0,1:0:0:0:
196,338,138146,1,2,0:0:0:0:
24,296,138313,1,2,0:0:0:0:
181,322,138480,69,10,1:3:0:0:
43,289,138646,1,2,0:0:0:0:
33,147,138813,1,2,0:0:0:0:
63,281,138980,37,2,1:2:0:0:
85,203,139230,69,2,0:0:0:0:
141,259,139480,37,4,1:3:0:0:
223,141,139730,69,2,0:0:0:0:
284,282,139855,1,2,0:0:0:0:
415,207,139980,1,0,1:0:0:0:
503,43,140230,37,2,0:0:0:0:
429,14,140355,1,0,0:0:0:0:
389,83,140480,1,10,1:3:0:0:
429,288,140730,69,2,0:0:0:0:
461,110,140980,1,0,1:0:0:0:
357,261,141230,1,2,0:0:0:0:
494,184,141480,37,4,1:3:0:0:
324,187,141730,69,2,0:0:0:0:
281,281,141855,1,2,0:0:0:0:
238,375,141980,1,2,1:2:0:0:
247,178,142230,37,2,0:0:0:0:
313,384,142480,1,10,1:3:0:0:
219,243,142730,69,2,0:0:0:0:
341,317,142855,1,2,0:0:0:0:
422,214,142980,1,0,1:0:0:0:
410,288,143230,37,2,0:0:0:0:
401,361,143480,69,4,1:2:0:0:
401,361,143980,37,0,1:0:0:0:
462,196,144146,1,2,0:0:0:0:
323,86,144313,1,2,0:0:0:0:
440,194,144480,69,10,1:3:0:0:
329,106,144646,1,2,0:0:0:0:
211,185,144813,1,2,0:0:0:0:
335,126,144980,37,2,1:2:0:0:
367,202,145230,69,2,0:0:0:0:
289,189,145480,37,4,1:3:0:0:
289,189,145980,69,0,1:0:0:0:
196,338,146146,1,2,0:0:0:0:
24,296,146313,1,2,0:0:0:0:
238,20,146480,37,10,1:3:0:0:
379,189,146646,1,2,0:0:0:0:
262,379,146813,1,2,0:0:0:0:
19,121,146980,69,2,1:2:0:0:
40,47,147230,37,2,0:0:0:0:
87,161,147355,1,2,0:0:0:0:
202,122,147480,1,4,1:3:0:0:
512,148,147730,69,2,0:0:0:0:
463,224,147855,1,2,0:0:0:0:
379,189,147980,1,0,1:0:0:0:
174,246,148230,37,2,0:0:0:0:
207,316,148480,1,10,1:3:0:0:
286,303,148730,1,2,0:0:0:0:
295,226,148980,1,2,1:2:0:0:
228,192,149230,1,2,0:0:0:0:
7,233,149480,69,4,1:3:0:0:
27,304,149980,5,8,1:3:0:0:
47,375,150480,38,2,L|69:370,1,21,2|0,0:0|0:0,0:1:0:0:
104,279,150646,6,2,L|160:292,1,52.5,2|0,0:0|0:0,0:1:0:0:
221,177,150813,102,2,L|311:234,1,84,2|0,0:0|0:0,0:1:0:0:
444,138,150980,6,2,L|474:188,2,42,2|2|2,0:0|0:0|0:0,0:1:0:0:
385,5,151230,6,2,L|376:78,1,57.7500017623902,2|2,0:0|0:0,0:1:0:0:
348,276,151355,2,2,L|339:349,1,57.7500017623902,0|2,0:0|0:0,0:1:0:0:
67,370,151480,85,6,1:2:0:0:
1,196,151605,1,4,0:3:0:0:
146,79,151730,1,12,0:3:0:0:
301,180,151855,1,4,0:3:0:0:
0,321,151980,5,4,1:2:0:0:
85,155,152105,1,4,0:3:0:0:
113,198,152167,1,2,0:3:0:0:
165,190,152230,1,12,0:3:0:0:
228,129,152355,1,6,0:3:0:0:
312,265,152480,101,4,1:2:0:0:
463,185,152605,1,4,0:3:0:0:
512,207,152667,1,2,0:3:0:0:
511,261,152730,1,12,0:3:0:0:
450,328,152855,1,6,0:3:0:0:
227,294,152980,5,4,1:2:0:0:
309,96,153105,1,4,0:3:0:0:
272,358,153230,1,12,0:3:0:0:
259,37,153355,1,4,0:3:0:0:
394,259,153480,101,6,1:2:0:0:
214,312,153605,1,4,0:3:0:0:
107,157,153730,1,12,0:3:0:0:
221,8,153855,1,4,0:3:0:0:
349,331,153980,5,4,1:2:0:0:
130,240,154105,1,4,0:3:0:0:
184,244,154167,1,2,0:3:0:0:
212,196,154230,1,12,0:3:0:0:
180,97,154355,1,6,0:3:0:0:
316,44,154480,101,4,1:2:0:0:
107,157,154605,1,4,0:3:0:0:
53,157,154667,1,2,0:3:0:0:
31,106,154730,1,12,0:3:0:0:
48,12,154855,1,6,0:3:0:0:
276,127,154980,5,4,1:2:0:0:
140,38,155105,1,0,1:0:0:0:
173,381,155230,5,10,1:3:0:0:
208,190,155355,1,10,1:3:0:0:
239,0,155480,1,6,1:2:0:0:
158,123,155605,85,4,0:3:0:0:
295,67,155730,1,14,0:3:0:0:
377,185,155855,1,6,0:3:0:0:
228,313,155980,5,4,1:2:0:0:
164,256,156105,1,4,0:3:0:0:
450,230,156230,101,14,0:3:0:0:
237,294,156355,5,6,0:3:0:0:
15,350,156480,101,4,1:2:0:0:
87,384,156605,1,6,0:3:0:0:
237,117,156730,5,12,0:3:0:0:
30,188,156855,1,6,0:3:0:0:
166,335,156980,101,4,1:2:0:0:
235,379,157105,1,6,0:3:0:0:
346,238,157230,5,12,0:3:0:0:
328,151,157355,1,6,0:3:0:0:
512,122,157480,101,4,1:2:0:0:
423,267,157605,1,4,0:3:0:0:
267,210,157730,1,12,0:3:0:0:
361,74,157855,1,6,0:3:0:0:
492,231,157980,5,4,1:2:0:0:
492,231,158105,1,6,0:3:0:0:
397,304,158230,101,14,0:3:0:0:
397,304,158355,1,4,0:3:0:0:
293,366,158480,53,2,1:0:0:0:
82,229,158646,5,2,1:0:0:0:
219,18,158813,101,2,1:0:0:0:
430,155,158980,38,0,P|425:171|425:186,1,28.8750008811951,2|0,1:0|0:0,0:0:0:0:
297,125,159105,2,0,P|296:139|291:153,1,28.8750008811951,2|0,1:3|0:0,0:0:0:0:
506,122,159230,70,0,P|506:136|511:150,1,28.8750008811951,10|0,1:3|0:0,0:0:0:0:
212,160,159355,2,0,P|216:173|217:188,1,28.8750008811951,10|0,1:3|0:0,0:0:0:0:
492,231,159480,53,6,1:2:0:0:
373,92,159605,1,4,0:3:0:0:
204,162,159730,1,12,0:3:0:0:
218,344,159855,1,4,0:3:0:0:
512,150,159980,5,4,1:2:0:0:
330,18,160105,1,4,0:3:0:0:
294,51,160167,1,2,0:3:0:0:
299,101,160230,1,12,0:3:0:0:
191,71,160355,1,4,0:3:0:0:
129,207,160480,101,4,1:2:0:0:
104,8,160605,1,4,0:3:0:0:
69,48,160667,1,2,0:3:0:0:
18,36,160730,1,12,0:3:0:0:
13,144,160855,1,4,0:3:0:0:
203,250,160980,5,4,1:2:0:0:
99,100,161105,1,4,0:3:0:0:
183,334,161230,1,12,0:3:0:0:
126,20,161355,1,4,0:3:0:0:
15,282,161480,101,6,1:2:0:0:
189,349,161605,1,4,0:3:0:0:
307,204,161730,1,12,0:3:0:0:
206,46,161855,1,4,0:3:0:0:
49,354,161980,5,4,1:2:0:0:
203,250,162105,1,4,0:3:0:0:
237,293,162167,1,2,0:3:0:0:
291,286,162230,1,12,0:3:0:0:
385,233,162355,1,4,0:3:0:0:
314,17,162480,101,4,1:2:0:0:
512,83,162605,1,4,0:3:0:0:
512,136,162667,1,2,0:3:0:0:
463,159,162730,1,12,0:3:0:0:
362,130,162855,1,4,0:3:0:0:
250,61,162980,5,4,1:2:0:0:
161,186,163105,1,0,1:0:0:0:
428,92,163230,5,10,0:3:0:0:
231,142,163355,1,14,0:3:0:0:
34,192,163480,1,6,1:2:0:0:
34,192,163605,85,4,0:3:0:0:
65,126,163730,5,14,0:3:0:0:
221,162,163855,1,6,0:3:0:0:
377,198,163980,1,4,1:2:0:0:
377,198,164105,53,4,0:3:0:0:
341,119,164230,101,14,0:3:0:0:
211,182,164355,1,6,0:3:0:0:
81,245,164480,1,4,1:2:0:0:
138,299,164605,37,6,0:3:0:0:
66,333,164730,69,12,0:3:0:0:
183,361,164855,1,6,0:3:0:0:
250,259,164980,1,4,1:2:0:0:
157,131,165105,5,4,0:3:0:0:
13,194,165230,37,14,0:3:0:0:
215,262,165355,1,6,0:3:0:0:
341,110,165480,1,4,1:2:0:0:
300,32,165605,1,4,0:3:0:0:
468,286,165730,5,14,0:3:0:0:
266,354,165855,1,6,0:3:0:0:
140,202,165980,1,4,1:2:0:0:
181,124,166105,1,4,0:3:0:0:
215,262,166230,101,14,0:3:0:0:
159,39,166355,1,6,0:3:0:0:
38,244,166480,53,4,1:2:0:0:
474,140,166605,1,4,1:3:0:0:
99,177,166730,5,4,1:3:0:0:
413,207,166855,1,4,1:3:0:0:
74,37,166980,101,6,1:3:0:0:
74,37,167042,1,8,1:3:0:0:
74,37,167105,2,0,L|65:115,1,57.7500017623902,8|8,0:3|0:3,0:0:0:0:
438,347,167230,5,4,0:3:0:0:
438,347,167292,1,4,0:3:0:0:
438,347,167355,2,0,L|447:269,1,57.7500017623902,8|8,1:3|1:3,0:0:0:0:
203,368,167480,70,2,L|146:282,1,78.7500030040742,6|0,1:0|0:0,0:1:0:0:
328,260,167605,2,0,L|303:159,1,78.7500030040742,4|0,0:3|0:0,0:0:0:0:
482,201,167730,2,0,L|493:98,1,78.7500030040742,8|0,0:3|0:0,0:0:0:0:
325,384,167855,6,0,L|347:336,1,52.5,4|0,1:3|0:0,0:0:0:0:
232,276,167980,2,0,L|238:223,1,52.5
135,222,168105,2,0,L|123:170,1,52.5,8|0,0:3|0:0,0:0:0:0:
458,49,168230,101,2,1:0:0:0:
47,191,168355,1,2,0:1:0:0:
482,201,168480,6,2,L|490:122,1,78.7500030040742,2|0,1:0|0:0,0:1:0:0:
509,39,168605,101,2,0:0:0:0:
509,39,168667,1,2,0:0:0:0:
509,39,168730,2,0,L|430:54,1,52.5,2|0,0:0|0:0,0:0:0:0:
309,183,168855,5,2,1:2:0:0:
204,77,168980,1,2,0:0:0:0:
54,49,169105,1,2,0:0:0:0:
395,0,169230,101,2,1:0:0:0:
0,118,169355,1,2,0:1:0:0:
309,368,169480,6,2,L|352:302,1,78.7500030040742,2|0,1:0|0:0,0:1:0:0:
184,260,169605,2,0,L|208:159,1,78.7500030040742,4|0,0:3|0:0,0:0:0:0:
30,201,169730,2,0,L|18:98,1,78.7500030040742,8|0,0:3|0:0,0:0:0:0:
173,379,169855,102,0,L|148:332,1,52.5,4|0,1:3|0:0,0:0:0:0:
280,276,169980,2,0,L|273:223,1,52.5
377,222,170105,2,0,L|388:170,1,52.5,8|0,0:3|0:0,0:0:0:0:
54,49,170230,5,2,1:0:0:0:
465,191,170355,1,2,0:1:0:0:
53,381,170480,102,2,L|62:302,1,78.7500030040742,2|0,1:0|0:0,0:1:0:0:
74,130,170605,1,2,0:0:0:0:
352,244,170730,6,2,L|279:275,1,78.7500030040742,2|0,0:1|0:0,0:1:0:0:
148,332,170855,1,2,1:2:0:0:
140,72,170980,102,2,L|203:119,1,78.7500030040742,2|0,0:1|0:0,0:1:0:0:
293,186,171105,1,2,0:0:0:0:
204,14,171230,5,2,1:0:0:0:
204,14,171355,1,2,0:0:0:0:
187,257,171480,101,8,1:3:0:0:
323,111,171605,1,4,0:3:0:0:
512,86,171730,1,4,0:3:0:0:
383,371,171855,5,8,1:3:0:0:
269,263,171980,1,4,0:3:0:0:
120,203,172105,1,4,0:3:0:0:
230,65,172230,101,2,1:0:0:0:
307,340,172355,1,2,0:1:0:0:
494,12,172480,6,2,L|380:34,1,78.7500030040742,2|0,1:0|0:0,0:1:0:0:
322,49,172605,1,0,0:0:0:0:
269,263,172730,101,2,0:1:0:0:
453,319,172855,1,2,1:2:0:0:
388,118,172980,5,2,0:1:0:0:
191,153,173105,1,0,0:0:0:0:
133,384,173230,101,2,1:0:0:0:
412,239,173355,1,2,0:0:0:0:
206,75,173480,6,2,L|182:191,1,78.7500030040742,2|0,1:0|0:0,0:1:0:0:
154,296,173605,1,2,0:0:0:0:
292,157,173730,1,2,0:1:0:0:
103,90,173855,1,2,1:2:0:0:
307,234,173980,102,2,L|283:118,1,78.7500030040742,2|0,0:1|0:0,0:1:0:0:
255,13,174105,1,0,0:0:0:0:
107,186,174230,1,2,1:0:0:0:
273,330,174355,1,2,0:0:0:0:
425,158,174480,1,2,1:0:0:0:
178,21,174605,5,2,0:0:0:0:
176,29,174667,1,2,0:0:0:0:
174,38,174730,1,2,0:1:0:0:
171,45,174792,1,2,0:0:0:0:
169,54,174855,1,0,1:0:0:0:
103,90,174980,101,2,0:1:0:0:
255,13,175105,1,2,0:0:0:0:
422,53,175230,1,2,1:0:0:0:
499,202,175355,1,2,0:0:0:0:
309,368,175480,6,2,L|366:282,1,78.7500030040742,6|0,1:0|0:0,0:1:0:0:
184,260,175605,2,0,L|209:159,1,78.7500030040742,4|0,0:3|0:0,0:0:0:0:
30,201,175730,2,0,L|19:98,1,78.7500030040742,8|0,0:3|0:0,0:0:0:0:
173,379,175855,102,0,L|149:332,1,52.5,4|0,1:3|0:0,0:0:0:0:
280,276,175980,2,0,L|274:223,1,52.5
377,222,176105,2,0,L|389:170,1,52.5,8|0,0:3|0:0,0:0:0:0:
54,49,176230,5,2,1:0:0:0:
465,191,176355,1,2,0:1:0:0:
30,201,176480,102,2,L|22:122,1,78.7500030040742,2|0,1:0|0:0,0:1:0:0:
3,39,176605,5,2,0:0:0:0:
3,39,176667,1,2,0:0:0:0:
3,39,176730,2,0,L|82:54,1,52.5,2|0,0:0|0:0,0:0:0:0:
203,183,176855,101,2,1:2:0:0:
308,77,176980,1,2,0:0:0:0:
458,49,177105,1,2,0:0:0:0:
117,0,177230,5,2,1:0:0:0:
295,182,177355,1,0,0:0:0:0:
476,356,177480,102,0,L|484:278,1,78.7500030040742,2|0,1:0|0:0,0:0:0:0:
105,228,177605,2,2,L|97:306,1,78.7500030040742,4|0,0:3|0:0,0:1:0:0:
403,318,177730,6,0,L|385:268,1,52.5
178,273,177855,2,0,L|196:323,1,52.5,4|0,1:3|0:0,0:0:0:0:
512,231,177980,102,0,L|436:209,1,78.7500030040742,2|0,0:1|0:0,0:0:0:0:
59,348,178105,2,0,L|134:369,1,78.7500030040742,8|0,0:3|0:0,0:0:0:0:
512,312,178230,5,2,1:0:0:0:
24,209,178355,1,0,0:0:0:0:
345,0,178480,102,0,L|327:94,1,78.7500030040742,2|0,1:0|0:0,0:0:0:0:
280,370,178605,1,2,0:0:0:0:
53,134,178730,6,2,L|129:117,1,78.7500030040742,2|2,0:1|0:0,0:1:0:0:
330,77,178855,1,2,1:2:0:0:
403,318,178980,102,2,L|326:301,1,78.7500030040742,2|0,0:1|0:0,0:1:0:0:
178,273,179105,1,2,0:0:0:0:
249,93,179230,5,2,1:0:0:0:
306,224,179355,1,2,0:0:0:0:
116,148,179480,21,0,1:0:0:0:
80,114,179542,1,0,3:0:0:0:
80,64,179605,1,2,0:0:0:0:
110,25,179667,1,0,0:0:0:0:
159,18,179730,1,2,3:2:0:0:
201,40,179792,1,0,0:0:0:0:
219,85,179855,1,0,1:0:0:0:
207,132,179917,1,0,3:0:0:0:
225,177,179980,1,2,0:0:0:0:
271,190,180042,1,0,0:0:0:0:
317,171,180105,1,0,0:0:0:0:
333,125,180167,1,0,0:0:0:0:
310,80,180230,86,2,P|323:50|325:13,1,57.7500017623902,2|0,1:0|0:0,0:1:0:0:
497,178,180355,2,2,P|485:204|481:232,1,57.7500017623902,2|0,0:1|0:0,0:1:0:0:
299,367,180480,21,2,1:0:0:0:
299,318,180542,1,0,3:0:0:0:
269,278,180605,1,2,0:0:0:0:
220,270,180667,1,0,0:0:0:0:
176,293,180730,1,2,3:1:0:0:
152,335,180792,1,0,0:0:0:0:
107,357,180855,1,0,1:0:0:0:
58,354,180917,1,0,3:0:0:0:
20,321,180980,1,2,0:1:0:0:
8,273,181042,1,0,0:0:0:0:
20,225,181105,1,2,0:1:0:0:
58,194,181167,1,0,0:0:0:0:
109,190,181230,85,2,1:0:0:0:
165,211,181292,1,0,3:0:0:0:
223,192,181355,1,2,3:0:0:0:
256,141,181417,1,0,3:0:0:0:
256,141,193480,69,6,3:2:0:0:
