osu file format v14

[General]
AudioFilename: audio.mp3
AudioLeadIn: 0
PreviewTime: 143417
Countdown: 0
SampleSet: Soft
StackLeniency: 0.4
Mode: 0
LetterboxInBreaks: 0
WidescreenStoryboard: 1

[Editor]
Bookmarks: 7490,23480,39480,55480,71480,87480,103480,119480,127480,135480,151480,167480,181480,193480
DistanceSpacing: 0.7
BeatDivisor: 4
GridSize: 4
TimelineZoom: 2.2

[Metadata]
Title:Replica feat. mami
TitleUnicode:レプリカ feat. mami
Artist:UKRampage
ArtistUnicode:有形ランペイジ
Creator:Amamya
Version:Collab Extra
Source:
Tags:cc22 hd1 sf corsace closed hidden one semi finals japanese rock jrock j-rock riana dailycare morinaga atipir enon cellina reana sasakure.uk odyssey ささくれP sasakureP sasakuration ササクレイション 佐々木秀尚 sasaki hidehisa 二家本亮介 nikamoto ryosuke 今井義頼 yoshinori imai 岸田勇気 yuki kishida
BeatmapID:3715945
BeatmapSetID:1769121

[Difficulty]
HPDrainRate:5
CircleSize:4.2
OverallDifficulty:9
ApproachRate:9.2
SliderMultiplier:1.8
SliderTickRate:1

[Events]
//Background and Video events
0,0,"89504775_p0.jpg",0,0
//Break Periods
2,53680,54624
//Storyboard Layer 0 (Background)
//Storyboard Layer 1 (Fail)
//Storyboard Layer 2 (Pass)
//Storyboard Layer 3 (Foreground)
//Storyboard Layer 4 (Overlay)
//Storyboard Sound Samples

[TimingPoints]
520,244.897959183673,4,2,99,78,1,0
2480,250,4,2,99,78,1,0
6605,-100,4,2,99,35,0,0
7490,248.96265560166,4,2,99,64,1,0
7490,-125,4,2,99,64,0,0
9480,250,4,2,99,64,1,0
9480,-125,4,2,99,64,0,0
23480,-200,4,2,99,50,0,0
31480,-166.666666666667,4,2,99,50,0,0
39230,-166.666666666667,4,2,99,64,0,0
39480,255.31914893617,4,2,99,78,1,0
39480,-100,4,2,99,78,0,0
40500,250,4,2,99,78,1,0
41500,244.897959183673,4,2,99,78,1,0
42480,255.31914893617,4,2,99,78,1,0
43500,244.897959183673,4,2,99,78,1,0
44480,250,4,2,99,78,1,0
46480,247.422680412371,4,2,99,78,1,0
48460,250,4,2,99,78,1,0
53210,-71.4285714285714,4,2,99,78,0,0
53460,247.933884297521,4,2,99,78,1,0
53460,-71.4285714285714,4,2,99,50,0,0
55194,285.714285714286,4,2,99,50,1,0
55194,-333.333333333333,4,2,99,35,0,0
55480,250,4,2,99,75,1,0
55480,-100,4,2,99,75,0,0
71480,-125,4,2,99,64,0,0
87480,-125,4,2,99,50,0,0
102855,187.5,4,2,99,50,1,0
102948,272.727272727273,4,2,99,50,1,0
102948,-125,4,2,99,64,0,0
103220,260.869565217391,4,2,99,64,1,0
103220,-125,4,2,99,64,0,0
103480,250,4,2,99,78,1,1
103480,-100,4,2,99,78,0,0
105480,244.897959183673,4,2,99,78,1,0
106460,247.422680412371,4,2,99,78,1,0
107449,255.31914893617,4,2,99,78,1,0
109491,244.897959183673,4,2,99,78,1,0
110960,255.31914893617,4,2,99,78,1,0
111470,252.631578947368,4,2,99,78,1,0
112480,250,4,2,99,78,1,0
118980,-100,4,2,99,84,0,0
119480,-142.857142857143,4,2,99,50,0,0
119730,-142.857142857143,4,2,99,35,0,0
119855,-142.857142857143,4,2,99,50,0,0
120105,-142.857142857143,4,2,99,35,0,0
120230,-142.857142857143,4,2,99,50,0,0
120480,-142.857142857143,4,2,99,35,0,0
120605,-142.857142857143,4,2,99,50,0,0
120667,-142.857142857143,4,2,99,35,0,0
120980,-142.857142857143,4,2,99,50,0,0
121105,-142.857142857143,4,2,99,35,0,0
121480,-142.857142857143,4,2,99,50,0,0
121730,-142.857142857143,4,2,99,35,0,0
121855,-142.857142857143,4,2,99,50,0,0
122105,-142.857142857143,4,2,99,35,0,0
122230,-142.857142857143,4,2,99,50,0,0
122480,-142.857142857143,4,2,99,35,0,0
122605,-142.857142857143,4,2,99,50,0,0
122667,-142.857142857143,4,2,99,35,0,0
122855,-142.857142857143,4,2,99,50,0,0
123105,-142.857142857143,4,2,99,35,0,0
123230,-142.857142857143,4,2,99,50,0,0
123730,-142.857142857143,4,2,99,35,0,0
123855,-142.857142857143,4,2,99,50,0,0
124105,-142.857142857143,4,2,99,35,0,0
124230,-142.857142857143,4,2,99,50,0,0
124480,-142.857142857143,4,2,99,35,0,0
124605,-142.857142857143,4,2,99,50,0,0
124667,-142.857142857143,4,2,99,35,0,0
124980,-142.857142857143,4,2,99,50,0,0
125105,-142.857142857143,4,2,99,35,0,0
125480,-142.857142857143,4,2,99,50,0,0
125730,-142.857142857143,4,2,99,35,0,0
125855,-142.857142857143,4,2,99,50,0,0
126105,-142.857142857143,4,2,99,35,0,0
126230,-142.857142857143,4,2,99,50,0,0
126480,-142.857142857143,4,2,99,35,0,0
126980,-142.857142857143,4,2,99,50,0,0
127355,-142.857142857143,4,2,99,60,0,0
127480,-83.3333333333334,4,2,99,75,0,0
133230,-66.6666666666667,4,2,99,75,0,0
133480,-66.6666666666667,4,2,99,50,0,0
133730,-66.6666666666667,4,2,99,35,0,0
133855,-66.6666666666667,4,2,99,50,0,0
134105,-66.6666666666667,4,2,99,35,0,0
134230,-66.6666666666667,4,2,99,50,0,0
134667,-66.6666666666667,4,2,99,35,0,0
134855,-66.6666666666667,4,2,99,50,0,0
135105,-66.6666666666667,4,2,99,35,0,0
135230,-66.6666666666667,4,2,99,50,0,0
135480,-142.857142857143,4,2,99,62,0,0
148730,-142.857142857143,4,2,99,66,0,0
148980,-142.857142857143,4,2,99,70,0,0
149230,-142.857142857143,4,2,99,74,0,0
149480,-100,4,2,99,74,0,0
150480,-100,4,2,99,64,0,0
151230,-333.333333333333,4,2,99,50,0,0
151480,-100,4,2,99,75,0,0
166480,-100,4,2,99,77,0,0
167230,-142.857142857143,4,2,99,77,0,0
167480,-83.3333333333333,4,2,99,84,0,0
181480,-142.857142857143,4,2,99,84,0,0
189417,-142.857142857143,4,2,99,84,0,0
189480,-142.857142857143,4,2,99,84,0,0
189542,-142.857142857143,4,2,99,84,0,0
189605,-142.857142857143,4,2,99,84,0,0
189792,-142.857142857143,4,2,99,84,0,0
189855,-142.857142857143,4,2,99,84,0,0
190042,-142.857142857143,4,2,99,84,0,0
190105,-142.857142857143,4,2,99,84,0,0
193480,-142.857142857143,4,2,99,84,0,0

[Colours]
Combo1 : 255,179,179
Combo2 : 201,184,192

[HitObjects]
286,56,520,6,0,P|377:72|390:164,1,180,4|4,1:2|2:3,0:0:0:0:
459,209,887,2,0,P|443:300|351:313,1,180,0|4,1:0|2:3,0:0:0:0:
282,373,1254,2,0,P|270:323|284:270,1,90,0|4,1:0|2:3,0:0:0:0:
80,167,1499,6,0,L|183:158,1,90,0|4,1:0|2:3,0:0:0:0:
113,84,1744,1,8,2:3:0:0:
313,203,1866,6,0,B|214:195|249:246|136:239,1,180,0|4,1:0|2:3,0:0:0:0:
70,268,2234,2,0,P|61:316|65:358,1,90,0|0,1:0|2:0,0:0:0:0:
313,203,2480,6,0,L|288:3,1,180,0|4,1:0|2:3,0:0:0:0:
385,264,2855,2,0,P|480:291|505:372,1,180,0|4,1:0|2:3,0:0:0:0:
506,360,3230,1,0,1:0:0:0:
291,293,3355,5,0,2:0:0:0:
289,301,3417,1,0,1:0:0:0:
289,310,3480,1,0,1:0:0:0:
313,203,3605,5,4,2:3:0:0:
396,173,3730,1,8,2:3:0:0:
329,117,3855,1,0,1:0:0:0:
291,293,3980,5,0,2:0:0:0:
107,158,4105,1,4,2:3:0:0:
197,125,4230,2,0,P|183:176|176:238,1,90,0|4,1:0|2:3,0:0:0:0:
177,293,4480,6,0,P|76:309|-3:330,1,180,0|4,1:0|2:3,0:0:0:0:
266,162,4855,2,0,P|367:146|446:125,1,180,0|4,1:0|2:3,0:0:0:0:
174,86,5230,1,0,1:0:0:0:
291,293,5355,1,0,2:0:0:0:
266,162,5480,5,0,1:0:0:0:
177,293,5605,1,4,2:3:0:0:
177,212,5730,1,8,2:3:0:0:
230,377,5855,1,0,1:0:0:0:
359,235,5980,2,0,P|430:250|478:253,1,90,0|4,2:0|2:3,0:0:0:0:
124,381,6230,2,0,P|53:366|5:363,1,90,0|0,1:0|2:0,0:0:0:0:
13,140,6480,5,2,0:0:0:0:
93,152,6605,1,2,2:0:0:0:
95,160,6667,1,2,2:0:0:0:
97,168,6730,1,0,2:0:0:0:
177,180,6855,1,2,2:0:0:0:
256,193,6980,1,2,3:2:0:0:
182,184,7230,5,2,2:0:0:0:
261,197,7355,1,2,2:0:0:0:
340,210,7490,6,0,P|371:167|338:75,1,144,6|2,1:2|2:0,0:0:0:0:
287,41,7863,1,2,2:0:0:0:
462,0,7987,2,0,P|427:21|416:54,1,72,2|2,1:2|2:0,0:0:0:0:
261,197,8236,2,0,P|273:277|275:296,1,72,0|2,2:0|2:0,0:0:0:0:
472,372,8485,5,2,1:2:0:0:
512,312,8610,1,2,2:0:0:0:
455,259,8734,1,0,2:0:0:0:
495,199,8859,1,2,2:0:0:0:
435,154,8983,6,0,P|367:149|348:83,1,144,2|2,1:2|2:0,0:0:0:0:
416,48,9357,1,0,2:0:0:0:
215,0,9480,6,0,P|151:54|171:113,1,144,2|2,1:2|2:0,0:0:0:0:
226,142,9855,1,2,2:0:0:0:
41,178,9980,2,0,P|75:156|91:111,1,72,2|2,1:2|2:0,0:0:0:0:
271,268,10230,2,0,P|262:324|259:362,1,72,0|2,2:0|2:0,0:0:0:0:
25,358,10480,5,2,1:2:0:0:
1,289,10605,1,2,2:0:0:0:
70,266,10730,1,0,2:0:0:0:
93,334,10855,1,2,2:0:0:0:
47,310,10980,5,2,1:2:0:0:
169,192,11105,1,2,2:0:0:0:
18,107,11230,1,2,2:0:0:0:
215,0,11480,6,0,P|274:37|275:112,1,144,6|2,1:2|2:0,0:0:0:0:
254,180,11855,1,2,2:0:0:0:
394,194,11980,2,0,P|359:188|333:164,1,72,2|2,1:2|2:0,0:0:0:0:
167,287,12230,2,0,P|174:338|177:376,1,72,0|2,2:0|2:0,0:0:0:0:
472,358,12480,5,2,1:2:0:0:
512,298,12605,1,2,2:0:0:0:
455,245,12730,1,0,2:0:0:0:
495,185,12855,1,2,2:0:0:0:
441,135,12980,2,0,P|437:67|420:14,1,108,2|0,1:2|0:0,0:0:0:0:
426,28,13230,2,0,P|469:33|508:32,1,72,2|0,2:0|2:0,0:0:0:0:
333,164,13480,6,0,P|255:154|186:156,1,144,2|2,1:2|2:0,0:0:0:0:
190,156,13813,2,0,P|195:132|197:108,1,48
142,55,13980,2,0,P|106:55|70:51,1,72,2|0,1:2|0:0,0:0:0:0:
15,106,14230,1,2,2:0:0:0:
68,164,14355,1,2,2:0:0:0:
40,358,14480,5,2,1:2:0:0:
0,298,14605,1,2,2:0:0:0:
60,258,14730,1,2,2:0:0:0:
100,318,14855,1,2,2:0:0:0:
47,310,14980,5,2,1:2:0:0:
47,310,15230,1,2,2:0:0:0:
169,192,15355,1,2,2:0:0:0:
15,106,15480,6,0,P|86:99|143:55,1,144,6|2,1:2|2:0,0:0:0:0:
196,108,15855,1,2,2:0:0:0:
290,0,15980,2,0,P|267:27|258:62,1,72,2|2,1:2|2:0,0:0:0:0:
114,245,16230,2,0,P|127:310|129:332,1,72,0|2,2:0|2:0,0:0:0:0:
369,384,16480,5,2,1:2:0:0:
409,324,16605,1,2,2:0:0:0:
352,271,16730,1,0,2:0:0:0:
392,211,16855,1,2,2:0:0:0:
333,164,16980,2,0,P|327:102|314:12,1,144,2|2,1:2|2:0,0:0:0:0:
393,38,17355,1,0,2:0:0:0:
495,185,17480,6,0,P|502:256|512:327,1,144,2|2,1:2|2:0,0:0:0:0:
512,327,17813,2,0,P|492:341|475:357,1,48
259,255,17980,2,0,P|247:222|260:190,1,72,2|2,1:2|2:0,0:0:0:0:
475,15,18230,2,0,P|469:50|466:86,1,72,0|2,2:0|2:0,0:0:0:0:
364,216,18480,5,2,1:2:0:0:
324,156,18605,1,2,2:0:0:0:
384,116,18730,1,0,2:0:0:0:
424,176,18855,1,2,2:0:0:0:
371,168,18980,5,2,1:2:0:0:
177,104,19105,1,2,2:0:0:0:
219,303,19230,1,2,2:0:0:0:
17,199,19480,6,0,P|10:128|0:57,1,144,6|2,1:2|2:0,0:0:0:0:
0,57,19813,2,0,P|20:43|37:27,1,48
253,129,19980,2,0,P|265:162|252:194,1,72,2|2,1:2|2:0,0:0:0:0:
58,339,20230,2,0,P|55:303|48:267,1,72,0|2,2:0|2:0,0:0:0:0:
140,0,20480,5,2,1:2:0:0:
100,60,20605,1,2,2:0:0:0:
157,113,20730,1,0,2:0:0:0:
117,173,20855,1,2,2:0:0:0:
176,220,20980,2,0,P|182:282|195:372,1,144,2|2,1:2|2:0,0:0:0:0:
122,384,21355,1,0,2:0:0:0:
17,199,21480,6,0,P|10:128|0:57,1,144,2|2,1:2|2:0,0:0:0:0:
160,207,21855,1,2,2:0:0:0:
168,213,21917,1,2,2:0:0:0:
176,220,21980,2,0,P|182:282|195:372,1,144,2|2,1:2|2:0,0:0:0:0:
122,384,22355,1,2,2:0:0:0:
20,281,22480,6,0,P|55:274|91:271,1,72,2|2,1:2|2:0,0:0:0:0:
228,103,22730,2,0,P|192:109|156:112,1,72,2|2,2:0|2:0,0:0:0:0:
100,60,22980,1,2,1:2:0:0:
284,281,23230,2,0,P|319:274|355:271,1,72,2|2,2:0|2:0,0:0:0:0:
436,209,23480,6,0,P|447:120|466:29,1,180,6|0,3:2|3:0,0:0:0:0:
76,175,24480,2,0,P|65:264|46:355,1,180,2|2,3:2|3:2,0:0:0:0:
214,99,25480,6,0,P|121:106|94:32,1,180,6|0,3:2|3:0,0:0:0:0:
298,285,26480,2,0,P|391:278|418:352,1,180,2|2,3:2|3:2,0:0:0:0:
333,156,27480,6,0,B|220:146|290:242|183:226,1,180,6|0,3:2|3:0,0:0:0:0:
122,187,28230,1,0,2:0:0:0:
48,274,28480,2,0,B|161:264|91:360|198:344,1,180,2|2,3:2|3:2,0:0:0:0:
330,241,29480,6,0,P|289:160|264:65,1,180,6|0,3:2|3:0,0:0:0:0:
301,7,30230,1,2,2:0:0:0:
194,134,30480,2,0,L|167:129,7,22.5,2|2|2|2|2|2|2|2,3:2|2:0|2:0|2:0|2:0|2:0|2:0|2:0,0:0:0:0:
171,129,30980,2,0,P|172:77|79:58,1,157.5,2|0,3:2|0:0,0:0:0:0:
41,116,31480,6,0,P|55:169|60:224,1,107.999996704102,6|2,3:2|2:0,0:0:0:0:
151,331,31980,1,0,3:0:0:0:
214,292,32105,1,2,2:0:0:0:
282,321,32230,2,0,P|314:317|340:311,1,53.9999983520508,0|2,2:0|2:0,0:0:0:0:
429,181,32480,5,2,3:2:0:0:
433,313,32605,2,0,P|386:250|320:188,1,161.999995056153,0|2,0:0|3:2,0:0:0:0:
181,149,33355,5,2,2:0:0:0:
181,149,33480,2,0,P|200:173|229:182,1,53.9999983520508,6|0,3:2|2:0,0:0:0:0:
363,73,33730,2,0,P|344:97|317:110,1,53.9999983520508,2|2,2:0|2:0,0:0:0:0:
240,36,33980,2,0,P|233:65|245:93,1,53.9999983520508,2|2,3:2|2:0,0:0:0:0:
320,186,34230,1,0,2:0:0:0:
320,186,34355,1,2,2:0:0:0:
237,267,34480,6,0,L|204:259,7,26.9999991760254,2|0|0|0|2|0|2|0,3:2|0:0|0:0|0:0|2:0|0:0|2:0|0:0,0:0:0:0:
210,260,34980,2,0,P|196:333|116:324,1,161.999995056153,2|2,3:2|2:0,0:0:0:0:
24,318,35480,6,0,P|28:284|52:262,1,53.9999983520508,6|0,3:2|2:0,0:0:0:0:
132,246,35730,2,0,P|107:199|99:133,1,107.999996704102,2|2,2:0|3:2,0:0:0:0:
98,145,36105,1,2,2:0:0:0:
190,4,36355,5,2,2:0:0:0:
77,60,36480,2,0,B|192:31|136:164|268:130,1,215.999993408203,2|2,3:2|3:2,0:0:0:0:
354,44,37230,5,2,2:0:0:0:
354,44,37355,1,2,2:0:0:0:
414,106,37480,2,0,P|409:134|394:159,3,53.9999983520508,6|2|2|0,3:2|2:0|2:0|2:0,0:0:0:0:
325,185,37980,1,2,3:2:0:0:
397,248,38105,2,0,P|337:257|282:273,1,107.999996704102,2|2,2:0|2:0,0:0:0:0:
177,304,38480,6,0,L|165:333,7,26.9999991760254,2|2|2|2|2|2|2|2,3:2|2:0|2:0|2:0|2:0|2:0|2:0|2:0,0:0:0:0:
222,380,38980,1,2,3:2:0:0:
89,228,39230,1,2,2:3:0:0:
89,228,39480,6,0,P|197:212|281:193,1,180,6|4,1:2|2:3,0:0:0:0:
512,214,39862,2,0,P|404:230|320:249,1,180,8|8,2:3|2:3,0:0:0:0:
181,126,40245,2,0,P|245:113|290:102,1,90,0|4,1:0|2:3,0:0:0:0:
392,0,40500,5,6,1:2:0:0:
351,152,40625,1,0,0:0:0:0:
494,64,40750,1,4,2:3:0:0:
297,34,40875,5,8,2:3:0:0:
434,205,41000,1,0,0:0:0:0:
266,196,41125,1,4,2:3:0:0:
369,74,41250,6,0,P|357:141|352:197,1,90,0|0,1:0|2:0,0:0:0:0:
99,336,41500,6,0,P|87:285|75:221,1,90,4|0,1:2|2:0,0:0:0:0:
161,38,41744,2,0,P|173:89|185:153,1,90,4|8,2:3|2:3,0:0:0:0:
82,158,41989,5,0,2:0:0:0:
187,239,42112,1,8,2:3:0:0:
13,363,42234,1,0,1:0:0:0:
80,249,42357,1,4,2:3:0:0:
202,323,42480,6,0,P|310:348|405:375,1,180,6|4,1:2|2:3,0:0:0:0:
180,125,42862,2,0,P|72:100|-23:73,1,180,8|4,2:3|0:3,0:0:0:0:
278,249,43245,1,0,1:0:0:0:
374,228,43373,1,0,0:0:0:0:
470,207,43500,5,6,1:2:0:0:
46,15,43744,5,8,2:3:0:0:
5,81,43867,1,8,2:3:0:0:
77,109,43989,1,4,2:3:0:0:
138,61,44112,5,8,2:3:0:0:
241,169,44234,1,0,1:0:0:0:
127,267,44357,1,4,2:3:0:0:
63,200,44480,6,0,P|112:189|159:172,1,90,6|4,1:2|2:3,0:0:0:0:
430,104,44730,1,4,2:3:0:0:
401,31,44855,2,0,P|335:49|346:165,1,180,8|0,2:3|2:0,0:0:0:0:
454,338,45230,2,0,P|509:280|492:242,1,90,8|4,1:3|2:3,0:0:0:0:
460,210,45480,5,6,1:2:0:0:
318,339,45605,1,4,2:3:0:0:
149,175,45730,5,4,2:3:0:0:
263,214,45855,1,4,1:2:0:0:
173,358,45980,5,0,2:3:0:0:
71,300,46105,1,4,2:3:0:0:
151,278,46230,1,4,2:0:0:0:
93,380,46355,1,4,2:3:0:0:
245,291,46480,6,0,P|289:236|271:201,1,90,4|4,2:3|1:2,0:0:0:0:
74,39,46727,2,0,P|66:88|98:120,1,90,4|4,2:3|2:3,0:0:0:0:
90,116,46912,1,0,0:0:0:0:
90,116,46974,1,4,1:2:0:0:
201,27,47098,5,0,0:0:0:0:
178,158,47222,1,4,1:2:0:0:
155,289,47345,1,4,1:3:0:0:
0,333,47469,6,0,P|19:235|114:228,1,180,4|4,1:2|2:3,0:0:0:0:
190,79,47840,2,0,P|240:101|240:159,1,90,8|0,2:3|2:0,0:0:0:0:
199,361,48088,1,4,2:3:0:0:
155,289,48211,2,0,P|178:245|234:238,1,90,0|4,1:0|2:3,0:0:0:0:
440,359,48460,5,6,1:2:0:0:
325,314,48585,1,0,0:0:0:0:
457,273,48710,1,4,2:3:0:0:
359,234,48835,5,8,2:3:0:0:
474,189,48960,1,0,0:0:0:0:
342,148,49085,1,4,2:3:0:0:
406,102,49210,6,0,P|453:109|505:113,1,90,0|0,1:0|2:0,0:0:0:0:
359,234,49460,2,0,P|232:211|151:205,1,180,6|4,1:2|2:3,0:0:0:0:
63,94,49835,1,8,2:3:0:0:
17,161,49960,5,0,2:0:0:0:
0,47,50085,1,4,2:3:0:0:
114,30,50210,1,0,1:0:0:0:
131,144,50335,1,4,2:3:0:0:
63,94,50460,1,6,1:2:0:0:
91,263,50585,6,0,P|198:290|306:324,1,180,0|8,0:0|2:3,0:0:0:0:
475,77,50960,2,0,P|427:66|376:48,1,90,0|4,0:0|2:3,0:0:0:0:
265,311,51210,5,0,1:0:0:0:
361,287,51335,1,0,2:0:0:0:
457,264,51460,5,6,1:2:0:0:
3,59,51710,5,4,2:3:0:0:
80,81,51835,1,0,2:0:0:0:
92,160,51960,1,4,2:3:0:0:
63,360,52085,5,4,2:3:0:0:
38,219,52210,1,0,1:0:0:0:
167,155,52335,1,4,2:3:0:0:
193,271,52460,6,0,P|128:254|111:220,1,90,6|4,1:2|2:3,0:0:0:0:
44,227,52710,1,0,0:0:0:0:
273,37,52835,6,0,P|202:49|183:156,1,180,8|4,2:3|0:3,0:0:0:0:
410,306,53210,6,0,P|443:268|440:226,1,62.9999980773926,0|0,1:0|0:0,0:0:0:0:
265,127,53335,2,0,P|267:168|299:192,1,62.9999980773926
362,222,53460,5,6,1:2:0:0:
362,222,55194,6,0,P|367:196|372:175,1,40.4999987640381,2|0,2:3|0:0,0:0:0:0:
370,182,55480,6,0,P|280:172|192:153,1,180,6|12,1:2|2:3,0:0:0:0:
130,201,55855,1,4,2:3:0:0:
227,370,55980,1,4,1:2:0:0:
278,317,56105,1,4,2:3:0:0:
279,308,56167,1,2,2:3:0:0:
281,299,56230,1,12,2:3:0:0:
225,239,56355,1,6,2:3:0:0:
256,38,56480,5,4,1:2:0:0:
302,97,56605,2,0,P|292:141|287:185,1,90,4|12,2:3|2:3,0:0:0:0:
130,201,56855,1,6,2:3:0:0:
84,142,56980,2,0,P|93:97|98:53,1,90,4|4,1:2|0:3,0:0:0:0:
325,0,57230,1,12,2:3:0:0:
373,60,57355,1,4,2:3:0:0:
454,25,57480,6,0,P|435:112|425:202,1,180,6|12,1:2|2:3,0:0:0:0:
359,245,57855,1,4,2:3:0:0:
177,304,57980,1,4,1:2:0:0:
225,239,58105,1,4,2:3:0:0:
223,230,58167,1,2,2:3:0:0:
222,221,58230,1,12,2:3:0:0:
148,191,58355,1,6,2:3:0:0:
256,38,58480,5,4,1:2:0:0:
187,0,58605,2,0,P|181:44|173:88,1,90,12|4,2:3|2:3,0:0:0:0:
222,221,58855,1,6,2:3:0:0:
291,259,58980,2,0,P|296:214|304:170,1,90,4|0,1:2|1:0,0:0:0:0:
97,53,59230,1,10,1:3:0:0:
32,10,59355,1,10,1:3:0:0:
13,85,59480,6,0,P|7:129|0:173,1,90,6|4,1:2|2:3,0:0:0:0:
112,284,59730,2,0,P|117:239|125:195,1,90,14|6,2:3|2:3,0:0:0:0:
187,0,59980,2,0,P|181:44|173:88,1,90,4|4,1:2|2:3,0:0:0:0:
291,259,60230,2,0,P|296:214|304:170,1,90,14|6,2:3|2:3,0:0:0:0:
454,25,60480,5,4,1:2:0:0:
373,60,60605,1,6,2:3:0:0:
371,69,60667,1,0,0:0:0:0:
370,78,60730,1,12,2:3:0:0:
429,140,60855,1,6,2:3:0:0:
291,259,60980,5,4,1:2:0:0:
211,272,61105,1,6,2:3:0:0:
225,352,61230,1,12,2:3:0:0:
304,338,61355,1,6,2:3:0:0:
303,170,61480,6,0,P|214:186|125:195,1,180,4|12,1:2|2:3,0:0:0:0:
225,352,61855,1,6,2:3:0:0:
304,338,61980,2,0,P|393:347|481:363,1,180,4|14,1:2|2:3,0:0:0:0:
512,293,62355,1,4,2:3:0:0:
499,153,62480,5,2,1:0:0:0:
462,223,62605,1,0,1:0:0:0:
290,70,62730,1,0,1:0:0:0:
327,0,62855,1,0,1:0:0:0:
398,176,62980,5,2,1:0:0:0:
361,246,63105,1,2,1:3:0:0:
189,93,63230,1,10,1:3:0:0:
226,23,63355,1,10,1:3:0:0:
290,70,63480,6,0,P|273:158|264:248,1,180,6|12,1:2|2:3,0:0:0:0:
197,292,63855,1,4,2:3:0:0:
8,145,63980,1,4,1:2:0:0:
67,92,64105,1,4,2:3:0:0:
68,83,64167,1,2,2:3:0:0:
70,74,64230,1,12,2:3:0:0:
11,21,64355,1,4,2:3:0:0:
226,23,64480,5,4,1:2:0:0:
290,70,64605,2,0,P|334:78|378:82,1,90,12|4,2:3|2:3,0:0:0:0:
197,292,64855,1,4,2:3:0:0:
133,245,64980,2,0,P|88:236|44:232,1,90,4|4,1:2|0:3,0:0:0:0:
189,93,65230,1,12,2:3:0:0:
254,145,65355,1,4,2:3:0:0:
290,70,65480,5,6,1:2:0:0:
290,70,65605,2,0,P|334:78|378:82,1,90,4|12,2:3|2:3,0:0:0:0:
408,155,65855,1,4,2:3:0:0:
256,345,65980,1,4,1:2:0:0:
197,292,66105,1,4,2:3:0:0:
198,283,66167,1,2,2:3:0:0:
200,274,66230,1,12,2:3:0:0:
270,234,66355,1,4,2:3:0:0:
189,93,66480,5,4,1:2:0:0:
122,48,66605,2,0,P|117:92|109:137,1,90,12|4,2:3|2:3,0:0:0:0:
323,291,66855,1,4,2:3:0:0:
390,336,66980,2,0,P|394:291|402:246,1,90,4|0,1:2|1:0,0:0:0:0:
167,191,67230,1,10,2:3:0:0:
104,238,67355,1,14,2:3:0:0:
39,192,67480,6,0,P|-23:130|8:44,1,180,6|14,1:2|2:3,0:0:0:0:
60,0,67855,1,6,2:3:0:0:
167,191,67980,2,0,P|229:253|197:338,1,180,4|14,1:2|2:3,0:0:0:0:
146,383,68355,1,6,2:3:0:0:
61,260,68480,6,0,P|69:304|73:349,1,90,4|6,1:2|2:3,0:0:0:0:
274,235,68730,2,0,P|265:190|261:145,1,90,12|6,2:3|2:3,0:0:0:0:
192,244,68980,2,0,P|200:288|204:333,1,90,4|4,1:2|2:3,0:0:0:0:
339,89,69230,2,0,P|330:44|326:0,1,90,14|6,2:3|2:3,0:0:0:0:
256,37,69480,5,4,1:2:0:0:
185,0,69605,1,4,2:3:0:0:
125,53,69730,2,0,P|133:97|137:142,1,90,14|4,2:3|2:3,0:0:0:0:
401,246,69980,2,0,P|393:202|389:157,1,90,4|4,1:2|2:3,0:0:0:0:
339,89,70230,1,14,2:3:0:0:
339,89,70292,1,4,2:3:0:0:
339,89,70355,1,4,2:3:0:0:
339,89,71480,6,0,P|293:78|265:161,1,144,6|2,1:2|2:0,0:0:0:0:
374,271,71855,1,2,2:0:0:0:
277,323,71980,2,0,P|286:281|291:247,1,72,2|2,1:2|2:0,0:0:0:0:
406,164,72230,1,0,2:0:0:0:
406,164,72355,1,2,2:0:0:0:
202,286,72480,5,2,1:2:0:0:
156,218,72605,1,2,2:0:0:0:
64,315,72730,1,0,2:0:0:0:
140,346,72855,1,2,2:0:0:0:
73,230,72980,2,0,P|59:164|131:121,1,144,2|2,1:2|2:0,0:0:0:0:
276,101,73355,5,0,2:0:0:0:
223,46,73480,2,0,P|150:39|79:31,1,144,2|2,1:2|2:0,0:0:0:0:
196,150,73855,1,2,2:0:0:0:
340,25,73980,2,0,L|352:110,1,72,2|2,1:2|2:0,0:0:0:0:
290,252,74230,2,0,L|278:167,1,72,0|2,2:0|2:0,0:0:0:0:
388,234,74480,5,2,1:2:0:0:
224,308,74605,1,2,2:0:0:0:
346,349,74730,1,0,2:0:0:0:
346,349,74855,1,2,2:0:0:0:
274,172,74980,5,2,1:2:0:0:
404,113,75105,1,2,2:0:0:0:
244,52,75230,1,2,2:0:0:0:
83,191,75480,6,0,P|110:261|171:249,1,144,6|2,1:2|2:0,0:0:0:0:
204,185,75855,1,2,2:0:0:0:
296,286,75980,2,0,P|254:287|228:316,1,72,2|2,1:2|2:0,0:0:0:0:
188,370,76230,1,0,2:0:0:0:
188,370,76355,1,2,2:0:0:0:
417,351,76480,5,2,1:2:0:0:
385,281,76605,1,2,2:0:0:0:
448,237,76730,1,0,2:0:0:0:
418,166,76855,1,2,2:0:0:0:
486,131,76980,2,0,P|490:75|440:46,1,108,2|0,1:2|0:0,0:0:0:0:
451,46,77230,2,0,L|377:63,1,72,2|0,2:0|2:0,0:0:0:0:
280,152,77480,6,0,P|269:224|254:303,1,144,2|2,1:2|2:0,0:0:0:0:
184,314,77855,1,2,2:0:0:0:
87,214,77980,2,0,P|93:177|121:157,1,72,2|0,1:2|0:0,0:0:0:0:
190,191,78230,1,2,2:0:0:0:
190,191,78355,1,2,2:0:0:0:
65,68,78480,5,2,1:2:0:0:
150,36,78605,1,2,2:0:0:0:
204,109,78730,1,2,2:0:0:0:
289,77,78855,1,2,2:0:0:0:
343,150,78980,2,0,L|357:227,1,72,2|0,1:2|0:0,0:0:0:0:
429,109,79230,5,2,2:0:0:0:
282,258,79355,1,2,2:0:0:0:
463,336,79480,6,0,P|397:350|312:381,1,144,6|2,1:2|2:0,0:0:0:0:
260,334,79855,1,2,2:0:0:0:
184,227,79980,2,0,L|194:303,1,72,2|2,1:2|2:0,0:0:0:0:
266,181,80230,1,0,2:0:0:0:
266,181,80355,1,2,2:0:0:0:
97,137,80480,5,2,1:2:0:0:
115,59,80605,1,2,2:0:0:0:
197,120,80730,1,0,2:0:0:0:
180,15,80855,1,2,2:0:0:0:
91,147,80980,2,0,P|86:215|78:296,1,144,2|2,1:2|2:0,0:0:0:0:
223,278,81355,5,0,2:0:0:0:
276,334,81480,2,0,P|341:327|329:244,1,144,2|2,1:2|2:0,0:0:0:0:
274,135,81855,1,2,2:0:0:0:
183,190,81980,2,0,P|192:152|198:110,1,72,2|2,1:2|2:0,0:0:0:0:
366,80,82230,2,0,P|357:118|351:160,1,72,0|2,2:0|2:0,0:0:0:0:
335,247,82480,5,2,1:2:0:0:
472,172,82605,1,2,2:0:0:0:
438,284,82730,1,0,2:0:0:0:
438,284,82855,1,2,2:0:0:0:
358,166,82980,5,2,1:2:0:0:
367,363,83105,1,2,2:0:0:0:
258,262,83230,1,2,2:0:0:0:
424,105,83480,6,0,P|425:57|343:30,1,144,6|2,1:2|2:0,0:0:0:0:
255,140,83855,1,2,2:0:0:0:
150,75,83980,2,0,P|189:70|227:64,1,72,2|2,1:2|2:0,0:0:0:0:
164,202,84230,1,0,2:0:0:0:
164,202,84355,1,2,2:0:0:0:
351,297,84480,5,2,1:2:0:0:
330,212,84605,1,2,2:0:0:0:
265,312,84730,1,0,2:0:0:0:
247,228,84855,1,2,2:0:0:0:
408,358,84980,6,0,P|465:355|470:299,1,108,2|0,1:2|0:0,0:0:0:0:
476,312,85230,2,0,L|461:234,1,72,2|0,2:0|2:0,0:0:0:0:
312,60,85480,6,0,P|323:137|335:216,1,144,2|2,1:2|2:0,0:0:0:0:
401,162,85855,1,2,2:0:0:0:
265,312,85980,2,0,P|190:306|184:234,1,144,2|2,1:2|2:0,0:0:0:0:
232,200,86355,1,2,2:0:0:0:
83,161,86480,5,2,1:2:0:0:
162,140,86605,1,2,2:0:0:0:
98,73,86730,1,2,2:0:0:0:
215,88,86855,1,2,2:0:0:0:
151,0,86980,1,2,1:2:0:0:
369,112,87230,5,2,2:0:0:0:
332,202,87355,1,2,2:0:0:0:
295,292,87480,1,6,3:2:0:0:
301,299,87730,6,0,P|346:310|384:326,1,72,0|2,2:0|2:0,0:0:0:0:
238,216,87980,1,0,3:0:0:0:
238,216,88105,2,0,P|167:200|100:175,1,144,2|2,2:0|2:0,0:0:0:0:
40,100,88480,6,0,P|66:76|101:75,1,72,2|0,3:2|2:0,0:0:0:0:
69,250,88730,2,0,P|22:217|27:183,1,72,2|0,2:0|2:0,0:0:0:0:
202,46,88980,6,0,P|189:102|184:137,1,72,0|0,3:2|0:0,0:0:0:0:
246,225,89230,1,0,2:0:0:0:
322,60,89355,1,2,2:0:0:0:
377,123,89480,5,6,3:2:0:0:
381,132,89730,2,0,P|424:145|475:174,1,72,2|2,2:0|2:0,0:0:0:0:
343,295,89980,1,0,2:0:0:0:
343,295,90105,2,0,P|412:262|498:246,1,144,2|2,2:0|2:0,0:0:0:0:
264,240,90480,5,2,3:2:0:0:
264,240,90605,2,0,P|195:273|109:289,1,144,0|2,0:0|2:0,0:0:0:0:
96,358,90980,5,2,3:2:0:0:
448,156,91230,1,0,2:0:0:0:
399,96,91355,1,0,2:0:0:0:
469,60,91480,5,6,3:2:0:0:
477,57,91730,2,0,P|416:45|379:33,1,72,2|2,2:0|2:0,0:0:0:0:
354,174,91980,1,0,3:0:0:0:
354,174,92105,2,0,P|304:145|274:46,1,144,2|2,2:0|2:0,0:0:0:0:
83,20,92480,5,2,3:2:0:0:
83,20,92605,2,0,P|101:103|114:179,1,144,0|0,0:0|2:0,0:0:0:0:
52,218,92980,2,0,P|62:261|70:307,1,72,0|0,3:0|0:0,0:0:0:0:
188,121,93230,2,0,P|178:78|170:32,1,72,0|0,2:0|2:0,0:0:0:0:
184,210,93480,5,6,3:2:0:0:
189,215,93730,2,0,P|235:234|269:267,1,72,0|2,2:0|2:0,0:0:0:0:
166,369,93980,1,0,3:0:0:0:
166,369,94105,2,0,P|254:326|327:329,1,144,0|2,2:0|2:0,0:0:0:0:
473,194,94480,5,2,3:2:0:0:
473,194,94605,2,0,P|385:237|312:234,1,144,2|0,2:0|2:0,0:0:0:0:
290,178,94980,1,2,3:2:0:0:
474,23,95230,1,0,2:0:0:0:
443,96,95355,1,0,2:0:0:0:
368,71,95480,5,6,3:2:0:0:
365,76,95730,2,0,P|312:61|270:44,1,72,2|2,2:0|2:0,0:0:0:0:
154,126,95980,1,0,3:0:0:0:
154,126,96105,2,0,P|248:152|323:183,1,144,2|2,2:0|2:0,0:0:0:0:
341,319,96480,5,2,3:2:0:0:
400,366,96605,2,0,P|379:278|368:211,1,144,0|0,0:0|2:0,0:0:0:0:
472,166,96980,5,0,3:0:0:0:
460,243,97105,1,0,0:0:0:0:
262,346,97230,1,2,2:0:0:0:
274,269,97355,1,2,2:0:0:0:
341,319,97480,5,6,3:2:0:0:
343,329,97730,2,0,P|305:340|262:361,1,72,0|2,2:0|2:0,0:0:0:0:
79,318,97980,1,2,3:2:0:0:
79,318,98105,2,0,P|167:343|199:395,1,144,2|2,2:0|2:0,0:0:0:0:
198,226,98480,5,2,3:2:0:0:
198,226,98605,2,0,P|128:213|50:188,1,144,0|0,0:0|2:0,0:0:0:0:
5,247,98980,1,0,3:0:0:0:
257,38,99230,1,0,2:0:0:0:
201,89,99355,1,2,2:0:0:0:
258,141,99480,5,6,3:2:0:0:
266,148,99730,2,0,P|317:134|359:129,1,72,2|0,2:0|2:0,0:0:0:0:
473,32,99980,1,2,3:2:0:0:
473,32,100105,2,0,P|390:48|315:57,1,144,2|2,2:0|2:0,0:0:0:0:
383,193,100480,5,0,3:0:0:0:
455,169,100605,1,2,2:0:0:0:
329,296,100730,5,2,2:0:0:0:
407,309,100855,2,0,P|444:297|483:289,1,72,0|0,2:0|3:0,0:0:0:0:
85,185,101230,1,2,2:0:0:0:
100,261,101355,1,2,2:0:0:0:
115,337,101480,5,6,3:2:0:0:
128,344,101730,2,0,P|169:352|199:368,1,72,2|0,2:0|2:0,0:0:0:0:
100,261,101980,1,2,3:2:0:0:
100,261,102105,2,0,P|171:224|236:220,1,144,2|2,2:0|2:0,0:0:0:0:
396,89,102480,5,2,3:2:0:0:
396,89,102605,2,0,P|325:126|260:130,1,144,2|2,0:0|2:0,0:0:0:0:
121,23,102948,5,4,2:3:0:0:
120,30,103016,1,4,0:3:0:0:
119,37,103084,1,4,2:3:0:0:
118,44,103152,1,4,2:3:0:0:
117,51,103220,2,0,L|131:141,1,72,2|0,2:3|2:0,0:0:0:0:
66,227,103480,6,0,P|150:213|186:297,1,180,6|4,1:2|2:3,0:0:0:0:
398,280,103855,2,0,P|314:294|278:210,1,180,8|8,2:3|2:3,0:0:0:0:
181,91,104230,2,0,P|146:126|154:189,1,90,0|4,1:0|2:3,0:0:0:0:
251,357,104480,5,6,1:2:0:0:
358,210,104605,1,0,0:0:0:0:
223,155,104730,1,4,2:3:0:0:
379,309,104855,5,8,2:3:0:0:
486,162,104980,1,0,0:0:0:0:
351,107,105105,1,4,2:3:0:0:
488,342,105230,6,0,P|477:295|467:243,1,90,0|0,1:0|2:0,0:0:0:0:
373,9,105480,6,0,P|366:53|359:106,1,90,4|0,1:2|2:0,0:0:0:0:
202,252,105724,2,0,P|209:208|216:155,1,90,4|8,2:3|2:3,0:0:0:0:
144,92,105969,5,0,2:0:0:0:
310,194,106092,1,8,2:3:0:0:
265,66,106214,1,0,1:0:0:0:
114,232,106337,1,4,2:3:0:0:
263,325,106460,6,0,P|342:307|452:287,1,180,6|4,1:2|2:3,0:0:0:0:
215,162,106831,1,8,2:3:0:0:
215,162,106954,2,0,P|166:178|120:191,1,90,0|4,2:0|0:3,0:0:0:0:
265,66,107202,2,0,P|359:50|454:28,1,180,0|6,1:0|1:2,0:0:0:0:
291,259,107704,6,0,P|299:215|306:164,1,90,8|0,2:3|2:0,0:0:0:0:
190,34,107959,1,4,2:3:0:0:
124,109,108087,1,8,2:3:0:0:
215,162,108214,1,0,1:0:0:0:
149,237,108342,1,4,2:3:0:0:
345,343,108470,5,6,1:2:0:0:
345,343,108597,2,0,P|392:333|436:325,1,90,4|4,2:3|2:3,0:0:0:0:
313,176,108853,2,0,B|299:275|247:227|241:353,1,180,8|0,2:3|2:0,0:0:0:0:
76,186,109236,5,8,1:3:0:0:
76,186,109363,1,4,2:3:0:0:
166,253,109491,5,6,1:2:0:0:
207,141,109613,1,4,2:3:0:0:
244,28,109735,1,4,2:3:0:0:
394,129,109858,5,4,1:2:0:0:
301,160,109980,1,0,2:3:0:0:
317,63,110103,1,4,2:3:0:0:
444,205,110225,5,4,2:0:0:0:
381,297,110348,1,4,2:3:0:0:
452,194,110470,1,4,2:3:0:0:
478,331,110593,5,4,1:2:0:0:
333,231,110715,2,0,P|287:240|225:250,1,90,4|4,2:3|0:3,0:0:0:0:
29,294,110960,5,4,1:2:0:0:
156,214,111087,1,0,2:0:0:0:
52,189,111215,1,4,1:2:0:0:
130,320,111342,1,4,1:3:0:0:
251,239,111470,6,0,P|227:164|208:58,1,180,4|4,1:2|2:3,0:0:0:0:
393,185,111848,2,0,P|369:260|350:366,1,180,8|4,2:3|2:3,0:0:0:0:
59,179,112227,2,0,P|107:171|156:161,1,90,0|4,1:0|2:3,0:0:0:0:
315,55,112480,5,6,1:2:0:0:
399,179,112605,1,0,0:0:0:0:
252,234,112730,1,4,2:3:0:0:
418,94,112855,5,8,2:3:0:0:
502,218,112980,1,0,2:0:0:0:
355,273,113105,1,4,2:3:0:0:
479,350,113230,5,0,1:0:0:0:
479,350,113355,1,0,2:0:0:0:
399,179,113480,6,0,P|352:174|300:165,1,90,6|0,1:2|2:0,0:0:0:0:
105,289,113730,2,0,P|152:294|204:303,1,90,4|8,2:3|2:3,0:0:0:0:
191,61,113980,2,0,P|193:109|76:141,1,180,0|0,2:0|1:0,0:0:0:0:
46,82,114355,1,4,2:3:0:0:
302,160,114480,6,0,P|309:243|322:343,1,180,6|4,1:2|2:3,0:0:0:0:
451,187,114855,1,8,2:3:0:0:
451,187,114980,2,0,P|436:141|386:130,1,90,0|4,2:0|2:3,0:0:0:0:
273,275,115230,5,0,1:0:0:0:
211,145,115355,1,0,2:0:0:0:
149,14,115480,1,6,1:2:0:0:
229,50,115730,5,4,2:3:0:0:
213,137,115855,1,8,2:3:0:0:
198,225,115980,1,0,2:0:0:0:
355,357,116105,5,4,2:3:0:0:
273,276,116230,1,0,1:0:0:0:
382,239,116355,1,4,2:3:0:0:
300,158,116480,2,0,P|252:167|205:175,1,90,6|4,1:2|2:3,0:0:0:0:
119,2,116730,5,4,2:3:0:0:
10,39,116855,1,8,2:3:0:0:
92,120,116980,2,0,P|140:111|187:103,1,90,0|4,2:0|2:3,0:0:0:0:
247,20,117230,5,0,1:0:0:0:
364,58,117355,1,0,2:0:0:0:
305,166,117480,6,0,P|285:253|277:350,1,180,6|8,1:2|2:3,0:0:0:0:
192,192,117855,1,0,1:0:0:0:
380,315,117980,2,0,P|466:306|462:218,1,180,4|8,2:3|1:3,0:0:0:0:
320,63,118355,1,4,2:3:0:0:
439,45,118480,5,4,2:3:0:0:
439,45,118605,2,0,P|429:100|421:154,1,90,4|0,1:2|2:0,0:0:0:0:
249,261,118855,1,0,2:0:0:0:
117,77,118980,5,0,1:0:0:0:
201,176,119105,1,0,1:0:0:0:
71,201,119230,1,0,1:0:0:0:
155,300,119355,1,0,1:0:0:0:
0,384,119480,6,0,P|52:374|141:365,1,125.999996154785,2|0,2:0|2:0,0:0:0:0:
127,152,119855,2,0,P|75:162|-14:171,1,125.999996154785,2|0,2:0|2:0,0:0:0:0:
46,243,120230,1,2,2:0:0:0:
215,61,120480,5,0,2:0:0:0:
265,117,120605,1,2,2:0:0:0:
272,127,120667,1,2,2:0:0:0:
265,139,120730,1,0,2:0:0:0:
201,176,120855,1,2,2:0:0:0:
265,229,120980,2,0,P|274:272|277:296,1,62.9999980773926,2|2,2:0|2:0,0:0:0:0:
423,133,121230,2,0,P|427:101|434:71,1,62.9999980773926,2|0,2:0|2:0,0:0:0:0:
404,0,121480,5,2,2:0:0:0:
340,41,121605,2,0,P|308:37|277:30,1,62.9999980773926,0|2,2:0|2:0,0:0:0:0:
360,175,121855,5,2,2:0:0:0:
423,133,121980,2,0,P|454:136|485:143,1,62.9999980773926,0|2,2:0|2:0,0:0:0:0:
379,308,122230,5,2,2:0:0:0:
316,350,122355,1,0,2:0:0:0:
276,290,122480,5,2,2:0:0:0:
213,332,122605,2,0,L|209:368,2,31.4999990386963,2|2|2,2:0|2:0|2:0,0:0:0:0:
173,272,122855,1,2,2:0:0:0:
110,314,122980,2,0,P|78:318|47:323,1,62.9999980773926,2|0,2:0|2:0,0:0:0:0:
138,185,123230,2,0,P|169:180|200:175,1,62.9999980773926,2|2,2:0|2:0,0:0:0:0:
339,40,123480,6,0,P|401:52|464:59,1,125.999996154785,2|0,2:0|2:0,0:0:0:0:
512,259,123855,2,0,P|450:247|387:240,1,125.999996154785,2|0,2:0|2:0,0:0:0:0:
360,175,124230,1,2,2:0:0:0:
209,363,124480,5,0,2:0:0:0:
173,294,124605,1,2,2:0:0:0:
180,282,124667,1,2,2:0:0:0:
173,272,124730,1,0,2:0:0:0:
248,238,124855,1,2,2:0:0:0:
197,174,124980,2,0,P|165:170|134:164,1,62.9999980773926,2|2,2:0|2:0,0:0:0:0:
0,310,125230,2,0,P|31:313|62:319,1,62.9999980773926,2|0,2:0|2:0,0:0:0:0:
97,249,125480,5,2,2:0:0:0:
38,204,125605,2,0,P|34:172|28:141,1,62.9999980773926,0|2,2:0|2:0,0:0:0:0:
178,1,125855,5,2,2:0:0:0:
237,46,125980,2,0,P|240:77|246:108,1,62.9999980773926,0|2,2:0|2:0,0:0:0:0:
206,236,126230,2,0,P|202:204|196:173,1,62.9999980773926,2|0,2:0|2:0,0:0:0:0:
310,24,126480,6,0,P|378:13|426:52,1,125.999996154785,2|2,2:0|2:0,0:0:0:0:
421,44,126792,1,2,2:0:0:0:
421,44,126855,2,0,L|428:97,1,31.4999990386963,2|2,2:0|2:0,0:0:0:0:
484,119,126980,2,0,P|491:181|502:243,1,125.999996154785,2|2,2:1|0:3,0:0:0:0:
463,306,127355,1,0,2:0:0:0:
337,382,127480,6,0,P|223:356|87:337,1,215.999993408203,4|4,1:2|2:3,0:0:0:0:
101,54,127855,2,0,P|215:80|299:92,1,161.999995056153,0|0,1:0|0:0,0:0:0:0:
259,87,128105,1,0,2:0:0:0:
71,283,128230,2,0,P|16:240|68:195,1,107.999996704102,0|0,1:0|0:0,0:0:0:0:
177,113,128480,6,0,P|195:186|201:229,1,107.999996704102,0|0,1:0|2:0,0:0:0:0:
199,218,128667,1,2,0:0:0:0:
199,218,128730,2,0,P|271:200|329:190,1,107.999996704102,2|2,2:0|1:2,0:0:0:0:
397,239,128980,5,2,2:0:0:0:
504,180,129105,1,2,2:0:0:0:
421,156,129230,1,0,1:0:0:0:
480,263,129355,1,2,2:0:0:0:
450,29,129480,6,0,P|368:23|329:140,1,215.999993408203,0|4,1:0|2:3,0:0:0:0:
345,356,129855,2,0,P|410:318|376:229,1,161.999995056153,0|0,1:0|0:0,0:0:0:0:
396,242,130105,1,0,2:0:0:0:
177,113,130230,2,0,P|130:162|153:203,1,107.999996704102,0|0,1:0|0:0,0:0:0:0:
137,360,130480,5,0,1:0:0:0:
62,294,130605,1,2,2:0:0:0:
62,294,130667,1,2,2:0:0:0:
62,294,130730,2,0,P|129:278|192:266,1,107.999996704102,2|2,2:0|1:2,0:0:0:0:
270,161,130980,5,2,2:0:0:0:
253,236,131105,1,0,2:0:0:0:
65,130,131230,5,2,1:2:0:0:
82,55,131355,1,2,2:0:0:0:
176,120,131480,6,0,P|240:71|395:76,1,215.999993408203,2|4,1:2|2:3,0:0:0:0:
435,255,131855,2,0,P|496:210|443:154,1,161.999995056153,2|0,1:2|0:0,0:0:0:0:
441,164,132105,1,0,2:0:0:0:
296,309,132230,2,0,P|356:321|377:363,1,107.999996704102,2|0,1:2|0:0,0:0:0:0:
100,384,132480,6,0,P|64:331|107:288,1,107.999996704102,0|2,1:0|2:0,0:0:0:0:
82,298,132667,1,2,0:0:0:0:
82,298,132730,2,0,P|148:282|205:260,1,107.999996704102,2|0,2:0|1:0,0:0:0:0:
166,36,132980,2,0,P|102:70|117:121,1,107.999996704102,2|2,2:0|2:0,0:0:0:0:
126,305,133230,6,0,P|180:294|222:277,1,67.5000025749208,0|0,1:0|0:0,0:0:0:0:
259,326,133355,2,0,P|287:287|296:254,1,67.5000025749208,2|0,2:0|0:0,0:0:0:0:
328,135,133480,5,2,2:0:0:0:
375,71,133605,1,2,0:0:0:0:
452,85,133730,1,0,2:0:0:0:
461,277,133855,5,2,2:0:0:0:
384,291,133980,1,0,0:0:0:0:
337,227,134105,1,0,2:0:0:0:
507,139,134230,5,2,2:0:0:0:
512,215,134355,1,0,0:0:0:0:
443,181,134480,5,2,2:0:0:0:
369,202,134605,1,2,2:0:0:0:
366,215,134667,1,2,2:0:0:0:
364,228,134730,1,2,2:0:0:0:
290,249,134855,1,2,2:0:0:0:
216,270,134980,1,0,2:0:0:0:
142,291,135105,1,2,2:0:0:0:
67,272,135230,5,0,2:0:0:0:
168,365,135355,1,2,2:0:0:0:
220,186,135480,5,4,1:2:0:0:
220,186,135980,1,0,1:0:0:0:
342,147,136146,1,2,2:0:0:0:
328,19,136313,1,2,2:0:0:0:
227,170,136480,5,10,1:3:0:0:
329,137,136646,1,2,2:0:0:0:
317,29,136813,1,2,2:0:0:0:
202,55,136980,5,2,1:2:0:0:
202,55,137230,1,2,2:0:0:0:
179,309,137480,5,4,1:3:0:0:
179,309,137980,1,0,1:0:0:0:
140,187,138146,1,2,2:0:0:0:
12,201,138313,1,2,2:0:0:0:
163,302,138480,5,10,1:3:0:0:
130,200,138646,1,2,2:0:0:0:
22,212,138813,1,2,2:0:0:0:
48,327,138980,5,2,1:2:0:0:
48,327,139230,1,2,2:0:0:0:
225,218,139480,6,0,P|286:229|355:239,1,125.999996154785,4|2,1:3|2:0,0:0:0:0:
400,298,139855,1,2,0:0:0:0:
475,269,139980,2,0,P|477:234|483:192,1,62.9999980773926,0|0,1:0|0:0,0:0:0:0:
423,151,140230,1,2,2:0:0:0:
490,109,140355,1,0,0:0:0:0:
437,50,140480,6,0,P|398:45|354:37,1,62.9999980773926,10|0,1:3|0:0,0:0:0:0:
198,150,140730,2,0,P|237:155|281:163,1,62.9999980773926,2|0,2:0|0:0,0:0:0:0:
327,107,140980,1,0,1:0:0:0:
327,107,141230,1,2,2:0:0:0:
161,47,141480,6,0,P|112:91|100:161,1,125.999996154785,4|2,1:3|1:2,0:0:0:0:
138,213,141855,1,2,0:0:0:0:
115,379,141980,2,0,P|164:335|176:265,1,125.999996154785,2|2,1:2|2:0,0:0:0:0:
327,107,142480,6,0,L|388:119,1,62.9999980773926,10|0,1:3|0:0,0:0:0:0:
451,164,142730,1,2,0:0:0:0:
507,111,142855,1,2,0:0:0:0:
418,29,142980,5,0,1:0:0:0:
418,29,143230,1,2,2:0:0:0:
309,238,143480,5,4,1:2:0:0:
309,238,143980,1,0,1:0:0:0:
187,199,144146,1,2,2:0:0:0:
201,71,144313,1,2,2:0:0:0:
302,222,144480,5,10,1:3:0:0:
200,189,144646,1,2,2:0:0:0:
212,81,144813,1,2,2:0:0:0:
327,107,144980,5,2,1:2:0:0:
327,107,145230,1,2,2:0:0:0:
103,346,145480,5,4,1:3:0:0:
103,346,145980,1,0,1:0:0:0:
225,307,146146,1,2,2:0:0:0:
211,179,146313,1,2,2:0:0:0:
101,359,146480,5,10,1:3:0:0:
234,315,146646,1,2,2:0:0:0:
219,172,146813,1,2,2:0:0:0:
85,215,146980,5,2,1:2:0:0:
136,52,147230,5,2,2:0:0:0:
136,52,147355,1,2,2:0:0:0:
136,52,147480,2,0,L|221:66,1,62.9999980773926,4|0,1:3|0:0,0:0:0:0:
387,194,147730,1,2,2:0:0:0:
387,194,147855,1,2,2:0:0:0:
387,194,147980,2,0,L|302:180,1,62.9999980773926,0|0,1:0|0:0,0:0:0:0:
242,145,148230,5,2,2:0:0:0:
242,145,148355,1,0,2:0:0:0:
353,79,148480,5,10,1:3:0:0:
446,117,148730,5,2,2:0:0:0:
479,211,148980,5,2,1:2:0:0:
445,305,149230,5,2,2:0:0:0:
329,345,149480,6,0,P|232:323|118:308,1,180,4|0,1:3|2:0,0:0:0:0:
102,238,149855,1,0,0:0:0:0:
14,247,149980,2,0,P|44:153|68:45,1,180,4|0,1:3|2:0,0:0:0:0:
311,9,150480,5,2,2:0:0:0:
311,9,151230,6,0,P|304:28|299:47,1,40.4999987640381,2|2,2:0|0:0,0:0:0:0:
298,47,151480,6,0,P|386:75|476:98,1,180,6|12,1:2|2:3,0:0:0:0:
510,169,151855,1,4,2:3:0:0:
408,384,151980,1,4,1:2:0:0:
449,321,152105,1,4,2:3:0:0:
445,313,152167,1,2,2:3:0:0:
445,302,152230,1,12,2:3:0:0:
377,269,152355,1,6,2:3:0:0:
422,33,152480,5,4,1:2:0:0:
377,95,152605,2,0,L|388:184,1,90,4|12,2:3|2:3,0:0:0:0:
329,345,152855,1,6,2:3:0:0:
269,296,152980,2,0,L|256:206,1,90,4|4,1:2|0:3,0:0:0:0:
422,33,153230,1,12,2:3:0:0:
377,95,153355,1,4,2:3:0:0:
310,62,153480,6,0,P|221:79|132:94,1,180,6|12,1:2|2:3,0:0:0:0:
167,165,153855,1,4,2:3:0:0:
3,317,153980,1,4,1:2:0:0:
55,263,154105,1,4,2:3:0:0:
55,252,154167,1,2,2:3:0:0:
51,244,154230,1,12,2:3:0:0:
0,187,154355,1,6,2:3:0:0:
97,0,154480,5,4,1:2:0:0:
51,58,154605,2,0,P|63:121|67:169,1,90,4|12,2:3|2:3,0:0:0:0:
135,311,154855,1,6,2:3:0:0:
181,253,154980,2,0,P|169:190|165:142,1,90,4|0,1:2|1:0,0:0:0:0:
353,0,155230,1,10,1:3:0:0:
310,62,155355,1,10,1:3:0:0:
228,38,155480,6,0,P|240:101|244:149,1,90,6|4,1:2|2:3,0:0:0:0:
391,183,155730,2,0,P|379:120|375:72,1,90,14|6,2:3|2:3,0:0:0:0:
298,239,155980,2,0,P|310:302|314:350,1,90,4|4,1:2|2:3,0:0:0:0:
461,384,156230,2,0,P|449:321|445:273,1,90,14|6,2:3|2:3,0:0:0:0:
314,163,156480,5,4,1:2:0:0:
376,94,156605,1,6,2:3:0:0:
376,83,156667,1,0,0:0:0:0:
378,73,156730,1,12,2:3:0:0:
297,19,156855,1,6,2:3:0:0:
67,148,156980,5,4,1:2:0:0:
0,187,157105,1,6,2:3:0:0:
37,257,157230,1,12,2:3:0:0:
108,217,157355,1,6,2:3:0:0:
178,93,157480,6,0,P|88:105|0:112,1,180,4|12,1:2|2:3,0:0:0:0:
37,257,157855,1,6,2:3:0:0:
86,319,157980,2,0,P|175:326|264:338,1,180,4|14,1:2|2:3,0:0:0:0:
319,281,158355,1,4,2:3:0:0:
316,168,158480,5,2,1:0:0:0:
261,223,158605,1,0,1:0:0:0:
332,384,158730,5,0,1:0:0:0:
387,329,158855,1,0,1:0:0:0:
441,144,158980,5,2,1:0:0:0:
386,199,159105,1,2,1:3:0:0:
457,360,159230,5,10,1:3:0:0:
512,305,159355,1,10,1:3:0:0:
476,233,159480,6,0,P|487:109|497:50,1,180,6|12,1:2|2:3,0:0:0:0:
437,6,159855,1,4,2:3:0:0:
267,104,159980,1,4,1:2:0:0:
316,168,160105,1,4,2:3:0:0:
314,178,160167,1,2,2:3:0:0:
314,189,160230,1,12,2:3:0:0:
251,236,160355,1,4,2:3:0:0:
228,384,160480,5,4,1:2:0:0:
299,375,160605,2,0,P|302:330|309:285,1,90,4|12,2:3|2:3,0:0:0:0:
267,104,160855,1,4,2:3:0:0:
196,113,160980,2,0,P|192:157|185:202,1,90,4|4,1:2|0:3,0:0:0:0:
299,375,161230,1,12,2:3:0:0:
372,344,161355,1,4,2:3:0:0:
442,384,161480,5,6,1:2:0:0:
442,384,161605,2,0,P|445:338|452:292,1,90,4|12,2:3|2:3,0:0:0:0:
407,226,161855,1,4,2:3:0:0:
319,49,161980,1,4,1:2:0:0:
267,104,162105,1,4,2:3:0:0:
269,113,162167,1,2,2:3:0:0:
269,124,162230,1,12,2:3:0:0:
325,182,162355,1,4,2:3:0:0:
193,365,162480,5,4,1:2:0:0:
251,315,162605,2,0,P|254:269|261:223,1,90,4|12,2:3|2:3,0:0:0:0:
141,64,162855,1,4,2:3:0:0:
83,114,162980,2,0,P|80:160|73:206,1,90,4|0,1:2|1:0,0:0:0:0:
260,225,163230,1,10,2:3:0:0:
325,182,163355,1,14,2:3:0:0:
350,260,163480,6,0,P|418:277|500:193,1,180,6|14,1:2|2:3,0:0:0:0:
508,138,163855,1,6,2:3:0:0:
319,49,163980,2,0,P|250:31|168:115,1,180,4|14,1:2|2:3,0:0:0:0:
160,170,164355,1,6,2:3:0:0:
238,276,164480,6,0,P|234:232|232:187,1,90,4|6,1:2|2:3,0:0:0:0:
83,114,164730,2,0,P|87:158|89:203,1,90,12|6,2:3|2:3,0:0:0:0:
303,165,164980,2,0,P|298:120|296:75,1,90,4|4,1:2|2:3,0:0:0:0:
171,318,165230,1,14,2:3:0:0:
237,352,165355,1,6,2:3:0:0:
238,276,165480,6,0,P|328:280|418:290,1,180,4|14,1:2|2:3,0:0:0:0:
479,241,165855,1,6,2:3:0:0:
476,88,165980,2,0,P|386:84|296:74,1,180,4|14,1:2|2:3,0:0:0:0:
235,123,166355,1,6,2:3:0:0:
89,203,166480,5,4,1:2:0:0:
17,188,166605,1,4,1:3:0:0:
2,260,166730,1,4,1:3:0:0:
74,275,166855,1,4,1:3:0:0:
59,347,166980,2,0,P|36:340|16:335,3,45,6|8|8|8,1:3|1:3|2:3|2:3,0:0:0:0:
207,267,167230,2,0,P|222:271|236:275,3,31.4999990386963,4|4|8|8,2:3|0:3|1:3|1:3,0:0:0:0:
257,298,167480,6,0,P|352:244|474:261,1,215.999993408203,6|8,1:0|2:3,0:0:0:0:
181,37,167855,2,0,P|76:72|122:171,1,215.999993408203,4|8,1:3|2:3,0:0:0:0:
374,139,168230,2,0,P|384:85|319:71,1,107.999996704102,2|2,1:0|2:1,0:0:0:0:
169,230,168480,6,0,P|101:252|58:292,1,107.999996704102,2|2,1:0|0:0,0:0:0:0:
73,274,168667,1,2,0:0:0:0:
73,274,168730,2,0,P|24:242|29:185,1,107.999996704102,2|2,2:0|1:2,0:0:0:0:
272,101,168980,6,0,P|265:133|260:167,1,53.9999983520508,2|0,2:0|0:0,0:0:0:0:
306,216,169105,2,0,P|320:242|330:279,1,53.9999983520508,2|0,2:0|0:0,0:0:0:0:
263,94,169230,6,0,P|256:126|251:160,1,53.9999983520508,2|0,1:0|0:0,0:0:0:0:
226,223,169355,2,0,P|202:243|154:243,1,53.9999983520508,2|0,2:1|0:0,0:0:0:0:
94,155,169480,6,0,P|77:83|202:66,1,215.999993408203,2|8,1:0|2:3,0:0:0:0:
253,330,169855,2,0,P|134:273|26:278,1,215.999993408203,4|8,1:3|2:3,0:0:0:0:
156,369,170230,5,2,1:0:0:0:
237,219,170355,1,2,2:1:0:0:
74,36,170480,6,0,P|48:76|39:144,1,107.999996704102,2|2,1:0|2:0,0:0:0:0:
16,171,170688,1,2,2:0:0:0:
52,148,170771,1,2,2:0:0:0:
94,155,170855,1,2,1:2:0:0:
72,351,170980,5,2,2:1:0:0:
129,251,171105,1,2,2:0:0:0:
51,272,171230,1,2,1:0:0:0:
150,330,171355,1,2,2:0:0:0:
212,275,171480,6,0,P|322:299|382:381,1,215.999993408203,8|4,1:3|2:3,0:0:0:0:
485,99,171855,2,0,P|427:124|412:182,1,107.999996704102,8|4,1:3|2:3,0:0:0:0:
395,239,172105,1,4,2:3:0:0:
475,217,172230,5,2,1:0:0:0:
333,183,172355,1,2,2:1:0:0:
379,44,172480,6,0,P|317:61|261:69,1,107.999996704102,2|0,1:0|0:0,0:0:0:0:
212,275,172730,2,0,P|158:266|106:251,1,107.999996704102,2|2,2:1|1:2,0:0:0:0:
106,251,172917,1,0,0:0:0:0:
106,251,172980,1,2,2:1:0:0:
51,110,173105,5,0,2:0:0:0:
212,183,173230,1,2,1:0:0:0:
45,318,173355,1,2,2:0:0:0:
121,175,173480,6,0,P|139:115|142:63,2,107.999996704102,2|2|2,1:0|0:0|2:1,0:0:0:0:
306,248,173855,2,0,P|288:308|285:360,2,107.999996704102,2|2|0,1:2|2:1|0:0,0:0:0:0:
408,34,174230,2,0,P|332:44|295:127,1,161.999995056153,2|0,1:0|0:0,0:0:0:0:
294,113,174480,5,2,1:0:0:0:
456,260,174605,1,2,2:0:0:0:
494,240,174688,1,2,2:0:0:0:
504,198,174771,1,2,2:0:0:0:
485,158,174855,1,2,1:2:0:0:
356,178,174980,6,0,P|397:189|428:191,1,53.9999983520508,2|0,2:1|0:0,0:0:0:0:
451,346,175105,2,0,P|486:338|512:326,1,53.9999983520508,2|0,2:0|0:0,0:0:0:0:
512,239,175230,6,0,P|482:243|439:269,1,53.9999983520508,2|0,1:0|0:0,0:0:0:0:
378,296,175355,2,0,P|340:289|309:281,1,53.9999983520508,2|0,2:0|0:0,0:0:0:0:
247,301,175480,6,0,P|221:184|180:78,1,215.999993408203,6|8,1:0|2:3,0:0:0:0:
121,9,175855,2,0,P|18:43|59:150,1,215.999993408203,4|8,1:3|2:3,0:0:0:0:
289,68,176230,2,0,P|244:7|200:19,1,107.999996704102,2|2,1:0|0:1,0:0:0:0:
0,296,176480,6,0,P|69:277|115:273,1,107.999996704102,2|2,1:0|2:0,0:0:0:0:
105,273,176667,1,2,0:0:0:0:
105,273,176730,2,0,P|141:207|106:161,1,107.999996704102,2|2,2:0|1:2,0:0:0:0:
116,29,176980,6,0,P|97:57|88:108,1,53.9999983520508,2|0,2:0|0:0,0:0:0:0:
29,125,177105,2,0,P|35:157|52:178,1,53.9999983520508,2|0,2:0|0:0,0:0:0:0:
115,15,177230,6,0,P|96:43|87:94,1,53.9999983520508,2|0,1:0|0:0,0:0:0:0:
146,186,177355,2,0,P|184:205|219:201,1,53.9999983520508,0|0,2:0|0:0,0:0:0:0:
306,141,177480,5,2,1:0:0:0:
306,141,177605,2,0,P|313:74|208:66,1,161.999995056153,4|0,2:3|0:0,0:0:0:0:
235,44,177855,1,4,1:3:0:0:
293,237,177980,2,0,P|353:218|412:214,1,107.999996704102,2|8,2:1|2:3,0:0:0:0:
131,182,178230,2,0,P|71:201|12:205,1,107.999996704102,2|0,1:0|2:0,0:0:0:0:
176,384,178480,6,0,P|189:308|204:278,1,107.999996704102,2|2,1:0|2:0,0:0:0:0:
183,241,178688,1,0,0:0:0:0:
219,217,178771,1,0,0:0:0:0:
218,173,178855,1,2,1:2:0:0:
169,40,178980,6,0,P|139:68|139:100,1,53.9999983520508,2|0,2:1|0:0,0:0:0:0:
89,137,179105,2,0,P|103:166|134:182,1,53.9999983520508,2|0,2:0|0:0,0:0:0:0:
184,230,179230,6,0,P|271:204|352:196,1,161.999995056153,2|0,1:0|0:0,0:0:0:0:
420,244,179480,5,0,1:0:0:0:
449,230,179542,1,0,3:0:0:0:
465,201,179605,1,2,2:0:0:0:
460,169,179667,1,0,0:0:0:0:
439,143,179730,2,0,P|403:134|376:126,1,53.9999983520508,2|0,3:2|0:0,0:0:0:0:
286,123,179855,5,0,1:0:0:0:
257,109,179917,1,0,3:0:0:0:
241,80,179980,1,2,2:0:0:0:
246,48,180042,1,0,0:0:0:0:
267,22,180105,2,0,P|303:13|330:5,1,53.9999983520508,0|0,2:0|0:0,0:0:0:0:
402,4,180230,6,0,P|388:40|381:67,1,53.9999983520508,2|0,1:0|0:0,0:0:0:0:
298,135,180355,2,0,P|312:171|319:198,1,53.9999983520508,2|0,2:1|0:0,0:0:0:0:
316,308,180480,5,2,1:0:0:0:
318,312,180542,1,0,3:0:0:0:
320,316,180605,1,2,2:0:0:0:
322,320,180667,1,0,2:0:0:0:
324,324,180730,1,2,3:1:0:0:
326,328,180792,1,0,2:0:0:0:
328,332,180855,1,0,1:0:0:0:
330,336,180917,1,0,3:0:0:0:
356,342,180980,6,0,P|392:332|431:327,3,53.9999983520508,2|0|2|0,2:1|0:0|2:1|0:0,0:0:0:0:
459,381,181230,5,2,1:0:0:0:
486,354,181292,1,0,3:0:0:0:
486,315,181355,1,2,3:0:0:0:
467,282,181417,1,0,3:0:0:0:
