osu file format v14

[General]
AudioFilename: Ningyou Saiban.mp3
AudioLeadIn: 1000
PreviewTime: 910
Countdown: 0
SampleSet: Soft
StackLeniency: 0
Mode: 0
LetterboxInBreaks: 0
WidescreenStoryboard: 0

[Editor]
DistanceSpacing: 0.7
BeatDivisor: 6
GridSize: 8
TimelineZoom: 5.219996

[Metadata]
Title:Ningyou Saiban
TitleUnicode:人形裁判
Artist:U2
ArtistUnicode:U2
Creator:Hollow Wings
Version:Sco Gla
Source:東方Project
Tags:Akiyama Uni あきやまうに Doll Judgment Touhou LKs Scorpiour th7.5 cmx Tasofro Twilight Frontier 黄昏フロンティア zun Ningyou Saiban アリス·マーガトロイド alice margatroid
BeatmapID:910822
BeatmapSetID:421061

[Difficulty]
HPDrainRate:6
CircleSize:4
OverallDifficulty:8
ApproachRate:9
SliderMultiplier:3.2
SliderTickRate:1

[Events]
//Background and Video events
0,0,"Ningyou Saiban.jpg",0,0
//Break Periods
//Storyboard Layer 0 (Background)
//Storyboard Layer 1 (Fail)
//Storyboard Layer 2 (Pass)
//Storyboard Layer 3 (Foreground)
//Storyboard Sound Samples

[TimingPoints]
-2,304.187135926022,5,2,2,60,1,0
1113,-200,5,2,2,60,0,0
1518,-100,5,2,2,60,0,0
2734,-83.3333333333333,5,2,2,60,0,0
3038,-100,5,2,2,60,0,0
4255,-83.3333333333333,5,2,2,60,0,0
4559,-100,5,2,2,60,0,0
5777,-66.6666666666667,5,2,2,60,0,0
6081,-100,5,2,2,60,0,0
7298,-66.6666666666667,5,2,2,60,0,0
7602,-100,5,2,2,60,0,0
8819,-83.3333333333333,5,2,2,60,0,0
9123,-100,5,2,2,60,0,0
10238,-100,5,2,2,80,0,0
12976,-66.6666666666667,5,2,2,80,0,0
13280,-50,5,2,2,80,0,0
13686,-62.5,5,2,1,70,0,0
19770,-50,5,2,1,70,0,0
22812,-62.5,5,2,1,70,0,0
31937,-50,5,2,1,70,0,0
34979,-62.5,5,2,1,70,0,0
38021,-200,5,2,1,70,0,0
38325,-50,5,2,1,70,0,0
38629,304.187135926022,5,3,1,80,1,1
38629,-50,5,3,1,80,0,1
61123,304.187135926022,5,3,1,80,1,1
61123,-200,5,3,1,80,0,1
61427,304.187135926022,4,2,2,60,1,0
61427,-200,4,2,2,60,0,0

[Colours]
Combo1 : 255,166,166
Combo2 : 0,128,255
Combo3 : 155,205,255
Combo4 : 255,68,68

[HitObjects]
232,352,1113,54,0,P|220:327|218:308,2,26.6666666666667
301,262,1316,2,0,P|293:287|293:314,1,53.3333333333333
366,316,1518,6,0,P|430:276|380:336,1,213.333333333333,4|0,0:0|0:0,0:0:0:0:
403,307,2024,1,4,0:0:0:0:
403,307,2127,2,0,P|451:185|451:95,1,213.333333333333
452,104,2431,2,0,P|409:201|403:308,1,213.333333333333,4|0,0:0|0:0,0:0:0:0:
338,297,2735,6,0,P|215:253|99:291,1,255.9999921875,4|0,0:0|0:0,0:0:0:0:
100,290,3039,6,0,P|106:213|132:286,1,213.333333333333,4|0,0:0|0:0,0:0:0:0:
109,255,3545,1,4,0:0:0:0:
109,255,3648,2,0,P|53:134|58:51,1,213.333333333333
57,57,3952,2,0,P|109:149|110:254,1,213.333333333333,4|0,0:0|0:0,0:0:0:0:
126,342,4256,6,0,P|222:263|313:333,1,255.9999921875,4|0,0:0|0:0,0:0:0:0:
313,331,4560,6,0,L|364:346,4,53.3333333333333,4|0|0|0|0,0:0|0:0|0:0|0:0|0:0,0:0:0:0:
425,309,5067,1,4,0:0:0:0:
427,379,5169,2,0,P|337:302|384:234,1,213.333333333333
425,309,5473,2,0,P|463:230|375:240,1,213.333333333333,4|0,0:0|0:0,0:0:0:0:
364,347,5777,6,0,P|214:288|246:157,1,320.000012207032,4|0,0:0|0:0,0:0:0:0:
182,236,6081,6,0,P|105:230|177:202,1,213.333333333333,4|0,0:0|0:0,0:0:0:0:
69,146,6588,1,4,0:0:0:0:
144,151,6690,2,0,P|211:231|158:310,1,213.333333333333
226,361,6994,2,0,P|223:261|127:231,1,213.333333333333,4|0,0:0|0:0,0:0:0:0:
76,304,7298,6,0,P|162:308|218:115,1,320.000012207032,4|0,0:0|0:0,0:0:0:0:
150,64,7602,6,0,L|86:75,4,53.3333333333333,4|0|0|0|0,0:0|0:0|0:0|0:0|0:0,0:0:0:0:
343,60,8109,1,4,0:0:0:0:
302,120,8211,2,0,P|338:214|439:217,1,213.333333333333
439,217,8515,2,0,P|373:122|291:164,1,213.333333333333,4|0,0:0|0:0,0:0:0:0:
247,212,8819,6,0,P|345:144|439:216,1,255.9999921875,4|0,0:0|0:0,0:0:0:0:
374,222,9123,6,0,P|302:250|379:256,1,213.333333333333,4|0,0:0|0:0,0:0:0:0:
450,189,9630,1,4,0:0:0:0:
439,269,9731,2,0,P|314:339|247:212,1,320,0|4,0:0|0:0,0:0:0:0:
73,347,10238,53,0,0:0:0:0:
182,336,10340,2,0,P|241:305|267:249,1,106.666666666667
283,167,10543,1,0,0:0:0:0:
250,59,10643,5,4,0:0:0:0:
27,77,10847,1,0,0:0:0:0:
42,93,11151,1,4,0:0:0:0:
54,113,11455,1,0,0:0:0:0:
60,134,11759,1,0,0:0:0:0:
58,157,12064,6,0,P|55:220|69:261,1,106.666666666667
448,166,12368,1,0,0:0:0:0:
468,57,12672,6,0,P|429:67|469:69,1,106.666666666667,4|0,0:0|0:0,0:0:0:0:
391,222,12976,6,0,P|336:203|386:232,1,160.000006103516,0|4,0:0|0:1,0:0:0:0:
244,330,13280,6,0,P|207:268|235:336,1,213.333333333333,0|4,0:0|0:1,0:0:0:0:
62,327,13585,1,0,0:0:0:0:
26,265,13686,5,4,0:1:0:0:
104,130,13889,1,4,0:0:0:0:
65,194,14193,1,4,0:0:0:0:
137,195,14294,2,0,L|481:198,1,341.333333333333,6|0,0:0|0:0,0:0:0:0:
509,218,14599,2,0,L|165:221,1,341.333333333333,6|0,0:0|0:0,0:0:0:0:
121,277,14903,2,0,L|462:274,1,341.333333333333,10|0,0:0|0:0,0:0:0:0:
481,291,15207,5,6,0:0:0:0:
360,292,15410,1,4,0:0:0:0:
458,368,15714,1,4,0:0:0:0:
386,366,15815,2,0,L|44:363,1,341.333333333333,6|0,0:0|0:0,0:0:0:0:
25,348,16119,2,0,L|366:345,1,341.333333333333,6|0,0:0|0:0,0:0:0:0:
409,291,16424,2,0,P|276:206|119:280,1,341.333333333333,10|0,0:0|0:0,0:0:0:0:
49,270,16728,5,6,0:0:0:0:
163,281,16931,1,4,0:0:0:0:
13,171,17235,1,4,0:0:0:0:
85,176,17336,2,0,L|442:191,1,341.333333333333,6|0,0:0|0:0,0:0:0:0:
495,171,17640,2,0,P|347:202|136:170,1,341.333333333333,6|0,0:0|0:0,0:0:0:0:
85,176,17945,2,0,P|233:145|444:177,1,341.333333333333,10|0,0:0|0:0,0:0:0:0:
495,171,18249,5,6,0:0:0:0:
424,295,18452,1,4,0:0:0:0:
444,106,18756,1,4,0:0:0:0:
495,171,18857,2,0,P|326:195|160:164,1,341.333333333333,6|0,0:0|0:0,0:0:0:0:
109,99,19161,2,0,P|278:75|445:107,1,341.333333333333,6|0,0:0|0:0,0:0:0:0:
495,171,19466,2,0,L|148:120,1,341.333333333333,10|0,0:0|0:0,0:0:0:0:
84,139,19770,5,6,0:0:0:0:
222,198,19972,1,4,0:0:0:0:
39,345,20277,1,4,0:0:0:0:
109,363,20378,2,0,P|330:322|508:208,1,426.666666666667,6|0,0:0|0:0,0:0:0:0:
499,298,20682,2,0,L|72:286,1,426.666666666667,6|0,0:0|0:0,0:0:0:0:
3,266,20986,2,0,L|429:254,1,426.666666666667,10|0,0:0|0:0,0:0:0:0:
474,259,21291,5,6,0:0:0:0:
496,84,21493,1,4,0:0:0:0:
498,247,21798,1,4,0:0:0:0:
508,167,21899,2,0,L|82:180,1,426.666666666667,6|0,0:0|0:0,0:0:0:0:
0,209,22203,2,0,L|426:196,1,426.666666666667,6|0,0:0|0:0,0:0:0:0:
454,186,22507,2,0,P|255:112|43:110,1,426.666666666667,10|0,0:0|0:0,0:0:0:0:
12,148,22812,5,6,0:0:0:0:
36,287,23014,1,4,0:0:0:0:
135,191,23319,1,4,0:0:0:0:
151,260,23420,2,0,P|197:322|450:338,1,341.333333333333,6|0,0:0|0:0,0:0:0:0:
464,314,23724,2,0,L|115:324,1,341.333333333333,6|0,0:0|0:0,0:0:0:0:
59,358,24028,2,0,L|408:348,1,341.333333333333,10|0,0:0|0:0,0:0:0:0:
460,383,24333,5,6,0:0:0:0:
342,302,24535,1,4,0:0:0:0:
469,241,24839,1,4,0:0:0:0:
405,272,24941,2,0,L|62:296,1,341.333333333333,6|0,0:0|0:0,0:0:0:0:
61,179,25245,2,0,L|243:192,1,170.666666666667,4|2,0:1|0:3,0:0:0:0:
352,212,25448,1,2,0:3:0:0:
469,241,25549,2,0,L|128:217,1,341.333333333333,4|8,0:1|0:3,0:0:0:0:
62,255,25853,5,4,0:1:0:0:
61,103,26056,1,4,0:0:0:0:
16,198,26360,1,4,0:0:0:0:
16,114,26462,2,0,L|361:80,1,341.333333333333,6|0,0:0|0:0,0:0:0:0:
392,75,26766,2,0,P|248:84|134:235,1,341.333333333333,6|0,0:0|0:0,0:0:0:0:
129,275,27070,2,0,L|468:241,1,341.333333333333,10|0,0:0|0:0,0:0:0:0:
473,170,27374,5,6,0:0:0:0:
494,312,27577,1,4,0:0:0:0:
473,170,27881,1,4,0:0:0:0:
504,238,27983,2,0,L|164:271,1,341.333333333333,6|0,0:0|0:0,0:0:0:0:
129,275,28287,2,0,P|188:337|366:211,1,341.333333333333,6|0,0:0|0:0,0:0:0:0:
361,187,28591,2,0,L|21:220,1,341.333333333333,10|0,0:0|0:0,0:0:0:0:
18,296,28895,5,6,0:0:0:0:
129,275,29098,1,4,0:0:0:0:
7,144,29402,1,4,0:0:0:0:
79,133,29504,2,0,L|424:168,1,341.333333333333,6|0,0:0|0:0,0:0:0:0:
455,173,29808,2,0,P|349:297|189:266,1,341.333333333333,6|0,0:0|0:0,0:0:0:0:
170,236,30112,2,0,L|509:270,1,341.333333333333,10|0,0:0|0:0,0:0:0:0:
472,332,30416,5,6,0:0:0:0:
339,269,30619,1,4,0:0:0:0:
484,109,30923,1,4,0:0:0:0:
455,174,31025,2,0,L|110:209,1,341.333333333333,6|0,0:0|0:0,0:0:0:0:
81,209,31329,2,0,P|243:102|396:103,1,341.333333333333,6|0,0:0|0:0,0:0:0:0:
420,111,31633,2,0,L|80:145,1,341.333333333333,10|0,0:0|0:0,0:0:0:0:
41,124,31937,5,6,0:0:0:0:
213,181,32140,1,4,0:0:0:0:
103,326,32444,1,4,0:0:0:0:
17,298,32546,2,0,L|455:269,1,426.666666666667,6|0,0:0|0:0,0:0:0:0:
488,265,32850,2,0,P|414:142|438:301,1,426.666666666667,6|0,0:0|0:0,0:0:0:0:
487,343,33154,2,0,L|63:295,1,426.666666666667,10|0,0:0|0:0,0:0:0:0:
17,298,33458,5,6,0:0:0:0:
208,215,33661,1,4,0:0:0:0:
343,337,33965,1,4,0:0:0:0:
423,303,34066,2,0,P|408:151|350:304,1,426.666666666667,6|0,0:0|0:0,0:0:0:0:
377,316,34371,2,0,P|277:268|440:130,1,426.666666666667,6|0,0:0|0:0,0:0:0:0:
468,164,34675,2,0,L|44:212,1,426.666666666667,10|0,0:0|0:0,0:0:0:0:
17,146,34979,5,6,0:0:0:0:
134,131,35182,1,4,0:0:0:0:
20,19,35486,1,4,0:0:0:0:
92,14,35587,2,0,L|440:2,1,341.333333333333,6|0,0:0|0:0,0:0:0:0:
470,74,35892,2,0,L|128:85,1,341.333333333333,6|0,0:0|0:0,0:0:0:0:
89,155,36196,2,0,L|433:163,1,341.333333333333,10|0,0:0|0:0,0:0:0:0:
469,178,36500,5,6,0:0:0:0:
470,74,36703,1,4,0:0:0:0:
507,252,37007,1,4,0:0:0:0:
496,333,37108,2,0,L|145:320,1,341.333333333333,6|0,0:0|0:0,0:0:0:0:
120,318,37413,2,0,L|296:288,1,170.666666666667,2|2,0:3|0:3,0:0:0:0:
426,248,37615,1,2,0:3:0:0:
345,245,37717,2,0,L|-6:232,1,341.333333333333,4|8,0:3|0:3,0:0:0:0:
35,163,38021,6,0,L|86:149,2,53.3333333333333
5,232,38325,1,0,0:0:0:0:
56,91,38528,6,0,P|116:75|284:66,1,213.333333333333,0|4,0:0|0:1,0:0:0:0:
467,122,38831,1,2,0:0:0:0:
448,46,39135,1,4,0:0:0:0:
448,46,39237,1,8,0:0:0:0:
393,100,39541,1,2,0:2:0:0:
409,172,39744,1,2,0:0:0:0:
409,172,39845,1,2,0:0:0:0:
481,269,40048,6,0,P|377:245|270:242,1,213.333333333333,4|2,0:2|0:2,0:0:0:0:
107,258,40352,1,2,0:0:0:0:
175,300,40656,1,4,0:0:0:0:
175,300,40758,1,8,0:0:0:0:
106,335,41062,6,0,P|217:355|325:334,1,213.333333333333,2|0,0:0|0:0,0:0:0:0:
481,269,41366,1,2,0:0:0:0:
477,310,41569,6,0,P|366:330|258:309,1,213.333333333333,2|4,0:0|0:0,0:0:0:0:
107,258,41873,1,2,0:0:0:0:
177,230,42177,5,4,0:0:0:0:
177,230,42279,1,8,0:0:0:0:
118,184,42583,1,4,0:0:0:0:
47,211,42786,1,2,0:0:0:0:
47,211,42887,1,2,0:0:0:0:
187,156,43090,1,4,0:0:0:0:
187,156,43191,1,4,0:0:0:0:
164,305,43394,1,2,0:0:0:0:
107,258,43698,1,4,0:0:0:0:
107,258,43800,1,8,0:0:0:0:
118,184,44002,5,0,0:0:0:0:
118,184,44104,2,0,P|240:183|338:160,1,213.333333333333,4|0,0:0|0:0,0:0:0:0:
507,51,44408,2,0,P|403:27|296:24,1,213.333333333333,2|0,0:0|0:0,0:0:0:0:
125,76,44611,5,2,0:0:0:0:
125,76,44712,2,0,P|228:49|334:42,1,213.333333333333,4|0,0:0|0:0,0:0:0:0:
482,68,44915,1,0,0:0:0:0:
499,142,45219,1,4,0:2:0:0:
499,142,45321,1,2,0:2:0:0:
426,118,45523,5,0,0:0:0:0:
426,118,45625,2,0,P|319:114|215:90,1,213.333333333333,2|0,0:2|0:0,0:0:0:0:
89,171,45828,1,4,0:0:0:0:
89,172,45930,2,0,P|192:148|299:144,1,213.333333333333,2|0,0:0|0:0,0:0:0:0:
440,192,46132,1,0,0:0:0:0:
440,191,46234,2,0,P|336:214|229:218,1,213.333333333333,6|0,0:2|0:0,0:0:0:0:
89,171,46436,1,2,0:0:0:0:
51,236,46740,5,4,0:0:0:0:
51,236,46842,1,8,0:0:0:0:
126,235,47146,1,4,0:0:0:0:
12,167,47349,6,0,P|118:170|222:194,1,213.333333333333,4|2,0:2|0:0,0:0:0:0:
491,221,47653,2,0,P|384:224|280:248,1,213.333333333333,8|4,0:0|0:0,0:0:0:0:
14,303,47957,1,2,0:0:0:0:
90,303,48261,5,4,0:0:0:0:
90,303,48362,1,4,0:0:0:0:
51,367,48667,2,0,P|157:363|261:339,1,213.333333333333,2|0,0:2|0:0,0:0:0:0:
492,221,48971,2,0,P|388:197|281:194,1,213.333333333333,2|0,0:0|0:0,0:0:0:0:
51,236,49174,5,4,0:0:0:0:
51,236,49275,2,0,P|154:259|261:263,1,213.333333333333,4|0,0:0|0:0,0:0:0:0:
389,250,49427,2,0,P|441:238|492:221,1,106.666666666667,2|0,0:2|0:0,0:0:0:0:
14,303,49782,5,4,0:0:0:0:
14,303,49884,1,8,0:0:0:0:
325,233,50086,1,0,0:0:0:0:
367,242,50188,1,4,0:1:0:0:
400,214,50289,1,4,0:0:0:0:
388,173,50390,1,4,0:0:0:0:
346,160,50492,2,0,P|242:136|135:133,1,213.333333333333,4|0,0:1|0:0,0:0:0:0:
40,178,50695,5,4,0:0:0:0:
40,178,50796,2,0,P|144:154|251:151,1,213.333333333333,4|0,0:1|0:0,0:0:0:0:
400,214,50999,1,2,0:0:0:0:
417,141,51303,5,4,0:0:0:0:
417,141,51404,1,8,0:0:0:0:
470,194,51709,1,2,0:2:0:0:
489,123,51911,5,2,0:0:0:0:
489,123,52013,2,0,P|385:147|278:150,1,213.333333333333,2|0,0:0|0:0,0:0:0:0:
137,100,52216,1,4,0:0:0:0:
137,100,52317,2,0,P|243:103|347:127,1,213.333333333333,4|0,0:0|0:0,0:0:0:0:
470,194,52520,1,2,0:0:0:0:
439,71,52824,5,4,0:0:0:0:
439,71,52925,1,8,0:0:0:0:
117,378,53229,2,0,P|85:275|75:169,1,213.333333333333,0|0,0:2|0:0,0:0:0:0:
98,19,53534,1,2,0:0:0:0:
187,25,53736,5,2,0:0:0:0:
187,25,53838,2,0,P|176:130|145:232,1,213.333333333333,4|0,0:0|0:0,0:0:0:0:
24,366,54041,1,2,0:0:0:0:
82,298,54345,5,4,0:0:0:0:
82,298,54446,1,8,0:0:0:0:
172,304,54750,1,6,0:2:0:0:
209,381,54953,1,2,0:0:0:0:
209,381,55055,1,2,0:0:0:0:
290,351,55257,1,4,0:0:0:0:
290,351,55359,1,4,0:0:0:0:
510,304,55562,6,0,P|407:280|300:276,1,213.333333333333,2|6,0:0|0:2,0:0:0:0:
500,378,55866,5,4,0:0:0:0:
500,378,55967,2,0,P|396:354|289:351,1,213.333333333333,8|0,0:3|0:0,0:0:0:0:
158,114,56271,1,2,0:2:0:0:
117,378,56474,2,0,P|223:374|327:350,1,213.333333333333,0|2,0:0|0:0,0:0:0:0:
483,95,56778,5,2,0:0:0:0:
417,59,56880,2,0,P|313:35|206:32,1,213.333333333333,4|0,0:0|0:0,0:0:0:0:
58,58,57083,1,2,0:0:0:0:
93,273,57387,6,0,P|5:243|66:221,2,213.333333333333,4|4|0,0:0|0:0|0:0,0:0:0:0:
454,225,57792,6,0,P|350:249|243:252,1,213.333333333333,6|0,0:2|0:0,0:0:0:0:
120,205,57995,1,2,0:0:0:0:
120,205,58096,2,0,P|226:208|330:232,1,213.333333333333,2|0,0:0|0:0,0:0:0:0:
484,298,58299,1,4,0:0:0:0:
436,357,58401,6,0,P|348:343|421:294,2,213.333333333333,8|0|2,0:0|0:0|0:0,0:0:0:0:
331,232,58705,2,0,P|323:145|269:213,2,213.333333333333,0|0|4,0:0|0:0|0:0,0:0:0:0:
193,252,59009,2,0,P|226:334|146:296,2,213.333333333333,8|0|2,0:0|0:0|0:0,0:0:0:0:
194,163,59313,6,0,P|300:159|404:135,1,213.333333333333,4|2,0:0|0:0,0:0:0:0:
510,29,59516,1,2,0:0:0:0:
470,93,59617,6,0,P|363:89|259:65,1,213.333333333333,4|4,0:1|0:0,0:0:0:0:
123,7,59820,1,4,0:0:0:0:
54,174,59922,6,0,P|158:150|265:147,1,213.333333333333,4|0,0:1|0:0,0:0:0:0:
485,298,60530,2,0,P|381:274|274:271,1,213.333333333333
125,304,61123,1,4,0:2:0:0:
407,247,61325,6,0,L|470:221,1,53.3333333333333,0|4,0:0|0:1,0:0:0:0:
383,257,61732,1,4,0:0:0:0:
308,289,61934,2,0,L|357:268,1,53.3333333333333,4|4,0:0|0:0,0:0:0:0:
285,298,62340,1,4,0:0:0:0:
207,311,62543,6,0,L|182:301,2,26.6666666666667,0|0|4,0:0|0:0|0:0,0:0:0:0:
257,370,62745,1,0,0:0:0:0:
