osu file format v14

[General]
AudioFilename: Ningyou Saiban.mp3
AudioLeadIn: 1000
PreviewTime: 910
Countdown: 0
SampleSet: Soft
StackLeniency: 0.2
Mode: 0
LetterboxInBreaks: 0
WidescreenStoryboard: 0

[Editor]
DistanceSpacing: 0.7
BeatDivisor: 6
GridSize: 8
TimelineZoom: 2.3

[Metadata]
Title:Ningyou Saiban
TitleUnicode:人形裁判
Artist:U2
ArtistUnicode:U2
Creator:Hollow Wings
Version:Normal
Source:東方Project
Tags:Akiyama Uni あきやまうに Doll Judgment Touhou LKs Scorpiour th7.5 cmx Tasofro Twilight Frontier 黄昏フロンティア zun Ningyou Saiban アリス·マーガトロイド alice margatroid
BeatmapID:910821
BeatmapSetID:421061

[Difficulty]
HPDrainRate:3
CircleSize:3
OverallDifficulty:4
ApproachRate:5
SliderMultiplier:0.7
SliderTickRate:1

[Events]
//Background and Video events
0,0,"Ningyou Saiban.jpg",0,0
//Break Periods
//Storyboard Layer 0 (Background)
//Storyboard Layer 1 (Fail)
//Storyboard Layer 2 (Pass)
//Storyboard Layer 3 (Foreground)
//Storyboard Sound Samples

[TimingPoints]
-2,304.187135926022,5,2,2,60,1,0
12165,-100,5,2,2,80,0,0
13686,-100,5,2,1,70,0,0
38629,304.187135926022,5,3,1,80,1,1
61123,304.187135926022,5,3,1,80,1,1
61427,304.187135926022,5,2,2,60,1,0

[Colours]
Combo1 : 255,166,166
Combo2 : 0,128,255
Combo3 : 155,205,255
Combo4 : 255,68,68

[HitObjects]
180,202,1113,6,0,L|229:207,1,46.6666666666667
256,192,1518,12,4,4560,0:0:0:0:
339,247,6081,5,4,0:0:0:0:
256,192,7602,12,0,10644,0:0:0:0:
297,292,12165,6,0,L|366:285,1,70,4|4,0:0|0:0,0:0:0:0:
408,210,12773,2,0,L|477:214,2,70,4|4|4,0:0|0:1|0:1,0:0:0:0:
389,127,13686,6,0,L|319:131,1,70,4|2,0:1|0:0,0:0:0:0:
251,83,14294,2,0,L|177:78,2,70,6|6|10,0:0|0:0|0:0,0:0:0:0:
246,166,15207,6,0,P|142:165|50:215,1,210,6|6,0:0|0:0,0:0:0:0:
9,289,16424,1,10,0:0:0:0:
92,290,16728,6,0,L|161:294,2,70,6|2|6,0:0|0:0|0:0,0:0:0:0:
51,214,17640,2,0,L|121:210,1,70,6|10,0:0|0:0,0:0:0:0:
167,141,18249,6,0,P|256:210|240:304,1,210,6|6,0:0|0:0,0:0:0:0:
315,342,19465,1,10,0:0:0:0:
391,304,19770,5,6,0:0:0:0:
416,224,20074,2,0,L|339:213,1,70,2|6,0:0|0:0,0:0:0:0:
265,196,20682,2,0,L|188:185,1,70,6|10,0:0|0:0,0:0:0:0:
129,238,21291,6,0,P|78:155|104:49,1,210,6|6,0:0|0:0,0:0:0:0:
183,29,22507,1,10,0:0:0:0:
265,46,22812,5,6,0:0:0:0:
338,90,23116,2,0,L|409:84,1,70,2|6,0:0|0:0,0:0:0:0:
491,75,23724,1,6,0:0:0:0:
457,152,24029,1,10,0:0:0:0:
387,197,24332,6,0,P|306:208|242:187,1,140,6|6,0:0|0:0,0:0:0:0:
186,137,25245,1,4,0:1:0:0:
172,220,25549,1,4,0:1:0:0:
105,170,25853,6,0,L|71:231,1,70,4|2,0:1|0:0,0:0:0:0:
83,315,26461,2,0,L|9:320,2,70,6|6|10,0:0|0:0|0:0,0:0:0:0:
167,306,27374,6,0,L|381:332,1,210,6|6,0:0|0:0,0:0:0:0:
459,345,28591,1,10,0:0:0:0:
429,267,28895,6,0,L|499:263,1,70,6|2,0:0|0:0,0:0:0:0:
493,180,29503,2,0,L|423:184,2,70,6|6|10,0:0|0:0|0:0,0:0:0:0:
472,99,30416,6,0,P|379:127|260:112,1,210,6|6,0:0|0:0,0:0:0:0:
190,85,31632,1,10,0:0:0:0:
254,30,31937,5,6,0:0:0:0:
337,33,32241,2,0,L|408:37,1,70,2|6,0:0|0:0,0:0:0:0:
410,121,32849,2,0,L|481:125,1,70,6|10,0:0|0:0,0:0:0:0:
482,208,33458,6,0,P|481:311|384:334,1,210,6|6,0:0|0:0,0:0:0:0:
417,258,34674,1,10,0:0:0:0:
334,274,34979,5,6,0:0:0:0:
312,353,35283,2,0,L|241:349,1,70,2|6,0:0|0:0,0:0:0:0:
160,366,35891,1,6,0:0:0:0:
104,305,36196,1,10,0:0:0:0:
34,351,36499,6,0,P|23:283|65:230,1,140,6|0,0:0|0:0,0:0:0:0:
256,192,37260,12,4,38629,0:1:0:0:
155,156,39845,5,2,0:0:0:0:
222,205,40149,2,0,L|436:194,2,210,4|2|2,0:0|0:2|0:2,0:0:0:0:
145,241,42279,2,0,L|67:236,2,70,8|2|2,0:0|0:2|0:0,0:0:0:0:
304,292,43495,1,2,0:2:0:0:
227,328,43800,2,0,L|149:323,2,70,8|2|2,0:0|0:2|0:0,0:0:0:0:
296,376,44712,6,0,L|506:358,1,210,4|2,0:0|0:2,0:0:0:0:
478,279,45929,1,2,0:0:0:0:
501,198,46233,2,0,L|291:177,1,210,4|2,0:0|0:2,0:0:0:0:
215,205,47450,1,2,0:0:0:0:
228,123,47754,6,0,P|152:110|47:183,2,210,4|2|2,0:0|0:2|0:2,0:0:0:0:
292,178,49883,2,0,L|367:184,1,70,2|4,0:0|0:1,0:0:0:0:
437,144,50492,1,4,0:1:0:0:
433,227,50796,6,0,L|148:232,1,280,4|2,0:1|0:0,0:0:0:0:
179,312,52317,2,0,L|399:316,2,210,4|2|2,0:0|0:2|0:2,0:0:0:0:
98,295,54446,2,0,L|26:301,2,70,8|2|2,0:0|0:2|0:0,0:0:0:0:
103,126,55663,6,0,L|179:119,1,70,2|8,0:2|0:0,0:0:0:0:
233,178,56271,2,0,L|309:171,1,70,2|2,0:2|0:0,0:0:0:0:
369,225,56880,2,0,L|516:237,2,140,4|8|2,0:0|0:0|0:0,0:0:0:0:
335,147,58401,2,0,L|476:133,1,140,4|4,0:0|0:0,0:0:0:0:
440,56,59313,2,0,L|370:50,1,70,4|4,0:0|0:1,0:0:0:0:
256,192,59922,12,4,61427,0:1:0:0:
282,214,62542,6,0,L|227:204,1,46.6666666666667
