osu file format v14

[General]
AudioFilename: Ningyou Saiban.mp3
AudioLeadIn: 1000
PreviewTime: 910
Countdown: 0
SampleSet: None
StackLeniency: 0
Mode: 0
LetterboxInBreaks: 0
WidescreenStoryboard: 0

[Editor]
DistanceSpacing: 0.7
BeatDivisor: 12
GridSize: 8
TimelineZoom: 5.219996

[Metadata]
Title:Ningyou Saiban
TitleUnicode:人形裁判
Artist:U2
ArtistUnicode:U2
Creator:Hollow Wings
Version:Lunatic
Source:東方Project
Tags:Akiyama Uni あきやまうに Doll Judgment Touhou LKs Scorpiour th7.5 cmx Tasofro Twilight Frontier 黄昏フロンティア zun Ningyou Saiban アリス·マーガトロイド alice margatroid
BeatmapID:910820
BeatmapSetID:421061

[Difficulty]
HPDrainRate:6
CircleSize:5
OverallDifficulty:7
ApproachRate:8.6
SliderMultiplier:1.8
SliderTickRate:1

[Events]
//Background and Video events
0,0,"Ningyou Saiban.jpg",0,0
//Break Periods
//Storyboard Layer 0 (Background)
//Storyboard Layer 1 (Fail)
//Storyboard Layer 2 (Pass)
//Storyboard Layer 3 (Foreground)
//Storyboard Sound Samples

[TimingPoints]
-2,304.187135926022,5,2,2,60,1,0
1113,-200,5,2,2,60,0,0
1518,-100,5,2,2,60,0,0
10238,-100,5,2,2,80,0,0
13686,-62.5,5,2,1,70,0,0
19770,-50,5,2,1,70,0,0
22812,-62.5,5,2,1,70,0,0
25853,-62.5,5,2,1,70,0,0
31937,-50,5,2,1,70,0,0
34979,-62.5,5,2,1,70,0,0
38021,-200,5,2,1,70,0,0
38629,304.187135926022,5,3,1,80,1,1
38629,-50,5,3,1,80,0,1
60530,-83.3333333333333,5,3,1,80,0,1
61123,304.187135926022,5,3,1,80,1,1
61427,304.187135926022,5,2,2,60,1,0
61427,-200,5,2,2,60,0,0

[Colours]
Combo1 : 255,166,166
Combo2 : 0,128,255
Combo3 : 155,205,255
Combo4 : 255,68,68

[HitObjects]
453,361,1113,6,0,L|462:380,2,15,2|0|0,0:0|0:0|0:0,0:0:0:0:
424,293,1316,1,0,0:0:0:0:
306,272,1518,5,4,0:0:0:0:
482,229,1721,1,0,0:0:0:0:
507,309,2025,5,4,0:0:0:0:
424,293,2127,2,0,L|306:272,1,120,0|0,0:0|0:0,0:0:0:0:
337,237,2431,2,0,L|219:258,1,120,4|0,0:0|0:0,0:0:0:0:
247,295,2735,2,0,L|129:274,1,120,4|0,0:0|0:0,0:0:0:0:
88,292,3039,5,4,0:0:0:0:
227,181,3242,1,0,0:0:0:0:
407,322,3546,5,4,0:0:0:0:
324,306,3648,2,0,L|206:285,1,120
258,352,3952,2,0,P|288:302|279:244,1,120,4|0,0:0|0:0,0:0:0:0:
153,219,4256,2,0,P|123:269|131:328,1,120,4|0,0:0|0:0,0:0:0:0:
187,373,4560,5,4,0:0:0:0:
17,334,4763,1,0,0:0:0:0:
37,209,5067,5,4,0:0:0:0:
120,193,5169,2,0,L|238:172,1,120
207,137,5473,2,0,L|325:158,1,120,4|0,0:0|0:0,0:0:0:0:
297,195,5777,2,0,L|415:174,1,120,4|0,0:0|0:0,0:0:0:0:
456,192,6081,5,4,0:0:0:0:
317,81,6284,1,0,0:0:0:0:
94,197,6588,5,4,0:0:0:0:
177,181,6690,2,0,L|295:160,1,120
243,227,6994,2,0,P|212:177|220:119,1,120,4|0,0:0|0:0,0:0:0:0:
348,94,7298,2,0,P|379:145|368:203,1,120,4|0,0:0|0:0,0:0:0:0:
312,246,7602,5,4,0:0:0:0:
295,159,7805,1,0,0:0:0:0:
174,350,8109,5,4,0:0:0:0:
193,267,8211,2,0,L|311:246,1,120
372,306,8515,2,0,L|254:327,1,120,4|0,0:0|0:0,0:0:0:0:
336,347,8819,2,0,L|454:368,1,120,4|0,0:0|0:0,0:0:0:0:
442,323,9123,5,4,0:0:0:0:
459,236,9326,1,0,0:0:0:0:
77,333,9630,5,4,0:0:0:0:
51,253,9732,2,0,P|104:305|208:327,1,180
341,134,10238,5,0,0:0:0:0:
314,102,10339,2,0,L|256:91,1,60,4|0,0:0|0:0,0:0:0:0:
218,148,10542,1,0,0:0:0:0:
190,117,10643,5,4,0:0:0:0:
25,87,10846,1,0,0:0:0:0:
24,113,11150,1,4,0:0:0:0:
30,137,11454,1,0,0:0:0:0:
45,158,11758,1,0,0:0:0:0:
68,170,12063,1,0,0:0:0:0:
68,170,12164,5,4,0:0:0:0:
236,167,12367,1,0,0:0:0:0:
237,193,12672,1,4,0:0:0:0:
231,217,12976,1,0,0:0:0:0:
216,238,13279,1,0,0:0:0:0:
193,250,13584,1,0,0:0:0:0:
193,250,13686,5,4,0:1:0:0:
258,273,13889,1,4,0:0:0:0:
67,289,14193,1,0,0:0:0:0:
67,289,14294,2,0,L|264:273,1,192,6|0,0:0|0:0,0:0:0:0:
322,314,14598,2,0,L|131:299,1,192,6|0,0:0|0:0,0:0:0:0:
88,351,14903,2,0,L|280:335,1,192,10|0,0:0|0:0,0:0:0:0:
351,350,15207,5,6,0:0:0:0:
433,345,15410,1,4,0:0:0:0:
479,256,15714,1,0,0:0:0:0:
479,256,15815,2,0,L|282:240,1,192,6|0,0:0|0:0,0:0:0:0:
214,226,16119,2,0,L|405:211,1,192,6|0,0:0|0:0,0:0:0:0:
482,169,16423,2,0,L|290:153,1,192,10|0,0:0|0:0,0:0:0:0:
220,143,16728,5,6,0:0:0:0:
214,226,16931,1,4,0:0:0:0:
122,92,17235,1,0,0:0:0:0:
122,92,17336,2,0,P|217:80|312:90,1,192,6|0,0:0|0:0,0:0:0:0:
287,194,17640,2,0,P|191:205|96:195,1,192,6|0,0:0|0:0,0:0:0:0:
30,145,17944,2,0,P|125:133|220:143,1,192,10|0,0:0|0:0,0:0:0:0:
287,194,18249,5,6,0:0:0:0:
300,105,18452,1,4,0:0:0:0:
362,248,18756,1,0,0:0:0:0:
362,248,18857,2,0,P|266:236|171:246,1,192,6|0,0:0|0:0,0:0:0:0:
93,297,19161,2,0,P|188:308|283:298,1,192,6|0,0:0|0:0,0:0:0:0:
287,194,19465,2,0,P|191:182|96:192,1,192,10|0,0:0|0:0,0:0:0:0:
198,336,19770,5,6,0:0:0:0:
474,188,19972,1,4,0:0:0:0:
474,188,20277,1,0,0:0:0:0:
474,188,20378,2,0,P|314:236|237:238,1,240,6|0,0:0|0:0,0:0:0:0:
275,178,20682,2,0,P|244:91|212:178,1,240,6|0,0:0|0:0,0:0:0:0:
243,238,20986,2,0,P|143:228|-12:173,1,240,10|0,0:0|0:0,0:0:0:0:
10,184,21291,5,6,0:0:0:0:
363,143,21493,1,4,0:0:0:0:
363,143,21798,1,0,0:0:0:0:
363,143,21899,2,0,P|203:191|126:193,1,240,6|0,0:0|0:0,0:0:0:0:
243,237,22203,2,0,P|225:123|122:71,1,240,6|0,0:0|0:0,0:0:0:0:
19,149,22507,2,0,P|37:263|140:315,1,240,10|0,0:0|0:0,0:0:0:0:
207,297,22812,5,6,0:0:0:0:
315,349,23014,1,4,0:0:0:0:
502,384,23319,1,0,0:0:0:0:
502,384,23420,2,0,P|420:355|311:350,1,192,6|0,0:0|0:0,0:0:0:0:
351,330,23724,2,0,P|264:330|159:363,1,192,6|0,0:0|0:0,0:0:0:0:
211,367,24028,2,0,P|125:351|28:300,1,192,10|0,0:0|0:0,0:0:0:0:
2,243,24333,5,6,0:0:0:0:
133,298,24535,1,4,0:0:0:0:
372,270,24839,1,0,0:0:0:0:
372,270,24941,2,0,P|459:166|465:111,1,192,6|2,0:0|0:3,0:0:0:0:
389,45,25245,2,0,P|400:91|399:139,1,96,4|2,0:1|0:3,0:0:0:0:
364,202,25448,1,2,0:3:0:0:
308,244,25549,2,0,P|247:240|130:302,1,192,4|2,0:1|0:3,0:0:0:0:
63,301,25853,5,4,0:1:0:0:
100,357,26056,1,4,0:0:0:0:
326,314,26360,1,0,0:0:0:0:
326,314,26462,2,0,L|129:298,1,192,6|0,0:0|0:0,0:0:0:0:
31,361,26766,2,0,L|222:346,1,192,6|0,0:0|0:0,0:0:0:0:
291,373,27070,2,0,L|99:357,1,192,10|0,0:0|0:0,0:0:0:0:
63,301,27374,5,6,0:0:0:0:
31,361,27577,1,4,0:0:0:0:
9,167,27881,1,0,0:0:0:0:
9,167,27983,2,0,L|206:151,1,192,6|0,0:0|0:0,0:0:0:0:
265,131,28287,2,0,L|74:116,1,192,6|0,0:0|0:0,0:0:0:0:
6,102,28591,2,0,L|198:86,1,192,10|0,0:0|0:0,0:0:0:0:
135,59,28895,5,6,0:0:0:0:
14,33,29098,1,4,0:0:0:0:
303,250,29402,1,0,0:0:0:0:
303,250,29503,2,0,P|207:238|112:248,1,192,6|0,0:0|0:0,0:0:0:0:
36,328,29808,2,0,P|131:339|226:329,1,192,6|0,0:0|0:0,0:0:0:0:
321,293,30112,2,0,P|407:227|464:153,1,192,10|0,0:0|0:0,0:0:0:0:
493,74,30416,5,6,0:0:0:0:
373,52,30618,1,4,0:0:0:0:
15,98,30923,1,0,0:0:0:0:
15,98,31024,2,0,P|108:79|204:82,1,192,6|0,0:0|0:0,0:0:0:0:
328,109,31329,2,0,P|234:127|138:124,1,192,6|0,0:0|0:0,0:0:0:0:
202,157,31633,2,0,P|292:182|381:235,1,192,10|0,0:0|0:0,0:0:0:0:
238,327,31937,5,6,0:0:0:0:
43,190,32139,1,4,0:0:0:0:
43,190,32444,1,0,0:0:0:0:
43,190,32545,2,0,P|203:238|280:240,1,240,6|0,0:0|0:0,0:0:0:0:
245,178,32850,2,0,P|276:90|308:177,1,240,6|0,0:0|0:0,0:0:0:0:
275,240,33154,2,0,P|375:230|530:175,1,240,10|0,0:0|0:0,0:0:0:0:
507,187,33458,5,6,0:0:0:0:
154,145,33660,1,4,0:0:0:0:
154,145,33965,1,0,0:0:0:0:
154,145,34066,2,0,P|314:193|391:195,1,240,6|0,0:0|0:0,0:0:0:0:
274,240,34370,2,0,P|291:125|394:73,1,240,6|0,0:0|0:0,0:0:0:0:
497,151,34675,2,0,P|479:265|376:317,1,240,10|0,0:0|0:0,0:0:0:0:
310,297,34979,5,6,0:0:0:0:
66,326,35181,1,4,0:0:0:0:
10,384,35486,1,0,0:0:0:0:
10,384,35587,2,0,P|92:355|201:350,1,192,6|0,0:0|0:0,0:0:0:0:
161,330,35891,2,0,P|247:330|352:363,1,192,6|0,0:0|0:0,0:0:0:0:
301,367,36196,2,0,P|386:351|483:300,1,192,10|0,0:0|0:0,0:0:0:0:
510,243,36500,5,6,0:0:0:0:
271,272,36702,1,4,0:0:0:0:
140,270,37006,1,0,0:0:0:0:
140,270,37108,2,0,P|53:166|47:111,1,192,6|2,0:0|0:3,0:0:0:0:
123,45,37413,2,0,P|111:91|112:139,1,96,4|2,0:1|0:3,0:0:0:0:
148,202,37615,1,2,0:3:0:0:
204,244,37717,2,0,P|265:240|382:302,1,192,4|2,0:1|0:3,0:0:0:0:
449,303,38021,6,0,L|487:297,2,30
410,358,38325,1,0,0:0:0:0:
433,192,38528,5,4,0:0:0:0:
433,192,38629,2,0,L|301:171,1,120,4|0,0:1|0:0,0:0:0:0:
167,204,38831,1,2,0:0:0:0:
91,195,39135,2,0,P|132:187|94:211,1,120,4|8,0:0|0:0,0:0:0:0:
248,215,39541,1,2,0:2:0:0:
14,186,39744,2,0,P|55:178|17:202,1,120,2|2,0:0|0:0,0:0:0:0:
37,288,40048,5,4,0:0:0:0:
37,288,40149,2,0,L|169:267,1,120,4|0,0:0|0:0,0:0:0:0:
303,300,40351,1,2,0:0:0:0:
379,291,40656,2,0,P|338:283|376:307,1,120,4|8,0:0|0:0,0:0:0:0:
222,311,41061,1,2,0:2:0:0:
453,281,41366,1,2,0:0:0:0:
398,197,41569,5,2,0:0:0:0:
398,197,41670,2,0,P|439:189|401:213,1,120,4|0,0:0|0:0,0:0:0:0:
466,114,41873,1,2,0:0:0:0:
453,281,42177,2,0,P|494:273|456:297,1,120,4|8,0:0|0:0,0:0:0:0:
398,197,42583,1,2,0:2:0:0:
379,291,42786,2,0,P|420:283|382:307,1,120,2|2,0:0|0:0,0:0:0:0:
303,300,43090,5,4,0:0:0:0:
303,300,43191,2,0,L|171:279,1,120,8|0,0:0|0:0,0:0:0:0:
79,202,43394,1,2,0:0:0:0:
84,27,43698,2,0,P|43:19|81:43,1,120,4|8,0:0|0:0,0:0:0:0:
141,165,44002,2,0,P|182:157|144:181,1,120,0|2,0:0|0:2,0:0:0:0:
144,285,44307,2,0,P|103:277|141:301,1,120,0|2,0:0|0:0,0:0:0:0:
79,202,44611,5,2,0:0:0:0:
79,202,44712,2,0,L|211:181,1,120,4|0,0:0|0:0,0:0:0:0:
322,160,44915,1,2,0:0:0:0:
362,95,45219,1,4,0:0:0:0:
362,95,45321,1,4,0:0:0:0:
396,161,45523,1,0,0:0:0:0:
396,161,45625,1,2,0:2:0:0:
404,194,45726,1,0,0:0:0:0:
404,194,45828,1,2,0:0:0:0:
393,225,45929,1,2,0:0:0:0:
393,225,46030,1,0,0:0:0:0:
365,244,46132,5,4,0:0:0:0:
365,244,46233,2,0,L|233:223,1,120,4|0,0:0|0:0,0:0:0:0:
123,199,46436,1,2,0:0:0:0:
269,295,46740,2,0,P|310:303|272:279,1,120,4|8,0:0|0:0,0:0:0:0:
374,312,47146,1,2,0:2:0:0:
365,244,47349,2,0,P|392:212|352:233,1,120,0|2,0:0|0:0,0:0:0:0:
175,282,47653,5,2,0:0:0:0:
175,282,47754,2,0,P|137:259|161:296,1,120,4|0,0:0|0:0,0:0:0:0:
72,248,47957,1,2,0:0:0:0:
72,248,48261,1,4,0:0:0:0:
72,248,48362,2,0,P|207:229|101:298,1,360,8|2,0:0|0:2,0:0:0:0:
244,317,48869,2,0,P|267:280|230:302,1,120,2|2,0:0|0:0,0:0:0:0:
179,360,49174,5,4,0:0:0:0:
179,360,49275,2,0,L|311:339,1,120,4|0,0:0|0:0,0:0:0:0:
466,360,49478,1,2,0:0:0:0:
368,377,49782,1,4,0:0:0:0:
368,377,49884,1,2,0:0:0:0:
402,289,50086,1,0,0:0:0:0:
402,289,50188,1,4,0:1:0:0:
394,248,50289,1,2,0:0:0:0:
394,248,50391,1,4,0:0:0:0:
410,209,50492,1,4,0:1:0:0:
410,209,50593,1,0,0:0:0:0:
450,195,50695,5,2,0:0:0:0:
450,195,50796,2,0,L|331:176,1,120,4|0,0:1|0:0,0:0:0:0:
197,160,50999,1,2,0:0:0:0:
265,167,51303,1,4,0:0:0:0:
265,167,51404,2,0,P|130:147|236:216,1,360,8|2,0:0|0:2,0:0:0:0:
331,176,51911,2,0,P|368:153|344:190,1,120,2|2,0:0|0:0,0:0:0:0:
292,228,52216,5,4,0:0:0:0:
292,228,52317,2,0,L|424:207,1,120,4|0,0:0|0:0,0:0:0:0:
460,101,52520,1,2,0:0:0:0:
265,167,52824,2,0,L|133:146,1,120,4|8,0:0|0:0,0:0:0:0:
92,42,53230,1,2,0:2:0:0:
92,42,53534,1,2,0:0:0:0:
49,133,53736,5,2,0:0:0:0:
49,133,53837,2,0,L|181:112,1,120,4|0,0:0|0:0,0:0:0:0:
292,90,54040,1,2,0:0:0:0:
348,150,54345,2,0,L|480:129,1,120,4|8,0:0|0:0,0:0:0:0:
292,90,54750,1,2,0:2:0:0:
348,150,54953,2,0,L|480:129,1,120,2|2,0:0|0:0,0:0:0:0:
196,249,55257,5,4,0:0:0:0:
196,249,55358,2,0,L|328:228,1,120,8|0,0:0|0:0,0:0:0:0:
265,167,55562,1,2,0:0:0:0:
265,167,55663,2,0,P|165:149|34:201,1,240,0|4,0:0|0:0,0:0:0:0:
10,258,55967,2,0,P|88:198|176:58,1,240,8|0,0:0|0:0,0:0:0:0:
188,17,56271,1,2,0:2:0:0:
21,131,56474,2,0,P|94:97|138:89,1,120,0|2,0:0|0:0,0:0:0:0:
228,96,56778,5,2,0:0:0:0:
228,96,56879,2,0,P|293:115|345:145,1,120,4|0,0:0|0:0,0:0:0:0:
406,193,57082,1,2,0:0:0:0:
392,317,57387,2,0,P|446:280|499:292,2,120,4|8|0,0:0|0:0|0:0,0:0:0:0:
320,354,57792,1,2,0:2:0:0:
280,369,57894,1,0,0:0:0:0:
238,368,57995,1,2,0:0:0:0:
204,343,58096,1,2,0:0:0:0:
193,302,58198,1,0,0:0:0:0:
174,266,58299,5,4,0:0:0:0:
137,247,58401,2,0,P|79:238|32:273,8,120,8|0|2|0|0|4|8|0|0,0:0|0:0|0:0|0:0|0:0|0:0|0:0|0:0|0:0,0:0:0:0:
172,223,59313,5,4,0:0:0:0:
193,186,59415,1,2,0:0:0:0:
182,146,59516,1,2,0:0:0:0:
190,105,59617,1,4,0:1:0:0:
222,77,59719,1,0,0:0:0:0:
263,71,59820,1,2,0:0:0:0:
300,91,59922,6,0,P|346:116|420:117,1,120,4|0,0:1|0:0,0:0:0:0:
288,229,60530,6,0,P|348:231|376:226,1,71.9999978027344
348,375,61123,5,0,0:0:0:0:
265,356,61325,1,0,0:0:0:0:
265,356,61427,2,0,L|192:360,1,60,4|4,0:1|0:0,0:0:0:0:
84,329,61934,1,0,0:0:0:0:
84,329,62036,2,0,L|184:337,1,90,4|0,0:0|0:0,0:0:0:0:
178,210,62543,6,0,L|189:191,2,15,2|0|4,0:0|0:0|0:0,0:0:0:0:
153,268,62745,1,0,0:0:0:0:
