osu file format v14

[General]
AudioFilename: Ningyou Saiban.mp3
AudioLeadIn: 1000
PreviewTime: 910
Countdown: 0
SampleSet: None
StackLeniency: 0
Mode: 0
LetterboxInBreaks: 0
WidescreenStoryboard: 0

[Editor]
DistanceSpacing: 0.7
BeatDivisor: 6
GridSize: 8
TimelineZoom: 2.3

[Metadata]
Title:Ningyou Saiban
TitleUnicode:人形裁判
Artist:U2
ArtistUnicode:U2
Creator:Hollow Wings
Version:Insane
Source:東方Project
Tags:Akiyama Uni あきやまうに Doll Judgment Touhou LKs Scorpiour th7.5 cmx Tasofro Twilight Frontier 黄昏フロンティア zun Ningyou Saiban アリス·マーガトロイド alice margatroid
BeatmapID:910819
BeatmapSetID:421061

[Difficulty]
HPDrainRate:6
CircleSize:5
OverallDifficulty:7
ApproachRate:8.6
SliderMultiplier:1.8
SliderTickRate:1

[Events]
//Background and Video events
0,0,"Ningyou Saiban.jpg",0,0
//Break Periods
//Storyboard Layer 0 (Background)
//Storyboard Layer 1 (Fail)
//Storyboard Layer 2 (Pass)
//Storyboard Layer 3 (Foreground)
//Storyboard Sound Samples

[TimingPoints]
-2,304.187135926022,5,2,2,60,1,0
1113,-200,5,2,2,60,0,0
1518,-100,5,2,2,60,0,0
10238,-100,5,2,2,80,0,0
13686,-133.333333333333,5,2,1,70,0,0
19770,-100,5,2,1,70,0,0
25853,-133.333333333333,5,2,1,70,0,0
31937,-100,5,2,1,70,0,0
38021,-200,5,2,1,70,0,0
38629,304.187135926022,5,3,1,80,1,1
38629,-200,5,3,1,80,0,1
61123,304.187135926022,5,3,1,80,1,1
61427,304.187135926022,5,2,2,60,1,0
61427,-200,5,2,2,60,0,0

[Colours]
Combo1 : 255,166,166
Combo2 : 0,128,255
Combo3 : 155,205,255
Combo4 : 255,68,68

[HitObjects]
59,361,1113,6,0,L|50:380,2,15,2|0|0,0:0|0:0|0:0,0:0:0:0:
88,293,1316,1,0,0:0:0:0:
206,272,1518,5,4,0:0:0:0:
30,229,1721,1,0,0:0:0:0:
5,309,2025,5,4,0:0:0:0:
88,293,2127,2,0,L|206:272,1,120,0|0,0:0|0:0,0:0:0:0:
175,237,2431,2,0,L|293:258,1,120,4|0,0:0|0:0,0:0:0:0:
265,295,2735,2,0,L|383:274,1,120,4|0,0:0|0:0,0:0:0:0:
424,292,3039,5,4,0:0:0:0:
285,181,3242,1,0,0:0:0:0:
105,322,3546,5,4,0:0:0:0:
188,306,3648,2,0,L|306:285,1,120
254,352,3952,2,0,P|224:302|233:244,1,120,4|0,0:0|0:0,0:0:0:0:
359,219,4256,2,0,P|389:269|381:328,1,120,4|0,0:0|0:0,0:0:0:0:
325,373,4560,5,4,0:0:0:0:
495,334,4763,1,0,0:0:0:0:
475,209,5067,5,4,0:0:0:0:
392,193,5169,2,0,L|274:172,1,120
305,137,5473,2,0,L|187:158,1,120,4|0,0:0|0:0,0:0:0:0:
215,195,5777,2,0,L|97:174,1,120,4|0,0:0|0:0,0:0:0:0:
56,192,6081,5,4,0:0:0:0:
195,81,6284,1,0,0:0:0:0:
418,197,6588,5,4,0:0:0:0:
335,181,6690,2,0,L|217:160,1,120
269,227,6994,2,0,P|300:177|292:119,1,120,4|0,0:0|0:0,0:0:0:0:
164,94,7298,2,0,P|133:145|144:203,1,120,4|0,0:0|0:0,0:0:0:0:
200,246,7602,5,4,0:0:0:0:
217,159,7805,1,0,0:0:0:0:
338,350,8109,5,4,0:0:0:0:
319,267,8211,2,0,L|201:246,1,120
140,306,8515,2,0,L|258:327,1,120,4|0,0:0|0:0,0:0:0:0:
176,347,8819,2,0,L|58:368,1,120,4|0,0:0|0:0,0:0:0:0:
70,323,9123,5,4,0:0:0:0:
53,236,9326,1,0,0:0:0:0:
435,333,9630,5,4,0:0:0:0:
461,253,9732,2,0,P|408:305|304:327,1,180
171,134,10238,5,0,0:0:0:0:
198,102,10340,2,0,L|256:91,1,60,4|0,0:0|0:0,0:0:0:0:
294,148,10543,1,0,0:0:0:0:
322,117,10644,5,4,0:0:0:0:
487,87,10847,1,0,0:0:0:0:
488,113,11151,1,4,0:0:0:0:
482,137,11455,1,0,0:0:0:0:
467,158,11759,1,0,0:0:0:0:
444,170,12064,1,0,0:0:0:0:
444,170,12165,5,4,0:0:0:0:
276,167,12368,1,0,0:0:0:0:
275,193,12672,1,4,0:0:0:0:
281,217,12976,1,0,0:0:0:0:
296,238,13280,1,0,0:0:0:0:
319,250,13585,1,0,0:0:0:0:
319,250,13686,5,4,0:1:0:0:
493,372,13889,1,4,0:0:0:0:
451,350,14193,1,0,0:0:0:0:
451,350,14294,2,0,L|305:354,2,135.000005149842,6|6|10,0:0|0:0|0:0,0:0:0:0:
493,329,15207,5,6,0:0:0:0:
188,292,15410,1,4,0:0:0:0:
146,313,15714,1,0,0:0:0:0:
146,313,15815,2,0,L|0:317,2,135.000005149842,6|6|10,0:0|0:0|0:0,0:0:0:0:
188,335,16728,5,6,0:0:0:0:
430,162,16931,1,4,0:0:0:0:
363,129,17235,1,0,0:0:0:0:
363,129,17336,2,0,L|509:133,2,135.000005149842,6|6|10,0:0|0:0|0:0,0:0:0:0:
433,99,18249,5,6,0:0:0:0:
116,101,18452,1,4,0:0:0:0:
183,68,18756,1,0,0:0:0:0:
183,68,18857,2,0,L|37:72,2,135.000005149842,6|6|10,0:0|0:0|0:0,0:0:0:0:
113,38,19770,5,6,0:0:0:0:
85,372,19972,1,4,0:0:0:0:
44,317,20276,1,0,0:0:0:0:
44,317,20377,2,0,P|99:305|217:356,2,180,6|6|10,0:0|0:0|0:0,0:0:0:0:
151,382,21290,5,6,0:0:0:0:
180,62,21493,1,4,0:0:0:0:
57,149,21797,1,0,0:0:0:0:
57,149,21899,1,6,0:0:0:0:
371,162,22203,1,6,0:0:0:0:
57,149,22507,1,14,0:0:0:0:
116,101,22811,5,6,0:0:0:0:
408,172,23014,1,4,0:0:0:0:
332,178,23318,1,0,0:0:0:0:
332,178,23419,2,0,P|384:244|466:220,2,180,6|6|10,0:0|0:0|0:0,0:0:0:0:
408,172,24332,5,6,0:0:0:0:
169,303,24535,1,4,0:0:0:0:
245,309,24839,1,0,0:0:0:0:
245,309,24941,1,6,0:0:0:0:
54,323,25144,1,2,0:3:0:0:
86,353,25245,1,4,0:1:0:0:
128,347,25346,2,0,L|169:303,1,60,2|2,0:3|0:3,0:0:0:0:
176,225,25549,2,0,P|227:253|245:308,1,120,4|2,0:1|0:3,0:0:0:0:
200,370,25853,5,4,0:1:0:0:
493,329,26056,1,4,0:0:0:0:
313,272,26360,1,0,0:0:0:0:
313,272,26462,2,0,L|419:268,1,90.0000034332277,6|0,0:0|0:0,0:0:0:0:
472,291,26766,2,0,L|366:287,1,90.0000034332277,6|0,0:0|0:0,0:0:0:0:
274,312,27070,2,0,L|380:308,1,90.0000034332277,10|0,0:0|0:0,0:0:0:0:
425,342,27374,5,6,0:0:0:0:
369,99,27577,1,4,0:0:0:0:
300,130,27882,1,0,0:0:0:0:
300,130,27983,2,0,L|446:134,2,135.000005149842,6|6|10,0:0|0:0|0:0,0:0:0:0:
373,23,28895,5,6,0:0:0:0:
160,272,29098,1,4,0:0:0:0:
340,215,29402,1,0,0:0:0:0:
340,215,29504,2,0,L|234:211,1,90.0000034332277,6|0,0:0|0:0,0:0:0:0:
181,234,29808,2,0,L|287:230,1,90.0000034332277,6|0,0:0|0:0,0:0:0:0:
379,255,30112,2,0,L|273:251,1,90.0000034332277,10|0,0:0|0:0,0:0:0:0:
228,285,30416,5,6,0:0:0:0:
72,87,30619,1,4,0:0:0:0:
141,121,30923,1,0,0:0:0:0:
141,121,31024,2,0,L|-5:125,2,135.000005149842,6|6|10,0:0|0:0|0:0,0:0:0:0:
70,10,31937,5,6,0:0:0:0:
187,289,32140,1,4,0:0:0:0:
263,278,32444,1,0,0:0:0:0:
263,278,32546,2,0,P|230:228|166:217,1,120,6|0,0:0|0:0,0:0:0:0:
116,218,32850,2,0,P|175:214|217:164,1,120,6|0,0:0|0:0,0:0:0:0:
242,121,33154,2,0,P|215:174|237:235,1,120,10|0,0:0|0:0,0:0:0:0:
263,278,33458,5,6,0:0:0:0:
334,35,33661,1,4,0:0:0:0:
403,64,33965,1,0,0:0:0:0:
403,64,34066,1,6,0:0:0:0:
88,31,34371,1,6,0:0:0:0:
345,103,34675,1,10,0:0:0:0:
406,134,34979,5,6,0:0:0:0:
353,350,35182,1,4,0:0:0:0:
277,339,35486,1,0,0:0:0:0:
277,339,35588,2,0,P|310:289|374:278,1,120,6|0,0:0|0:0,0:0:0:0:
424,279,35892,2,0,P|364:275|322:225,1,120,6|0,0:0|0:0,0:0:0:0:
298,182,36196,2,0,P|324:235|302:296,1,120,10|0,0:0|0:0,0:0:0:0:
277,339,36500,5,6,0:0:0:0:
88,305,36703,1,4,0:0:0:0:
86,371,37007,1,0,0:0:0:0:
86,371,37108,2,0,P|157:361|193:324,1,120,6|2,0:0|0:3,0:0:0:0:
200,287,37413,5,2,0:3:0:0:
218,249,37514,1,2,0:3:0:0:
254,228,37615,1,2,0:3:0:0:
296,224,37717,2,0,P|330:161|322:110,1,120,4|2,0:1|0:3,0:0:0:0:
346,45,38021,6,0,L|378:23,2,30
273,61,38325,2,0,L|213:53,1,60,0|4,0:0|0:0,0:0:0:0:
142,51,38629,6,0,P|46:55|136:112,1,270,4|0,0:1|0:0,0:0:0:0:
95,77,39744,1,2,0:0:0:0:
95,77,39845,1,2,0:0:0:0:
351,268,40048,5,4,0:0:0:0:
351,268,40149,2,0,P|421:333|398:229,1,270,4|0,0:0|0:0,0:0:0:0:
403,283,41365,1,2,0:0:0:0:
108,307,41569,5,2,0:0:0:0:
108,307,41670,2,0,P|23:364|58:267,1,270,4|0,0:0|0:0,0:0:0:0:
57,322,42786,1,2,0:0:0:0:
57,322,42887,1,2,0:0:0:0:
108,307,43090,1,4,0:0:0:0:
108,307,43191,5,4,0:0:0:0:
139,268,43394,1,4,0:0:0:0:
12,307,43698,1,4,0:0:0:0:
12,307,43799,1,8,0:3:0:0:
84,155,44002,1,0,0:0:0:0:
84,155,44104,2,0,P|79:118|86:87,1,60,2|0,0:2|0:0,0:0:0:0:
143,74,44408,2,0,P|160:49|185:33,1,60,2|2,0:0|0:0,0:0:0:0:
249,50,44712,6,0,P|285:138|205:95,1,240,4|0,0:0|0:0,0:0:0:0:
174,126,45625,1,4,0:0:0:0:
177,157,45726,1,0,0:0:0:0:
193,184,45827,1,0,0:0:0:0:
217,203,45929,1,2,0:0:0:0:
247,213,46030,1,0,0:0:0:0:
279,210,46132,1,4,0:0:0:0:
307,195,46233,6,0,P|271:291|356:234,1,270,4|0,0:0|0:0,0:0:0:0:
306,249,47349,1,0,0:0:0:0:
306,249,47450,1,2,0:0:0:0:
68,163,47653,5,4,0:0:0:0:
68,163,47754,1,8,0:0:0:0:
95,90,47906,2,0,L|123:88,1,15
22,50,48312,2,0,L|50:48,1,15
56,77,48667,2,0,P|73:132|67:168,1,90,2|2,0:2|0:0,0:0:0:0:
370,88,49275,5,4,0:0:0:0:
439,153,49427,2,0,L|411:151,1,15
458,63,49883,1,2,0:0:0:0:
370,88,50086,1,0,0:0:0:0:
370,88,50188,2,0,L|340:85,2,30,4|0|4,0:1|0:0|0:0,0:0:0:0:
312,116,50492,2,0,L|282:113,2,30,4|0|2,0:1|0:0|0:0,0:0:0:0:
235,155,50796,6,0,P|218:249|293:173,1,270,4|0,0:1|0:0,0:0:0:0:
251,207,51911,1,2,0:0:0:0:
251,207,52013,1,2,0:0:0:0:
464,274,52216,5,4,0:0:0:0:
464,274,52317,2,0,P|480:368|405:292,1,270,4|0,0:0|0:0,0:0:0:0:
448,325,53534,1,2,0:0:0:0:
201,286,53736,5,2,0:0:0:0:
201,286,53838,2,0,P|298:315|237:234,1,270,4|0,0:0|0:0,0:0:0:0:
255,286,54953,1,2,0:0:0:0:
255,286,55055,1,2,0:0:0:0:
88,303,55257,1,4,0:0:0:0:
88,303,55359,1,4,0:0:0:0:
116,142,55562,5,2,0:0:0:0:
124,194,55663,1,2,0:2:0:0:
325,131,55866,1,4,0:0:0:0:
325,131,55967,2,0,L|361:69,1,60,8|0,0:0|0:0,0:0:0:0:
379,201,56271,2,0,L|403:133,1,60,2|0,0:2|0:0,0:0:0:0:
444,262,56576,2,0,L|456:191,1,60,2|2,0:0|0:0,0:0:0:0:
505,187,56880,5,4,0:0:0:0:
511,299,57083,1,2,0:0:0:0:
279,356,57387,2,0,L|266:323,2,30,4|4|0,0:0|0:0|0:0,0:0:0:0:
261,210,57792,1,4,0:0:0:0:
261,210,57894,2,0,L|225:191,1,30,0|2,0:0|0:0,0:0:0:0:
191,137,58096,1,2,0:0:0:0:
191,137,58198,2,0,L|160:136,1,30,0|4,0:0|0:0,0:0:0:0:
89,119,58401,6,0,L|54:141,2,30,4|0|2,0:0|0:0|0:0,0:0:0:0:
131,200,58705,2,0,L|166:213,2,30,2|0|4,0:2|0:0|0:0,0:0:0:0:
143,290,59009,2,0,L|108:303,2,30,4|0|2,0:0|0:0|0:0,0:0:0:0:
46,269,59313,1,4,0:0:0:0:
63,242,59415,1,2,0:0:0:0:
88,223,59516,1,2,0:0:0:0:
118,215,59617,1,4,0:1:0:0:
149,218,59719,2,0,L|190:224,1,30,6|6,0:0|0:0,0:0:0:0:
305,293,59922,6,0,P|374:302|434:251,1,150,4|0,0:1|0:0,0:0:0:0:
464,112,60530,2,0,P|395:103|335:154,1,150
336,151,61123,1,0,0:0:0:0:
488,48,61325,5,0,0:0:0:0:
488,48,61427,1,4,0:1:0:0:
464,112,61731,2,0,P|420:134|368:141,1,90,4|4,0:0|0:0,0:0:0:0:
312,138,62339,1,4,0:0:0:0:
296,77,62542,6,0,L|304:63,2,15,2|0|4,0:0|0:0|0:0,0:0:0:0:
249,119,62745,1,0,0:0:0:0:
