osu file format v14

[General]
AudioFilename: Ningyou Saiban.mp3
AudioLeadIn: 1000
PreviewTime: 910
Countdown: 0
SampleSet: Soft
StackLeniency: 0.2
Mode: 0
LetterboxInBreaks: 0
WidescreenStoryboard: 0

[Editor]
DistanceSpacing: 0.7
BeatDivisor: 6
GridSize: 8
TimelineZoom: 2.3

[Metadata]
Title:Ningyou Saiban
TitleUnicode:人形裁判
Artist:U2
ArtistUnicode:U2
Creator:Hollow Wings
Version:Hard
Source:東方Project
Tags:Akiyama Uni あきやまうに Doll Judgment Touhou LKs Scorpiour th7.5 cmx Tasofro Twilight Frontier 黄昏フロンティア zun Ningyou Saiban アリス·マーガトロイド alice margatroid
BeatmapID:910818
BeatmapSetID:421061

[Difficulty]
HPDrainRate:5
CircleSize:4
OverallDifficulty:6
ApproachRate:7
SliderMultiplier:1.2
SliderTickRate:1

[Events]
//Background and Video events
0,0,"Ningyou Saiban.jpg",0,0
//Break Periods
//Storyboard Layer 0 (Background)
//Storyboard Layer 1 (Fail)
//Storyboard Layer 2 (Pass)
//Storyboard Layer 3 (Foreground)
//Storyboard Sound Samples

[TimingPoints]
-2,304.187135926022,5,2,2,60,1,0
10238,-100,5,2,2,80,0,0
13686,-133.333333333333,5,2,1,70,0,0
19770,-100,5,2,1,70,0,0
25853,-133.333333333333,5,2,1,70,0,0
31937,-100,5,2,1,70,0,0
38629,304.187135926022,5,3,1,80,1,1
38629,-133.333333333333,5,3,1,80,0,1
61123,304.187135926022,5,3,1,80,1,1
61427,304.187135926022,5,2,2,60,1,0

[Colours]
Combo1 : 255,166,166
Combo2 : 0,128,255
Combo3 : 155,205,255
Combo4 : 255,68,68

[HitObjects]
218,308,1113,6,0,P|184:327|145:335,1,80
150,231,1518,5,4,0:0:0:0:
229,260,1721,2,0,L|352:246,1,120,0|4,0:0|0:0,0:0:0:0:
380,274,2127,2,0,L|501:290,2,120,0|4|4,0:0|0:0|0:0,0:0:0:0:
380,274,3039,5,4,0:0:0:0:
301,303,3242,2,0,L|178:289,1,120,0|4,0:0|0:0,0:0:0:0:
150,317,3648,2,0,L|29:333,2,120,0|4|4,0:0|0:0|0:0,0:0:0:0:
72,218,4560,5,4,0:0:0:0:
141,171,4763,2,0,L|20:155,1,120,0|4,0:0|0:0,0:0:0:0:
22,117,5169,2,0,P|76:92|137:97,1,120,0|4,0:0|0:0,0:0:0:0:
225,185,5777,1,4,0:0:0:0:
345,224,6081,5,4,0:0:0:0:
395,162,6284,2,0,L|276:177,1,120,0|4,0:0|0:0,0:0:0:0:
225,184,6690,2,0,P|256:240|252:297,1,120,0|4,0:0|0:0,0:0:0:0:
161,381,7298,1,4,0:0:0:0:
57,311,7602,5,4,0:0:0:0:
135,278,7805,2,0,L|256:294,1,120,0|4,0:0|0:0,0:0:0:0:
295,289,8211,2,0,L|413:305,2,120,0|4|4,0:0|0:0|0:0,0:0:0:0:
403,224,9123,5,4,0:0:0:0:
320,211,9326,2,0,L|201:226,1,120,0|4,0:0|0:0,0:0:0:0:
161,212,9732,1,0,0:0:0:0:
37,204,10036,2,0,L|116:194,1,80,4|0,0:0|0:0,0:0:0:0:
150,131,10340,6,0,L|103:115,2,40,4|0|0,0:0|0:0|0:0,0:0:0:0:
196,152,10644,2,0,L|286:144,1,80,4|0,0:0|0:0,0:0:0:0:
446,163,11151,1,4,0:0:0:0:
287,217,11455,1,0,0:0:0:0:
456,237,11759,1,0,0:0:0:0:
298,294,12064,6,0,L|258:288,1,40,0|4,0:0|0:0,0:0:0:0:
118,295,12368,1,0,0:0:0:0:
210,232,12672,1,4,0:0:0:0:
27,293,12976,1,0,0:0:0:0:
147,176,13280,1,0,0:0:0:0:
298,294,13585,6,0,L|350:289,1,40,0|4,0:0|0:1,0:0:0:0:
461,272,13889,2,0,L|371:268,1,90.0000034332277,4|0,0:0|0:0,0:0:0:0:
336,246,14294,2,0,L|246:242,2,90.0000034332277,6|6|10,0:0|0:0|0:0,0:0:0:0:
425,147,15207,5,6,0:0:0:0:
482,79,15410,2,0,L|392:75,1,90.0000034332277,4|0,0:0|0:0,0:0:0:0:
357,52,15815,2,0,L|267:48,1,90.0000034332277,6|6,0:0|0:0,0:0:0:0:
222,166,16424,1,10,0:0:0:0:
82,110,16728,5,6,0:0:0:0:
162,85,16931,2,0,L|260:81,1,90.0000034332277,4|0,0:0|0:0,0:0:0:0:
239,121,17336,2,0,L|337:124,2,90.0000034332277,6|6|10,0:0|0:0|0:0,0:0:0:0:
145,208,18249,5,6,0:0:0:0:
218,250,18452,2,0,L|316:253,1,90.0000034332277,4|0,0:0|0:0,0:0:0:0:
335,218,18857,2,0,L|433:221,1,90.0000034332277,6|6,0:0|0:0,0:0:0:0:
323,299,19466,1,10,0:0:0:0:
156,323,19770,5,6,0:0:0:0:
157,323,19973,2,0,L|29:332,1,120,4|0,0:0|0:0,0:0:0:0:
15,351,20378,1,6,0:0:0:0:
70,237,20682,1,6,0:0:0:0:
179,303,20987,1,10,0:0:0:0:
346,321,21291,5,6,0:0:0:0:
346,321,21494,2,0,L|473:330,1,120,4|0,0:0|0:0,0:0:0:0:
485,357,21899,1,6,0:0:0:0:
328,291,22203,1,6,0:0:0:0:
492,253,22508,1,10,0:0:0:0:
330,208,22812,5,6,0:0:0:0:
328,291,23015,2,0,L|455:300,1,120,4|0,0:0|0:0,0:0:0:0:
490,301,23420,2,0,P|489:242|462:189,2,120,6|6|10,0:0|0:0|0:0,0:0:0:0:
330,208,24332,5,6,0:0:0:0:
229,217,24535,2,0,L|109:226,1,120,4|0,0:0|0:0,0:0:0:0:
71,208,24941,1,6,0:0:0:0:
201,134,25245,1,4,0:1:0:0:
331,208,25549,2,0,P|368:238|392:277,1,80,4|2,0:1|0:3,0:0:0:0:
402,304,25853,5,4,0:1:0:0:
476,268,26056,2,0,L|386:264,1,90.0000034332277,4|0,0:0|0:0,0:0:0:0:
360,297,26461,2,0,L|270:293,2,90.0000034332277,6|6|10,0:0|0:0|0:0,0:0:0:0:
211,351,27374,5,6,0:0:0:0:
159,286,27577,2,0,L|69:282,1,90.0000034332277,4|0,0:0|0:0,0:0:0:0:
69,229,27982,2,0,L|158:225,1,90.0000034332277,6|6,0:0|0:0,0:0:0:0:
207,144,28591,1,10,0:0:0:0:
41,55,28895,5,6,0:0:0:0:
125,53,29098,2,0,L|223:49,1,90.0000034332277,4|0,0:0|0:0,0:0:0:0:
263,47,29503,2,0,L|361:50,2,90.0000034332277,6|6|10,0:0|0:0|0:0,0:0:0:0:
140,130,30416,5,6,0:0:0:0:
224,124,30619,2,0,L|322:120,1,90.0000034332277,4|0,0:0|0:0,0:0:0:0:
362,120,31024,2,0,L|460:123,1,90.0000034332277,6|6,0:0|0:0,0:0:0:0:
452,122,31633,1,10,0:0:0:0:
463,23,31937,5,6,0:0:0:0:
464,23,32140,2,0,L|336:32,1,120,4|0,0:0|0:0,0:0:0:0:
298,64,32546,1,6,0:0:0:0:
172,73,32849,1,6,0:0:0:0:
46,85,33154,1,10,0:0:0:0:
178,54,33458,5,6,0:0:0:0:
178,54,33661,2,0,L|305:63,1,120,4|0,0:0|0:0,0:0:0:0:
341,53,34066,1,6,0:0:0:0:
464,24,34370,1,6,0:0:0:0:
379,117,34675,1,10,0:0:0:0:
209,126,34979,5,6,0:0:0:0:
174,202,35182,2,0,L|54:211,1,120,4|0,0:0|0:0,0:0:0:0:
38,249,35587,2,0,P|38:308|65:361,2,120,6|6|10,0:0|0:0|0:0,0:0:0:0:
193,164,36500,5,6,0:0:0:0:
158,240,36703,2,0,L|38:249,1,120,4|0,0:0|0:0,0:0:0:0:
50,209,37108,1,6,0:0:0:0:
155,276,37412,1,2,0:3:0:0:
281,286,37716,2,0,P|325:282|365:266,1,80,4|2,0:1|0:3,0:0:0:0:
408,241,38021,1,0,0:0:0:0:
431,118,38325,2,0,P|399:142|362:157,1,80
313,160,38629,6,0,P|178:125|267:222,1,360.000013732911,4|2,0:1|0:0,0:0:0:0:
352,279,40048,5,4,0:0:0:0:
352,279,40149,2,0,P|234:319|109:246,1,270.000010299683,4|2,0:0|0:2,0:0:0:0:
137,42,41670,6,0,P|241:275|210:30,1,720.000027465821,4|2,0:0|0:2,0:0:0:0:
194,157,44408,5,2,0:0:0:0:
194,157,44712,2,0,P|282:139|340:67,1,180.000006866455,4|4,0:0|0:0,0:0:0:0:
338,73,45625,5,2,0:2:0:0:
395,184,45929,1,2,0:0:0:0:
395,184,46233,2,0,P|297:186|232:133,1,180.000006866455,4|8,0:0|0:0,0:0:0:0:
141,126,47146,6,0,P|97:140|64:173,1,90.0000034332277,2|2,0:2|0:0,0:0:0:0:
68,297,47754,2,0,L|261:284,1,180.000006866455,4|8,0:0|0:0,0:0:0:0:
366,238,48667,6,0,L|276:245,1,90.0000034332277,2|2,0:2|0:0,0:0:0:0:
393,194,49275,2,0,P|397:295|350:359,1,180.000006866455,4|2,0:0|0:0,0:0:0:0:
276,245,50188,5,4,0:1:0:0:
276,245,50492,1,4,0:1:0:0:
276,246,50796,2,0,P|137:256|235:153,1,360.000013732911,4|2,0:1|0:0,0:0:0:0:
338,163,52215,5,4,0:0:0:0:
338,163,52316,2,0,P|317:93|146:80,1,270.000010299683,4|2,0:0|0:2,0:0:0:0:
130,265,53838,6,0,P|144:81|207:254,1,510.000019454957,4|2,0:0|0:0,0:0:0:0:
172,269,55663,5,2,0:2:0:0:
121,348,55967,2,0,L|29:356,2,90.0000034332277,8|2|2,0:3|0:2|0:0,0:0:0:0:
217,355,56880,6,0,P|298:335|396:360,1,180.000006866455,4|8,0:0|0:0,0:0:0:0:
447,243,57792,5,2,0:2:0:0:
447,243,58096,1,2,0:0:0:0:
447,243,58400,2,0,L|254:230,1,180.000006866455,4|2,0:0|0:2,0:0:0:0:
126,159,59313,5,4,0:0:0:0:
126,159,59617,1,4,0:1:0:0:
126,159,59921,2,0,L|319:146,1,180.000006866455,4|0,0:1|0:0,0:0:0:0:
256,192,60631,12,0,61933,0:0:0:0:
282,214,62542,6,0,P|259:230|200:249,1,80
