osu file format v14

[General]
AudioFilename: Ningyou Saiban.mp3
AudioLeadIn: 1000
PreviewTime: 910
Countdown: 0
SampleSet: None
StackLeniency: 0
Mode: 0
LetterboxInBreaks: 0
WidescreenStoryboard: 0

[Editor]
DistanceSpacing: 0.7
BeatDivisor: 6
GridSize: 8
TimelineZoom: 5.219996

[Metadata]
Title:Ningyou Saiban
TitleUnicode:人形裁判
Artist:U2
ArtistUnicode:U2
Creator:Hollow Wings
Version:Extra
Source:東方Project
Tags:Akiyama Uni あきやまうに Doll Judgment Touhou LKs Scorpiour th7.5 cmx Tasofro Twilight Frontier 黄昏フロンティア zun Ningyou Saiban アリス·マーガトロイド alice margatroid
BeatmapID:910817
BeatmapSetID:421061

[Difficulty]
HPDrainRate:6
CircleSize:4
OverallDifficulty:8
ApproachRate:9
SliderMultiplier:3.2
SliderTickRate:1

[Events]
//Background and Video events
0,0,"Ningyou Saiban.jpg",0,0
//Break Periods
//Storyboard Layer 0 (Background)
//Storyboard Layer 1 (Fail)
//Storyboard Layer 2 (Pass)
//Storyboard Layer 3 (Foreground)
//Storyboard Sound Samples

[TimingPoints]
-2,304.187135926022,5,2,2,60,1,0
1113,-200,5,2,2,60,0,0
1518,-100,5,2,2,60,0,0
2734,-83.3333333333333,5,2,2,60,0,0
3038,-100,5,2,2,60,0,0
4255,-83.3333333333333,5,2,2,60,0,0
4559,-100,5,2,2,60,0,0
5777,-66.6666666666667,5,2,2,60,0,0
6081,-100,5,2,2,60,0,0
7298,-66.6666666666667,5,2,2,60,0,0
7602,-100,5,2,2,60,0,0
8819,-83.3333333333333,5,2,2,60,0,0
9123,-100,5,2,2,60,0,0
10238,-100,5,2,2,80,0,0
12976,-66.6666666666667,5,2,2,80,0,0
13280,-50,5,2,2,80,0,0
13686,-133.333333333333,5,2,1,70,0,0
19770,-100,5,2,1,70,0,0
25853,-133.333333333333,5,2,1,70,0,0
31937,-100,5,2,1,70,0,0
38021,-200,5,2,1,70,0,0
38629,304.187135926022,5,3,1,80,1,1
38629,-500,5,3,1,80,0,1
58401,-200,5,3,1,80,0,1
59922,-500,5,3,1,80,0,1
61123,304.187135926022,5,3,1,80,1,1
61123,-500,5,3,1,80,0,1
61427,304.187135926022,4,2,2,60,1,0
61427,-200,4,2,2,60,0,0

[Colours]
Combo1 : 255,166,166
Combo2 : 0,128,255
Combo3 : 155,205,255
Combo4 : 255,68,68

[HitObjects]
277,359,1113,54,0,P|289:334|291:315,2,26.6666666666667
211,262,1316,2,0,P|219:287|219:314,1,53.3333333333333
146,316,1518,6,0,P|82:276|132:336,1,213.333333333333,4|0,0:0|0:0,0:0:0:0:
109,307,2024,1,4,0:0:0:0:
109,307,2127,2,0,P|61:185|61:95,1,213.333333333333
60,105,2431,2,0,P|104:201|108:307,1,213.333333333333,4|0,0:0|0:0,0:0:0:0:
174,297,2735,6,0,P|297:253|413:291,1,255.9999921875,4|0,0:0|0:0,0:0:0:0:
412,290,3039,6,0,P|406:213|380:286,1,213.333333333333,4|0,0:0|0:0,0:0:0:0:
403,255,3545,1,4,0:0:0:0:
403,255,3648,2,0,P|459:134|454:51,1,213.333333333333
455,57,3952,2,0,P|403:149|402:254,1,213.333333333333,4|0,0:0|0:0,0:0:0:0:
386,342,4256,6,0,P|290:263|199:333,1,255.9999921875,4|0,0:0|0:0,0:0:0:0:
199,331,4560,6,0,L|148:346,4,53.3333333333333,4|0|0|0|0,0:0|0:0|0:0|0:0|0:0,0:0:0:0:
87,309,5067,1,4,0:0:0:0:
85,379,5169,2,0,P|175:302|128:234,1,213.333333333333
87,309,5473,2,0,P|49:230|137:240,1,213.333333333333,4|0,0:0|0:0,0:0:0:0:
148,347,5777,6,0,P|298:288|266:157,1,320.000012207032,4|0,0:0|0:0,0:0:0:0:
330,236,6081,6,0,P|407:230|335:202,1,213.333333333333,4|0,0:0|0:0,0:0:0:0:
443,146,6588,1,4,0:0:0:0:
368,151,6690,2,0,P|301:231|354:310,1,213.333333333333
286,361,6994,2,0,P|289:261|385:231,1,213.333333333333,4|0,0:0|0:0,0:0:0:0:
436,304,7298,6,0,P|350:308|294:115,1,320.000012207032,4|0,0:0|0:0,0:0:0:0:
362,64,7602,6,0,L|426:75,4,53.3333333333333,4|0|0|0|0,0:0|0:0|0:0|0:0|0:0,0:0:0:0:
169,60,8109,1,4,0:0:0:0:
210,120,8211,2,0,P|174:214|73:217,1,213.333333333333
73,217,8515,2,0,P|139:122|221:164,1,213.333333333333,4|0,0:0|0:0,0:0:0:0:
265,212,8819,6,0,P|167:144|73:216,1,255.9999921875,4|0,0:0|0:0,0:0:0:0:
138,222,9123,6,0,P|210:250|133:256,1,213.333333333333,4|0,0:0|0:0,0:0:0:0:
62,189,9630,1,4,0:0:0:0:
73,269,9731,2,0,P|198:339|265:212,1,320,0|4,0:0|0:0,0:0:0:0:
439,347,10238,5,0,0:0:0:0:
330,336,10340,2,0,P|271:305|245:249,1,106.666666666667,4|0,0:0|0:0,0:0:0:0:
229,167,10543,1,0,0:0:0:0:
262,59,10644,5,4,0:0:0:0:
485,77,10847,1,0,0:0:0:0:
470,93,11151,1,4,0:0:0:0:
458,113,11455,1,0,0:0:0:0:
452,134,11759,1,0,0:0:0:0:
454,157,12064,38,0,P|457:220|443:261,1,106.666666666667,0|4,0:0|0:0,0:0:0:0:
64,166,12368,1,0,0:0:0:0:
44,57,12672,6,0,P|83:67|43:69,1,106.666666666667,0|0,0:0|0:0,0:0:0:0:
121,222,12976,6,0,P|176:203|126:232,1,160.000006103516,0|4,0:0|0:1,0:0:0:0:
268,330,13280,6,0,P|305:268|277:336,1,213.333333333333,0|4,0:0|0:1,0:0:0:0:
450,327,13586,5,0,0:0:0:0:
503,383,13686,1,4,0:1:0:0:
101,298,13889,2,0,B|44:306|15:358|15:358|-9:288|50:235,1,240.000009155274,0|4,0:0|0:0,0:0:0:0:
64,166,14294,1,6,0:0:0:0:
121,222,14598,1,6,0:0:0:0:
138,144,14903,1,10,0:0:0:0:
85,91,15207,5,6,0:0:0:0:
409,108,15410,2,0,B|458:101|472:28|472:28|402:4|352:60,1,240.000009155274,0|4,0:0|0:0,0:0:0:0:
286,83,15815,1,6,0:0:0:0:
341,129,16120,1,6,0:0:0:0:
353,59,16425,1,10,0:0:0:0:
299,13,16728,5,6,0:0:0:0:
446,324,16931,2,0,B|459:342|462:360|462:360|369:375|288:352|288:352|318:328,1,240.000009155274,0|4,0:0|0:0,0:0:0:0:
307,336,17336,1,6,0:0:0:0:
232,308,17641,1,6,0:0:0:0:
373,294,17945,1,10,0:0:0:0:
300,263,18249,5,6,0:0:0:0:
63,34,18452,2,0,B|39:17|13:11|13:11|17:150|99:164,1,240.000009155274,0|4,0:0|0:0,0:0:0:0:
92,162,18857,1,6,0:0:0:0:
83,236,19161,1,6,0:0:0:0:
161,120,19466,1,10,0:0:0:0:
153,199,19668,5,4,0:0:0:0:
153,199,19770,1,6,0:0:0:0:
416,325,19972,2,0,B|444:339|467:375|467:375|505:333|497:266|448:233|388:236|357:271|342:310,1,320,0|4,0:0|0:0,0:0:0:0:
354,365,20378,1,6,0:0:0:0:
416,325,20682,1,6,0:0:0:0:
350,294,20986,1,10,0:0:0:0:
289,330,21290,5,6,0:0:0:0:
205,72,21493,2,0,B|207:31|242:13|242:13|263:66|291:98|343:106|384:91|416:53|403:2,1,320,0|4,0:0|0:0,0:0:0:0:
331,13,21899,1,6,0:0:0:0:
56,62,22202,1,6,0:0:0:0:
205,72,22507,1,10,0:0:0:0:
192,2,22811,5,6,0:0:0:0:
52,278,23014,2,0,B|35:331|41:375|41:375|70:342|108:335|108:335|130:363|161:375|194:369|219:354|227:331,1,320,0|4,0:0|0:0,0:0:0:0:
234,258,23420,1,6,0:0:0:0:
168,292,23723,1,6,0:0:0:0:
227,331,24028,1,10,0:0:0:0:
293,303,24331,5,6,0:0:0:0:
208,16,24535,2,0,B|198:66|196:109|199:150|216:196|216:196|173:184|145:168|123:143|117:110,1,320,0|4,0:0|0:0,0:0:0:0:
133,39,24941,1,6,0:0:0:0:
188,90,25144,1,0,0:0:0:0:
180,127,25245,1,2,0:3:0:0:
171,162,25347,1,2,0:3:0:0:
143,137,25448,1,2,0:3:0:0:
117,112,25549,1,4,0:1:0:0:
208,16,25752,5,2,0:3:0:0:
208,16,25852,1,4,0:1:0:0:
458,112,26056,2,0,P|434:248|347:278,1,240.000009155274,0|4,0:0|0:0,0:0:0:0:
352,189,26462,2,0,P|369:133|328:174,1,160.000006103516,6|0,0:0|0:0,0:0:0:0:
329,174,26766,2,0,P|343:231|306:186,1,160.000006103516,6|0,0:0|0:0,0:0:0:0:
306,187,27070,2,0,P|323:131|282:172,1,160.000006103516,10|0,0:0|0:0,0:0:0:0:
283,173,27374,5,6,0:0:0:0:
34,300,27577,2,0,P|91:370|64:284,1,240.000009155274,0|4,0:0|0:0,0:0:0:0:
42,262,27983,1,6,0:0:0:0:
26,225,28287,1,6,0:0:0:0:
38,183,28591,1,10,0:0:0:0:
20,146,28895,5,6,0:0:0:0:
233,331,29098,2,0,P|335:323|273:263,1,240.000009155274,0|4,0:0|0:0,0:0:0:0:
172,213,29504,2,0,P|155:269|196:228,1,160.000006103516,6|0,0:0|0:0,0:0:0:0:
196,227,29808,2,0,P|252:242|195:255,1,160.000006103516,6|0,0:0|0:0,0:0:0:0:
195,254,30112,2,0,P|177:309|218:268,1,160.000006103516,10|0,0:0|0:0,0:0:0:0:
218,268,30416,5,6,0:0:0:0:
424,86,30619,2,0,P|330:55|388:127,1,240.000009155274,0|4,0:0|0:0,0:0:0:0:
435,155,31025,1,6,0:0:0:0:
467,143,31329,1,6,0:0:0:0:
489,117,31633,1,10,0:0:0:0:
495,86,31937,5,6,0:0:0:0:
195,15,32140,2,0,P|138:57|193:283,1,320,0|4,0:0|0:0,0:0:0:0:
216,224,32546,2,0,P|136:198|175:272,1,213.333333333333,6|0,0:0|0:0,0:0:0:0:
238,286,32850,2,0,P|300:229|216:223,1,213.333333333333,6|0,0:0|0:0,0:0:0:0:
174,273,33154,2,0,P|191:356|236:285,1,213.333333333333,10|0,0:0|0:0,0:0:0:0:
216,224,33458,5,6,0:0:0:0:
74,307,33661,2,0,B|103:280|103:280|107:304|122:329|148:345|177:344|194:339|194:339|206:348|231:361|261:359|287:342|296:320|296:320|317:368,1,320,0|4,0:0|0:0,0:0:0:0:
397,292,34066,1,6,0:0:0:0:
36,217,34371,1,6,0:0:0:0:
454,382,34675,1,10,0:0:0:0:
153,213,34979,5,6,0:0:0:0:
474,309,35182,2,0,P|389:182|468:52,1,320,0|4,0:0|0:0,0:0:0:0:
401,22,35587,2,0,P|384:105|339:34,1,213.333333333333,6|0,0:0|0:0,0:0:0:0:
338,36,35892,2,0,P|254:43|319:98,1,213.333333333333,6|0,0:0|0:0,0:0:0:0:
317,99,36196,2,0,P|395:70|360:146,1,213.333333333333,10|0,0:0|0:0,0:0:0:0:
360,146,36500,5,6,0:0:0:0:
190,40,36703,2,0,B|186:71|192:107|215:147|263:168|300:166|300:166|311:203|354:223|386:208|408:191,1,320,0|4,0:0|0:0,0:0:0:0:
424,127,37108,1,6,0:0:0:0:
117,55,37311,1,0,0:0:0:0:
117,55,37413,1,2,0:3:0:0:
117,55,37514,1,2,0:3:0:0:
117,55,37615,1,2,0:3:0:0:
117,55,37717,2,0,P|127:107|157:164,1,106.666666666667,4|0,0:3|0:0,0:0:0:0:
203,207,37919,1,10,0:3:0:0:
133,223,38021,6,0,L|66:240,2,53.3333333333333
183,278,38325,2,0,P|176:334|187:394,1,106.666666666667
257,358,38629,6,0,L|364:358,1,106.666666666667,2|0,0:3|0:0,0:0:0:0:
436,380,39236,1,2,0:2:0:0:
420,306,39540,1,2,0:2:0:0:
490,328,39744,1,2,0:3:0:0:
490,327,39845,2,0,P|492:306|488:285,1,42.6666666666667,2|4,0:3|0:3,0:0:0:0:
152,200,40149,6,0,L|45:200,1,106.666666666667,6|4,0:0|0:3,0:0:0:0:
9,364,40757,1,8,0:3:0:0:
392,32,41062,2,0,L|498:32,1,106.666666666667,2|2,0:0|0:3,0:0:0:0:
353,269,41670,6,0,L|246:269,1,106.666666666667,4|4,0:3|0:3,0:0:0:0:
170,289,42278,1,8,0:3:0:0:
93,306,42582,1,2,0:2:0:0:
18,321,42786,1,2,0:3:0:0:
18,321,42886,1,0,0:3:0:0:
254,230,43089,5,4,0:3:0:0:
254,230,43191,2,0,L|244:272,1,42.6666666666667,4|0,0:3|0:0,0:0:0:0:
295,327,43494,1,2,0:2:0:0:
351,378,43697,1,4,0:3:0:0:
351,378,43799,1,8,0:3:0:0:
222,343,44103,1,2,0:2:0:0:
367,306,44408,2,0,L|378:264,1,42.6666666666667,2|2,0:3|0:3,0:0:0:0:
74,37,44712,6,0,L|180:37,1,106.666666666667,4|4,0:3|0:3,0:0:0:0:
252,66,45320,1,4,0:3:0:0:
430,49,45522,1,0,0:0:0:0:
430,49,45624,2,0,L|408:46,1,21.3333333333333,2|0,0:2|0:0,0:0:0:0:
331,97,45827,1,0,0:0:0:0:
331,97,45929,2,0,L|352:94,1,21.3333333333333,2|0,0:0|0:0,0:0:0:0:
421,126,46131,1,4,0:0:0:0:
422,297,46233,6,0,L|315:297,1,106.666666666667,4|4,0:0|0:0,0:0:0:0:
257,251,46841,1,8,0:0:0:0:
249,322,47145,1,2,0:2:0:0:
316,297,47348,5,0,0:0:0:0:
188,280,47449,1,2,0:0:0:0:
194,116,47652,5,2,0:0:0:0:
319,87,47754,1,4,0:0:0:0:
267,250,47906,6,0,L|257:251,1,10.6666666666667
168,352,48312,2,0,L|179:352,1,10.6666666666667,0|4,0:0|0:0,0:0:0:0:
62,308,48667,1,2,0:2:0:0:
71,237,48869,1,2,0:0:0:0:
71,237,48971,1,2,0:0:0:0:
454,350,49174,5,4,0:0:0:0:
454,350,49275,1,4,0:0:0:0:
347,318,49427,2,0,L|336:318,1,10.6666666666667
456,160,49883,1,2,0:0:0:0:
432,256,50086,1,0,0:0:0:0:
357,271,50188,1,2,0:0:0:0:
357,271,50289,2,0,L|336:273,1,21.3333333333333,4|8,0:0|0:0,0:0:0:0:
271,236,50492,1,8,0:0:0:0:
271,236,50593,2,0,L|250:231,1,21.3333333333333,2|2,0:0|0:0,0:0:0:0:
185,340,50796,6,0,L|72:341,1,106.666666666667,4|4,0:1|0:0,0:0:0:0:
5,369,51403,1,8,0:0:0:0:
23,257,51708,1,2,0:2:0:0:
109,328,51910,1,2,0:0:0:0:
109,328,52012,1,2,0:0:0:0:
334,340,52215,5,4,0:0:0:0:
334,340,52317,2,0,L|440:340,1,106.666666666667,4|4,0:0|0:0,0:0:0:0:
502,295,52924,1,8,0:0:0:0:
171,356,53229,2,0,L|64:356,1,106.666666666667,4|4,0:0|0:0,0:0:0:0:
35,38,53838,6,0,L|142:38,1,106.666666666667,4|4,0:0|0:0,0:0:0:0:
217,21,54445,1,8,0:0:0:0:
437,58,54749,1,2,0:2:0:0:
200,94,54952,5,2,0:0:0:0:
273,75,55055,1,2,0:0:0:0:
328,129,55257,5,4,0:0:0:0:
180,171,55359,1,4,0:0:0:0:
163,252,55562,5,2,0:0:0:0:
383,182,55663,2,0,L|424:170,1,42.6666666666667,0|4,0:0|0:0,0:0:0:0:
367,253,55967,6,0,L|321:241,1,42.6666666666667,2|0,0:2|0:0,0:0:0:0:
439,235,56271,2,0,P|443:255|439:276,1,42.6666666666667,2|0,0:2|0:0,0:0:0:0:
416,311,56576,1,2,0:0:0:0:
325,242,56777,5,2,0:0:0:0:
295,280,56880,2,0,L|188:280,1,106.666666666667,4|4,0:0|0:0,0:0:0:0:
221,353,57488,2,0,L|271:353,1,42.6666666666667,4|0,0:0|0:0,0:0:0:0:
55,330,57792,5,4,0:0:0:0:
50,292,57894,1,0,0:0:0:0:
62,257,57995,1,0,0:0:0:0:
122,214,58096,1,2,0:0:0:0:
159,212,58198,1,0,0:0:0:0:
193,225,58299,1,0,0:0:0:0:
249,277,58401,6,0,P|260:313|258:345,2,53.3333333333333,2|0|2,0:2|0:0|0:0,0:0:0:0:
322,258,58705,2,0,P|349:283|363:312,2,53.3333333333333,0|0|4,0:2|0:0|0:0,0:0:0:0:
371,200,59009,2,0,P|407:208|434:226,2,53.3333333333333,4|0|2,0:0|0:0|0:0,0:0:0:0:
378,126,59312,5,4,0:0:0:0:
358,93,59414,1,2,0:0:0:0:
325,75,59515,1,2,0:0:0:0:
288,79,59616,1,4,0:1:0:0:
255,97,59718,1,0,0:0:0:0:
185,123,59819,5,4,0:0:0:0:
152,112,59922,2,0,L|45:112,1,106.666666666667,4|0,0:1|0:0,0:0:0:0:
49,190,60530,2,0,L|155:190,1,106.666666666667
136,270,61123,2,0,L|72:270,1,64,0|4,0:0|0:1,0:0:0:0:
280,272,61731,5,4,0:2:0:0:
64,352,61933,1,0,0:0:0:0:
136,352,62035,2,0,L|312:352,1,160,4|4,0:2|0:2,0:0:0:0:
444,325,62542,6,0,L|473:336,2,26.6666666666667,0|0|4,0:0|0:0|0:2,0:0:0:0:
377,371,62745,1,0,0:0:0:0:
