osu file format v14

[General]
AudioFilename: Ningyou Saiban.mp3
AudioLeadIn: 1000
PreviewTime: 910
Countdown: 0
SampleSet: None
StackLeniency: 0.2
Mode: 0
LetterboxInBreaks: 0
WidescreenStoryboard: 0

[Editor]
DistanceSpacing: 0.7
BeatDivisor: 6
GridSize: 8
TimelineZoom: 2.3

[Metadata]
Title:Ningyou Saiban
TitleUnicode:人形裁判
Artist:U2
ArtistUnicode:U2
Creator:Hollow Wings
Version:Dash Hard
Source:東方Project
Tags:Akiyama Uni あきやまうに Doll Judgment Touhou LKs Scorpiour th7.5 cmx Tasofro Twilight Frontier 黄昏フロンティア zun Ningyou Saiban アリス·マーガトロイド alice margatroid
BeatmapID:910815
BeatmapSetID:421061

[Difficulty]
HPDrainRate:5
CircleSize:4
OverallDifficulty:6
ApproachRate:7
SliderMultiplier:1.2
SliderTickRate:1

[Events]
//Background and Video events
0,0,"Ningyou Saiban.jpg",0,0
//Break Periods
//Storyboard Layer 0 (Background)
//Storyboard Layer 1 (Fail)
//Storyboard Layer 2 (Pass)
//Storyboard Layer 3 (Foreground)
//Storyboard Sound Samples

[TimingPoints]
-2,304.187135926022,5,2,2,60,1,0
10238,-100,5,2,2,80,0,0
13686,-83.3333333333333,5,2,1,70,0,0
19770,-66.6666666666667,5,2,1,70,0,0
22812,-83.3333333333333,5,2,1,70,0,0
31937,-66.6666666666667,5,2,1,70,0,0
34979,-83.3333333333333,5,2,1,70,0,0
38629,304.187135926022,5,3,1,80,1,1
38629,-66.6666666666667,5,3,1,80,0,1
61123,304.187135926022,5,3,1,80,1,1
61427,304.187135926022,5,2,2,60,1,0

[Colours]
Combo1 : 255,166,166
Combo2 : 0,128,255
Combo3 : 155,205,255
Combo4 : 255,68,68

[HitObjects]
294,308,1113,6,0,P|328:327|367:335,1,80
362,231,1518,5,4,0:0:0:0:
283,260,1721,2,0,L|160:246,1,120,0|4,0:0|0:0,0:0:0:0:
132,274,2127,2,0,L|11:290,2,120,0|4|4,0:0|0:0|0:0,0:0:0:0:
132,274,3039,5,4,0:0:0:0:
211,303,3242,2,0,L|334:289,1,120,0|4,0:0|0:0,0:0:0:0:
362,317,3648,2,0,L|483:333,2,120,0|4|4,0:0|0:0|0:0,0:0:0:0:
440,218,4560,5,4,0:0:0:0:
371,171,4763,2,0,L|492:155,1,120,0|4,0:0|0:0,0:0:0:0:
490,117,5169,2,0,P|436:92|375:97,1,120,0|4,0:0|0:0,0:0:0:0:
287,185,5777,1,4,0:0:0:0:
167,224,6081,5,4,0:0:0:0:
117,162,6284,2,0,L|236:177,1,120,0|4,0:0|0:0,0:0:0:0:
287,184,6690,2,0,P|256:240|260:297,1,120,0|4,0:0|0:0,0:0:0:0:
351,381,7298,1,4,0:0:0:0:
455,311,7602,5,4,0:0:0:0:
377,278,7805,2,0,L|256:294,1,120,0|4,0:0|0:0,0:0:0:0:
217,289,8211,2,0,L|99:305,2,120,0|4|4,0:0|0:0|0:0,0:0:0:0:
109,224,9123,5,4,0:0:0:0:
192,211,9326,2,0,L|311:226,1,120,0|4,0:0|0:0,0:0:0:0:
351,212,9732,1,0,0:0:0:0:
475,204,10036,2,0,L|396:194,1,80,4|0,0:0|0:0,0:0:0:0:
365,130,10340,6,0,L|402:117,2,40,4|0|0,0:0|0:0|0:0,0:0:0:0:
316,152,10644,2,0,L|226:144,1,80,4|0,0:0|0:0,0:0:0:0:
66,163,11151,1,4,0:0:0:0:
225,217,11455,1,0,0:0:0:0:
56,237,11759,1,0,0:0:0:0:
214,294,12064,6,0,L|254:288,1,40,0|4,0:0|0:0,0:0:0:0:
394,295,12368,1,0,0:0:0:0:
302,232,12672,1,4,0:0:0:0:
485,293,12976,1,0,0:0:0:0:
365,176,13280,1,0,0:0:0:0:
214,294,13585,6,0,L|162:289,1,40,0|4,0:0|0:1,0:0:0:0:
93,297,13889,1,4,0:0:0:0:
185,218,14193,1,0,0:0:0:0:
185,218,14294,2,0,L|23:209,2,143.999995605469,6|6|10,0:0|0:0|0:0,0:0:0:0:
18,310,15207,5,6,0:0:0:0:
18,310,15410,2,0,L|501:284,1,479.999985351563,4|10,0:0|0:0,0:0:0:0:
407,198,16728,6,0,L|304:192,1,95.9999970703126,6|2,0:0|0:0,0:0:0:0:
434,106,17235,1,0,0:0:0:0:
434,106,17336,2,0,L|280:97,2,143.999995605469,6|6|10,0:0|0:0|0:0,0:0:0:0:
503,171,18249,5,6,0:0:0:0:
503,171,18452,2,0,L|20:145,1,479.999985351563,4|10,0:0|0:0,0:0:0:0:
153,226,19770,6,0,L|33:228,1,120.000004577637,6|4,0:0|0:0,0:0:0:0:
117,120,20277,2,0,L|44:122,1,60.0000022888184,0|6,0:0|0:0,0:0:0:0:
207,113,20682,1,6,0:0:0:0:
294,109,20986,1,10,0:0:0:0:
382,105,21291,5,6,0:0:0:0:
381,104,21493,2,0,P|166:95|359:191,1,600.000022888184,4|10,0:0|0:0,0:0:0:0:
359,191,22812,6,0,L|455:196,1,95.9999970703126,6|4,0:0|0:0,0:0:0:0:
468,308,23318,1,0,0:0:0:0:
468,308,23419,2,0,L|306:299,2,143.999995605469,6|6|10,0:0|0:0|0:0,0:0:0:0:
442,219,24333,5,6,0:0:0:0:
442,219,24535,2,0,P|314:327|184:251,1,335.999989746094,4|4,0:0|0:1,0:0:0:0:
63,196,25549,2,0,L|158:212,1,95.9999970703126,4|0,0:1|0:0,0:0:0:0:
159,139,25853,6,0,L|64:145,1,95.9999970703126,4|4,0:1|0:0,0:0:0:0:
331,169,26360,1,0,0:0:0:0:
331,169,26461,2,0,L|493:160,2,143.999995605469,6|6|10,0:0|0:0|0:0,0:0:0:0:
500,123,27374,5,6,0:0:0:0:
500,123,27577,2,0,L|17:149,1,479.999985351563,4|10,0:0|0:0,0:0:0:0:
157,271,28895,6,2,L|49:279,1,95.9999970703126,6|4,0:0|0:0,0:0:0:0:
187,364,29402,1,0,0:0:0:0:
187,364,29504,2,0,L|25:355,2,143.999995605469,6|6|10,0:0|0:0|0:0,0:0:0:0:
10,263,30416,5,6,0:0:0:0:
10,263,30619,2,0,L|493:289,1,479.999985351563,4|10,0:0|0:0,0:0:0:0:
359,204,31937,6,0,L|494:193,1,120.000004577637,6|4,0:0|0:0,0:0:0:0:
375,122,32444,2,0,L|448:124,1,60.0000022888184,0|6,0:0|0:0,0:0:0:0:
284,114,32849,1,6,0:0:0:0:
197,110,33153,1,10,0:0:0:0:
109,106,33458,5,6,0:0:0:0:
109,106,33661,2,0,P|277:253|213:39,1,600.000022888184,4|10,0:0|0:0,0:0:0:0:
395,28,34979,6,0,L|299:35,1,95.9999970703126,6|4,0:0|0:0,0:0:0:0:
231,170,35485,1,0,0:0:0:0:
231,170,35587,2,0,L|69:161,2,143.999995605469,6|6|10,0:0|0:0|0:0,0:0:0:0:
270,317,36499,5,6,0:0:0:0:
270,317,36703,2,0,P|388:191|506:261,1,335.999989746094,4|6,0:0|0:0,0:0:0:0:
451,327,37717,2,0,L|360:295,1,95.9999970703126,4|2,0:1|0:3,0:0:0:0:
312,308,38021,1,0,0:0:0:0:
224,247,38325,2,0,L|132:218,1,95.9999970703126
54,249,38629,6,0,L|426:215,1,360.000013732911,4|8,0:1|0:0,0:0:0:0:
412,216,39541,1,2,0:2:0:0:
279,147,39845,2,0,L|399:134,1,120.000004577637,2|4,0:0|0:0,0:0:0:0:
477,165,40149,6,0,L|105:131,1,360.000013732911,4|8,0:0|0:3,0:0:0:0:
57,245,41062,2,0,P|236:250|412:217,1,360.000013732911,2|4,0:2|0:0,0:0:0:0:
305,283,41975,1,0,0:0:0:0:
185,326,42279,5,8,0:0:0:0:
298,318,42583,1,2,0:2:0:0:
408,294,42887,1,2,0:0:0:0:
504,236,43191,2,0,P|303:242|148:206,1,360.000013732911,4|8,0:0|0:0,0:0:0:0:
53,144,44104,1,2,0:2:0:0:
14,39,44408,1,2,0:0:0:0:
116,87,44712,6,0,L|488:68,1,360.000013732911,4|8,0:0|0:0,0:0:0:0:
469,156,45625,1,2,0:2:0:0:
500,46,45929,1,2,0:0:0:0:
401,105,46233,2,0,L|39:85,1,360.000013732911,4|8,0:0|0:0,0:0:0:0:
19,185,47146,1,2,0:2:0:0:
117,217,47349,2,0,L|180:215,1,60.0000022888184,2|2,0:0|0:0,0:0:0:0:
137,122,47754,6,0,L|509:117,1,360.000013732911,4|8,0:0|0:0,0:0:0:0:
506,218,48667,1,2,0:2:0:0:
480,316,48971,1,2,0:0:0:0:
394,368,49275,6,0,P|212:354|34:366,2,360.000013732911,4|8|4,0:0|0:0|0:1,0:0:0:0:
466,278,50796,6,0,P|287:271|103:289,1,360.000013732911,4|8,0:1|0:0,0:0:0:0:
107,288,51709,1,2,0:2:0:0:
63,218,52013,1,2,0:0:0:0:
64,218,52317,6,0,P|252:216|434:249,1,360.000013732911,4|8,0:0|0:0,0:0:0:0:
464,169,53229,2,0,P|276:167|94:200,1,360.000013732911,2|4,0:2|0:0,0:0:0:0:
46,116,54142,1,2,0:2:0:0:
46,116,54446,1,8,0:0:0:0:
46,116,54750,1,2,0:2:0:0:
46,116,55054,1,2,0:0:0:0:
46,116,55359,1,4,0:0:0:0:
130,61,55562,6,0,L|199:54,1,60.0000022888184,2|2,0:0|0:2,0:0:0:0:
267,119,55967,2,0,L|459:120,2,180.000006866455,8|2|2,0:0|0:2|0:0,0:0:0:0:
128,179,56880,6,0,P|282:199|452:321,1,360.000013732911,4|4,0:0|0:0,0:0:0:0:
309,306,57792,6,0,L|117:316,2,180.000006866455,2|2|8,0:2|0:0|0:0,0:0:0:0:
232,221,58705,2,0,L|429:235,1,180.000006866455,4|0,0:0|0:0,0:0:0:0:
285,150,59313,6,0,P|206:119|169:13,1,180.000006866455,2|4,0:2|0:1,0:0:0:0:
279,36,59922,2,0,P|218:178|34:244,1,360.000013732911,4|0,0:1|0:0,0:0:0:0:
256,192,60631,12,0,61933,0:0:0:0:
175,224,62543,6,0,P|210:248|253:254,1,80
