osu file format v14

[General]
AudioFilename: audio.mp3
AudioLeadIn: 0
PreviewTime: 38274
Countdown: 0
SampleSet: Normal
StackLeniency: 0.7
Mode: 1
LetterboxInBreaks: 0
WidescreenStoryboard: 0

[Editor]
Bookmarks: 1518,13685,25852,38629,50796
DistanceSpacing: 0.7
BeatDivisor: 6
GridSize: 32
TimelineZoom: 2.4

[Metadata]
Title:Ningyou Saiban
TitleUnicode:人形裁判
Artist:U2
ArtistUnicode:U2
Creator:Greenshell
Version:Blues Dolls
Source:東方萃夢想 ~ Immaterial and Missing Power.
Tags:akiyama uni あきやまうに doll judgment judgement 幻想曲抜萃 東方萃夢想 ORIGINAL SOUND TRACK OST NightDisc 黄昏フロンティア Twilight Frontier Tasofro 上海アリス幻樂団 Team Shanghai Alice Touhou 東方project TH7.5 アリス·マーガトロイド alice margatroid jazz blues video game instrumental
BeatmapID:3369699
BeatmapSetID:1650663

[Difficulty]
HPDrainRate:8
CircleSize:3
OverallDifficulty:6
ApproachRate:10
SliderMultiplier:1.4
SliderTickRate:1

[Events]
//Background and Video events
0,0,"alice.jpg",0,60
//Break Periods
//Storyboard Layer 0 (Background)
//Storyboard Layer 1 (Fail)
//Storyboard Layer 2 (Pass)
//Storyboard Layer 3 (Foreground)
//Storyboard Layer 4 (Overlay)
//Storyboard Sound Samples

[TimingPoints]
-12,304.187135926022,5,1,0,50,1,0
-12,-133.333333333333,5,1,0,50,0,0
1508,304.187135926022,5,1,0,50,1,0
1508,-133.333333333333,5,1,0,50,0,0
12915,-126.582278481013,5,1,0,50,0,0
13016,-123.456790123457,5,1,0,50,0,0
13219,-117.647058823529,5,1,0,50,0,0
13320,-114.942528735632,5,1,0,50,0,0
13523,-109.89010989011,5,1,0,50,0,0
13624,-107.52688172043,5,1,0,50,0,0
13827,-117.647058823529,5,1,0,50,0,0
25082,-114.942528735632,5,1,0,50,0,0
25183,-113.636363636364,5,1,0,50,0,0
25285,-112.359550561798,5,1,0,50,0,0
25386,-111.111111111111,5,1,0,50,0,0
25488,-109.89010989011,5,1,0,50,0,0
25690,-107.52688172043,5,1,0,50,0,0
25792,-106.382978723404,5,1,0,50,0,0
25995,-117.647058823529,5,1,0,50,0,0
37249,-112.359550561798,5,1,0,50,0,0
37351,-109.89010989011,5,1,0,50,0,0
37452,-107.52688172043,5,1,0,50,0,0
37554,-105.263157894737,5,1,0,50,0,0
37655,-103.092783505155,5,1,0,50,0,0
37858,-99.009900990099,5,1,0,50,0,0
38010,304.187135926022,5,1,0,60,1,8
38010,-97.0873786407767,5,1,0,60,0,8
38011,304.187135926022,5,1,0,60,1,8
38011,-97.0873786407767,5,1,0,60,0,8
38061,-95.2380952380952,5,1,0,60,0,8
38163,-93.4579439252336,5,1,0,60,0,8
38264,-91.743119266055,5,1,0,60,0,8
38467,-88.4955752212389,5,1,0,60,0,8
38568,-86.9565217391303,5,1,0,70,0,8
38619,304.187135926022,5,1,0,70,1,1
38619,-86.9565217391303,5,1,0,70,0,1
38771,-100,5,1,0,70,0,1
50026,-96.1538461538461,5,1,0,70,0,1
50127,-94.3396226415094,5,1,0,70,0,1
50228,-92.5925925925926,5,1,0,70,0,1
50330,-90.9090909090909,5,1,0,70,0,1
50431,-89.2857142857143,5,1,0,70,0,1
50634,-86.2068965517241,5,1,0,70,0,1
50735,-84.7457627118644,5,1,0,70,0,1
50938,-100,5,1,0,70,0,1
59151,-96.1538461538461,5,1,0,70,0,1
59252,-94.3396226415094,5,1,0,70,0,1
59353,-92.5925925925926,5,1,0,70,0,1
59455,-90.9090909090909,5,1,0,70,0,1
59556,-89.2857142857143,5,1,0,70,0,1
59658,-87.719298245614,5,1,0,70,0,1
59759,-86.2068965517241,5,1,0,70,0,1
59860,-84.7457627118644,5,1,0,70,0,1
59912,-84.7457627118644,5,1,0,70,0,0
60469,-100,5,1,0,70,0,0
61116,304.187135926022,5,1,0,50,1,8
61417,304.187135926022,5,1,0,50,1,0

[HitObjects]
288,160,1103,5,8,0:0:0:0:
288,160,1154,1,8,0:0:0:0:
288,160,1204,1,8,0:0:0:0:
288,160,1306,1,8,0:0:0:0:
224,160,1508,5,0,0:0:0:0:
288,160,1710,1,8,0:0:0:0:
224,160,2014,1,0,0:0:0:0:
288,160,2116,1,8,0:0:0:0:
288,160,2420,1,8,0:0:0:0:
288,160,2724,1,8,0:0:0:0:
224,160,3028,1,0,0:0:0:0:
288,160,3231,1,8,0:0:0:0:
224,160,3535,1,0,0:0:0:0:
288,160,3637,1,8,0:0:0:0:
224,160,3941,1,0,0:0:0:0:
288,160,4245,1,8,0:0:0:0:
288,160,4549,1,8,0:0:0:0:
288,160,4600,1,8,0:0:0:0:
288,160,4752,1,8,0:0:0:0:
224,160,5056,1,0,0:0:0:0:
288,160,5158,1,8,0:0:0:0:
288,160,5462,1,8,0:0:0:0:
288,160,5766,1,8,0:0:0:0:
224,160,6070,1,0,0:0:0:0:
288,160,6273,1,8,0:0:0:0:
224,160,6577,1,0,0:0:0:0:
288,160,6679,1,8,0:0:0:0:
224,160,6983,1,0,0:0:0:0:
288,160,7287,1,8,0:0:0:0:
224,160,7591,1,0,0:0:0:0:
224,160,7642,1,0,0:0:0:0:
288,160,7794,1,8,0:0:0:0:
224,160,8098,1,0,0:0:0:0:
288,160,8200,1,8,0:0:0:0:
288,160,8504,1,8,0:0:0:0:
288,160,8808,1,8,0:0:0:0:
224,160,9112,1,0,0:0:0:0:
288,160,9315,1,8,0:0:0:0:
224,160,9619,1,0,0:0:0:0:
288,160,9721,1,8,0:0:0:0:
224,160,10025,1,0,0:0:0:0:
224,160,10228,1,0,0:0:0:0:
288,160,10329,1,8,0:0:0:0:
288,160,10430,1,8,0:0:0:0:
224,160,10532,1,0,0:0:0:0:
288,160,10633,1,8,0:0:0:0:
288,160,10836,1,8,0:0:0:0:
288,160,11140,1,8,0:0:0:0:
288,160,11444,1,8,0:0:0:0:
288,160,11748,1,8,0:0:0:0:
288,160,12053,1,8,0:0:0:0:
224,160,12154,1,0,0:0:0:0:
288,160,12357,1,8,0:0:0:0:
288,160,12661,1,8,0:0:0:0:
224,160,12965,5,0,0:0:0:0:
288,224,13067,1,12,0:0:0:0:
224,160,13269,1,0,0:0:0:0:
288,224,13371,1,12,0:0:0:0:
288,160,13574,1,8,0:0:0:0:
224,224,13675,1,4,0:0:0:0:
288,160,13878,1,8,0:0:0:0:
224,160,14182,1,0,0:0:0:0:
288,160,14283,1,8,0:0:0:0:
224,160,14588,1,0,0:0:0:0:
288,160,14892,1,8,0:0:0:0:
224,160,15095,1,0,0:0:0:0:
224,160,15196,1,0,0:0:0:0:
288,160,15399,1,8,0:0:0:0:
224,160,15703,1,0,0:0:0:0:
288,160,15804,1,8,0:0:0:0:
288,160,16108,1,8,0:0:0:0:
288,160,16413,1,8,0:0:0:0:
288,160,16615,1,8,0:0:0:0:
224,160,16717,1,0,0:0:0:0:
288,160,16920,1,8,0:0:0:0:
224,160,17224,1,0,0:0:0:0:
288,160,17325,1,8,0:0:0:0:
288,160,17629,1,8,0:0:0:0:
288,160,17934,1,8,0:0:0:0:
288,160,18136,1,8,0:0:0:0:
224,160,18238,1,0,0:0:0:0:
288,160,18441,1,8,0:0:0:0:
224,160,18745,1,0,0:0:0:0:
288,160,18846,1,8,0:0:0:0:
288,160,19150,1,8,0:0:0:0:
288,160,19353,1,8,0:0:0:0:
288,160,19455,1,8,0:0:0:0:
288,160,19657,1,8,0:0:0:0:
224,160,19759,1,0,0:0:0:0:
288,160,19962,1,8,0:0:0:0:
224,160,20266,1,0,0:0:0:0:
288,160,20367,1,8,0:0:0:0:
224,160,20671,1,0,0:0:0:0:
288,160,20975,1,8,0:0:0:0:
224,160,21178,1,0,0:0:0:0:
224,160,21280,1,0,0:0:0:0:
288,160,21482,1,8,0:0:0:0:
224,160,21787,1,0,0:0:0:0:
288,160,21888,1,8,0:0:0:0:
224,160,22192,1,0,0:0:0:0:
288,160,22496,1,8,0:0:0:0:
288,160,22699,1,8,0:0:0:0:
224,160,22801,1,0,0:0:0:0:
288,160,23003,1,8,0:0:0:0:
224,160,23308,1,0,0:0:0:0:
288,160,23409,1,8,0:0:0:0:
224,160,23713,1,0,0:0:0:0:
288,160,24017,1,8,0:0:0:0:
288,160,24220,1,8,0:0:0:0:
224,160,24322,1,0,0:0:0:0:
288,160,24524,1,8,0:0:0:0:
224,160,24829,1,0,0:0:0:0:
288,160,24930,1,8,0:0:0:0:
288,160,25133,1,8,0:0:0:0:
288,160,25234,1,8,0:0:0:0:
224,160,25335,1,0,0:0:0:0:
224,160,25437,1,0,0:0:0:0:
288,224,25538,1,12,0:0:0:0:
288,160,25741,1,8,0:0:0:0:
224,224,25842,1,4,0:0:0:0:
288,160,26045,1,8,0:0:0:0:
224,160,26349,1,0,0:0:0:0:
288,160,26451,1,8,0:0:0:0:
224,160,26755,1,0,0:0:0:0:
224,160,26958,1,0,0:0:0:0:
288,160,27059,1,8,0:0:0:0:
224,160,27262,1,0,0:0:0:0:
224,160,27363,1,0,0:0:0:0:
288,160,27566,1,8,0:0:0:0:
224,160,27870,1,0,0:0:0:0:
288,160,27972,1,8,0:0:0:0:
288,160,28276,1,8,0:0:0:0:
224,160,28479,1,0,0:0:0:0:
288,160,28580,1,8,0:0:0:0:
288,160,28783,1,8,0:0:0:0:
224,160,28884,1,0,0:0:0:0:
288,160,29087,1,8,0:0:0:0:
224,160,29391,1,0,0:0:0:0:
288,160,29493,1,8,0:0:0:0:
288,160,29797,1,8,0:0:0:0:
288,160,30000,1,8,0:0:0:0:
288,160,30101,1,8,0:0:0:0:
224,160,30304,1,0,0:0:0:0:
224,160,30405,1,0,0:0:0:0:
288,160,30608,1,8,0:0:0:0:
224,160,30912,1,0,0:0:0:0:
288,160,31014,1,8,0:0:0:0:
288,160,31318,1,8,0:0:0:0:
288,160,31521,1,8,0:0:0:0:
288,160,31622,1,8,0:0:0:0:
288,160,31825,1,8,0:0:0:0:
224,160,31926,1,0,0:0:0:0:
288,160,32129,1,8,0:0:0:0:
224,160,32433,1,0,0:0:0:0:
288,160,32535,1,8,0:0:0:0:
224,160,32839,1,0,0:0:0:0:
288,160,33143,1,8,0:0:0:0:
224,160,33346,1,0,0:0:0:0:
224,160,33447,1,0,0:0:0:0:
288,160,33650,1,8,0:0:0:0:
224,160,33954,1,0,0:0:0:0:
288,160,34056,1,8,0:0:0:0:
224,160,34360,1,0,0:0:0:0:
288,160,34664,1,8,0:0:0:0:
288,160,34867,1,8,0:0:0:0:
224,160,34968,1,0,0:0:0:0:
288,160,35171,1,8,0:0:0:0:
224,160,35475,1,0,0:0:0:0:
288,160,35576,1,8,0:0:0:0:
288,160,35881,1,8,0:0:0:0:
288,160,36185,1,8,0:0:0:0:
224,160,36388,1,0,0:0:0:0:
288,160,36489,1,8,0:0:0:0:
288,160,36692,1,8,0:0:0:0:
224,160,36996,1,0,0:0:0:0:
288,160,37097,1,8,0:0:0:0:
288,160,37300,5,8,0:0:0:0:
288,160,37402,1,8,0:0:0:0:
224,160,37503,1,0,0:0:0:0:
288,160,37604,1,8,0:0:0:0:
224,160,37706,1,0,0:0:0:0:
224,160,37909,1,0,0:0:0:0:
288,160,38011,1,8,0:0:0:0:
288,160,38112,1,8,0:0:0:0:
288,160,38213,1,8,0:0:0:0:
224,224,38315,1,4,0:0:0:0:
288,160,38517,1,8,0:0:0:0:
224,224,38619,1,4,0:0:0:0:
288,160,38821,1,8,0:0:0:0:
224,160,39125,1,0,0:0:0:0:
288,160,39227,1,8,0:0:0:0:
224,160,39531,1,0,0:0:0:0:
288,160,39734,1,8,0:0:0:0:
288,160,39835,1,8,0:0:0:0:
288,160,40038,1,8,0:0:0:0:
224,160,40139,1,0,0:0:0:0:
288,160,40342,1,8,0:0:0:0:
224,160,40646,1,0,0:0:0:0:
288,160,40748,1,8,0:0:0:0:
288,160,41052,1,8,0:0:0:0:
224,160,41153,1,0,0:0:0:0:
224,160,41255,1,0,0:0:0:0:
288,160,41356,1,8,0:0:0:0:
288,160,41559,1,8,0:0:0:0:
224,160,41660,1,0,0:0:0:0:
288,160,41863,1,8,0:0:0:0:
224,160,42167,1,0,0:0:0:0:
288,160,42269,1,8,0:0:0:0:
224,160,42472,1,0,0:0:0:0:
224,160,42573,1,0,0:0:0:0:
224,160,42776,1,0,0:0:0:0:
288,160,42877,1,8,0:0:0:0:
224,160,43181,1,0,0:0:0:0:
288,160,43384,1,8,0:0:0:0:
224,160,43688,1,0,0:0:0:0:
288,160,43790,1,8,0:0:0:0:
288,160,43992,1,8,0:0:0:0:
224,160,44094,1,0,0:0:0:0:
224,160,44195,1,0,0:0:0:0:
224,160,44297,1,0,0:0:0:0:
288,160,44398,1,8,0:0:0:0:
288,160,44601,1,8,0:0:0:0:
224,160,44702,1,0,0:0:0:0:
288,160,44905,1,8,0:0:0:0:
224,160,45209,1,0,0:0:0:0:
288,160,45311,1,8,0:0:0:0:
224,160,45513,1,0,0:0:0:0:
288,160,45615,1,8,0:0:0:0:
224,160,45716,1,0,0:0:0:0:
224,160,45818,1,0,0:0:0:0:
288,160,45919,1,8,0:0:0:0:
224,160,46020,1,0,0:0:0:0:
288,160,46122,1,8,0:0:0:0:
288,160,46223,1,8,0:0:0:0:
288,160,46426,1,8,0:0:0:0:
224,160,46730,1,0,0:0:0:0:
288,160,46832,1,8,0:0:0:0:
288,160,47136,1,8,0:0:0:0:
288,160,47339,1,8,0:0:0:0:
224,160,47440,1,0,0:0:0:0:
288,160,47643,1,8,0:0:0:0:
224,160,47744,1,0,0:0:0:0:
288,160,47896,1,8,0:0:0:0:
288,160,47947,1,8,0:0:0:0:
288,160,48302,1,8,0:0:0:0:
288,160,48352,1,8,0:0:0:0:
224,160,48555,1,0,0:0:0:0:
288,160,48657,1,8,0:0:0:0:
224,160,48859,1,0,0:0:0:0:
288,160,48961,1,8,0:0:0:0:
224,160,49164,1,0,0:0:0:0:
224,160,49265,1,0,0:0:0:0:
288,160,49417,1,8,0:0:0:0:
288,160,49468,1,8,0:0:0:0:
224,160,49772,1,0,0:0:0:0:
288,160,49873,1,8,0:0:0:0:
288,160,50076,1,8,0:0:0:0:
224,160,50178,1,0,0:0:0:0:
288,160,50279,1,8,0:0:0:0:
224,160,50380,1,0,0:0:0:0:
288,224,50482,1,12,0:0:0:0:
288,160,50685,1,8,0:0:0:0:
224,224,50786,1,4,0:0:0:0:
288,160,50989,1,8,0:0:0:0:
224,160,51293,1,0,0:0:0:0:
288,160,51394,1,8,0:0:0:0:
224,160,51699,1,0,0:0:0:0:
288,160,51901,1,8,0:0:0:0:
288,160,52003,1,8,0:0:0:0:
288,160,52206,1,8,0:0:0:0:
224,160,52307,1,0,0:0:0:0:
288,160,52510,1,8,0:0:0:0:
224,160,52814,1,0,0:0:0:0:
288,160,52915,1,8,0:0:0:0:
288,160,53219,1,8,0:0:0:0:
288,160,53321,1,8,0:0:0:0:
224,160,53422,1,0,0:0:0:0:
288,160,53524,1,8,0:0:0:0:
288,160,53726,1,8,0:0:0:0:
224,160,53828,1,0,0:0:0:0:
288,160,54031,1,8,0:0:0:0:
224,160,54335,1,0,0:0:0:0:
288,160,54436,1,8,0:0:0:0:
224,160,54639,1,0,0:0:0:0:
224,160,54740,1,0,0:0:0:0:
224,160,54943,1,0,0:0:0:0:
288,160,55045,1,8,0:0:0:0:
224,160,55349,1,0,0:0:0:0:
288,160,55552,1,8,0:0:0:0:
288,160,55653,1,8,0:0:0:0:
224,160,55856,1,0,0:0:0:0:
288,160,55957,1,8,0:0:0:0:
288,160,56160,1,8,0:0:0:0:
224,160,56261,1,0,0:0:0:0:
224,160,56464,1,0,0:0:0:0:
288,160,56566,1,8,0:0:0:0:
288,160,56768,1,8,0:0:0:0:
224,160,56870,1,0,0:0:0:0:
288,160,57073,1,8,0:0:0:0:
288,160,57377,1,8,0:0:0:0:
224,160,57478,1,0,0:0:0:0:
224,160,57579,1,0,0:0:0:0:
224,160,57681,1,0,0:0:0:0:
288,160,57782,1,8,0:0:0:0:
288,160,57985,1,8,0:0:0:0:
288,160,58086,1,8,0:0:0:0:
224,160,58289,1,0,0:0:0:0:
288,160,58391,1,8,0:0:0:0:
224,160,58492,1,0,0:0:0:0:
224,160,58593,1,0,0:0:0:0:
288,160,58695,1,8,0:0:0:0:
224,160,58898,1,0,0:0:0:0:
288,160,58999,1,8,0:0:0:0:
224,160,59202,1,0,0:0:0:0:
288,160,59303,1,8,0:0:0:0:
288,160,59405,1,8,0:0:0:0:
288,160,59506,1,8,0:0:0:0:
224,160,59607,1,0,0:0:0:0:
224,160,59709,1,0,0:0:0:0:
224,160,59810,1,0,0:0:0:0:
288,224,59912,1,12,0:0:0:0:
288,160,60520,1,8,0:0:0:0:
224,160,61116,1,0,0:0:0:0:
224,224,61417,1,4,0:0:0:0:
288,160,61721,1,8,0:0:0:0:
288,160,61923,1,8,0:0:0:0:
224,160,62025,1,0,0:0:0:0:
224,160,62329,1,0,0:0:0:0:
288,160,62532,1,8,0:0:0:0:
288,160,62583,1,8,0:0:0:0:
288,160,62633,1,8,0:0:0:0:
288,160,62735,1,8,0:0:0:0:
224,160,62937,1,0,0:0:0:0:
