osu file format v14

[General]
AudioFilename: audio.mp3
AudioLeadIn: 0
PreviewTime: 1115
Countdown: 1
SampleSet: None
StackLeniency: 0.7
Mode: 1
LetterboxInBreaks: 0
WidescreenStoryboard: 0

[Editor]
DistanceSpacing: 0.7
BeatDivisor: 6
GridSize: 32
TimelineZoom: 2.6

[Metadata]
Title:Ningyou Saiban
TitleUnicode:人形裁判
Artist:U2
ArtistUnicode:U2
Creator:Dain
Version:Oni
Source:東方萃夢想 ~ Immaterial and Missing Power.
Tags:東方Project Akiyama Uni あきやまうに Doll Judgment Touhou TH7.5 cmx Tasofro Twilight Frontier 黄昏フロンティア ZUN アリス·マーガトロイド alice margatroid
BeatmapID:1578495
BeatmapSetID:749399

[Difficulty]
HPDrainRate:8
CircleSize:5
OverallDifficulty:5.4
ApproachRate:5
SliderMultiplier:1.4
SliderTickRate:1

[Events]
//Background and Video events
0,0,"background.jpg",0,0
//Break Periods
//Storyboard Layer 0 (Background)
//Storyboard Layer 1 (Fail)
//Storyboard Layer 2 (Pass)
//Storyboard Layer 3 (Foreground)
//Storyboard Sound Samples

[TimingPoints]
0,304.136253041363,5,1,0,30,1,0
10137,-100,5,1,0,45,0,0
12976,-100,5,1,0,50,0,0
13381,-100,5,1,0,60,0,0
37104,304.136253041363,5,1,0,60,1,8
38624,-100,5,1,0,60,0,9
59914,-100,5,1,0,60,0,8
61739,-100,5,1,0,30,0,8

[HitObjects]
256,192,1115,5,0,0:0:0:0:
256,192,1165,1,0,0:0:0:0:
256,192,1216,1,8,0:0:0:0:
256,192,1317,1,8,0:0:0:0:
256,192,1419,1,8,0:0:0:0:
256,192,1520,1,0,0:0:0:0:
256,192,1723,1,8,0:0:0:0:
256,192,2027,1,8,0:0:0:0:
256,192,2128,1,0,0:0:0:0:
256,192,2433,1,0,0:0:0:0:
256,192,2737,1,8,0:0:0:0:
256,192,3041,1,0,0:0:0:0:
256,192,3244,1,8,0:0:0:0:
256,192,3548,1,8,0:0:0:0:
256,192,3649,1,0,0:0:0:0:
256,192,3953,1,0,0:0:0:0:
256,192,4257,1,8,0:0:0:0:
256,192,4562,1,0,0:0:0:0:
256,192,4764,1,8,0:0:0:0:
256,192,5068,1,0,0:0:0:0:
256,192,5170,1,0,0:0:0:0:
256,192,5474,1,0,0:0:0:0:
256,192,5778,1,8,0:0:0:0:
256,192,6082,1,0,0:0:0:0:
256,192,6285,1,8,0:0:0:0:
256,192,6589,1,0,0:0:0:0:
256,192,6690,1,0,0:0:0:0:
256,192,6995,1,0,0:0:0:0:
256,192,7299,1,8,0:0:0:0:
256,192,7603,1,0,0:0:0:0:
256,192,7806,1,0,0:0:0:0:
256,192,8110,1,8,0:0:0:0:
256,192,8211,1,0,0:0:0:0:
256,192,8515,1,0,0:0:0:0:
256,192,8819,1,8,0:0:0:0:
256,192,9124,1,0,0:0:0:0:
256,192,9326,1,0,0:0:0:0:
256,192,9630,1,8,0:0:0:0:
256,192,9732,1,0,0:0:0:0:
256,192,10036,1,0,0:0:0:0:
256,192,10239,1,0,0:0:0:0:
256,192,10340,1,8,0:0:0:0:
256,192,10442,1,8,0:0:0:0:
256,192,10543,1,8,0:0:0:0:
256,192,10644,1,0,0:0:0:0:
256,192,10847,1,8,0:0:0:0:
256,192,11151,1,8,0:0:0:0:
256,192,11455,1,8,0:0:0:0:
256,192,11759,1,8,0:0:0:0:
256,192,11861,1,0,0:0:0:0:
256,192,12064,1,0,0:0:0:0:
256,192,12165,1,8,0:0:0:0:
256,192,12368,1,8,0:0:0:0:
256,192,12672,1,8,0:0:0:0:
256,192,12976,1,0,0:0:0:0:
256,192,13077,1,8,0:0:0:0:
256,192,13179,1,8,0:0:0:0:
256,192,13280,1,0,0:0:0:0:
256,192,13381,1,8,0:0:0:0:
256,192,13483,1,8,0:0:0:0:
256,192,13584,1,8,0:0:0:0:
256,192,13686,1,0,0:0:0:0:
256,192,13888,1,8,0:0:0:0:
256,192,14193,1,0,0:0:0:0:
256,192,14294,1,8,0:0:0:0:
256,192,14598,1,8,0:0:0:0:
256,192,14902,1,8,0:0:0:0:
256,192,15206,1,0,0:0:0:0:
256,192,15409,1,8,0:0:0:0:
256,192,15713,1,0,0:0:0:0:
256,192,15815,1,8,0:0:0:0:
256,192,16017,1,0,0:0:0:0:
256,192,16119,1,8,0:0:0:0:
256,192,16220,1,8,0:0:0:0:
256,192,16321,1,0,0:0:0:0:
256,192,16423,1,8,0:0:0:0:
256,192,16626,1,8,0:0:0:0:
256,192,16727,1,0,0:0:0:0:
256,192,16930,1,8,0:0:0:0:
256,192,17234,1,0,0:0:0:0:
256,192,17335,1,8,0:0:0:0:
256,192,17639,1,8,0:0:0:0:
256,192,17944,1,8,0:0:0:0:
256,192,18248,1,0,0:0:0:0:
256,192,18450,1,8,0:0:0:0:
256,192,18755,1,0,0:0:0:0:
256,192,18856,1,8,0:0:0:0:
256,192,19160,1,8,0:0:0:0:
256,192,19261,1,0,0:0:0:0:
256,192,19363,1,0,0:0:0:0:
256,192,19464,1,8,0:0:0:0:
256,192,19566,1,8,0:0:0:0:
256,192,19667,1,8,0:0:0:0:
256,192,19768,1,0,0:0:0:0:
256,192,19971,1,8,0:0:0:0:
256,192,20275,1,0,0:0:0:0:
256,192,20377,1,8,0:0:0:0:
256,192,20681,1,8,0:0:0:0:
256,192,20985,1,8,0:0:0:0:
256,192,21289,1,0,0:0:0:0:
256,192,21492,1,8,0:0:0:0:
256,192,21796,1,0,0:0:0:0:
256,192,21897,1,8,0:0:0:0:
256,192,22201,1,8,0:0:0:0:
256,192,22404,1,0,0:0:0:0:
256,192,22506,1,8,0:0:0:0:
256,192,22708,1,8,0:0:0:0:
256,192,22810,1,0,0:0:0:0:
256,192,23012,1,8,0:0:0:0:
256,192,23317,1,0,0:0:0:0:
256,192,23418,1,8,0:0:0:0:
256,192,23722,1,8,0:0:0:0:
256,192,24026,1,8,0:0:0:0:
256,192,24330,1,0,0:0:0:0:
256,192,24533,1,8,0:0:0:0:
256,192,24837,1,0,0:0:0:0:
256,192,24939,1,8,0:0:0:0:
256,192,25141,1,0,0:0:0:0:
256,192,25243,1,8,0:0:0:0:
256,192,25344,1,8,0:0:0:0:
256,192,25446,1,0,0:0:0:0:
256,192,25547,1,8,0:0:0:0:
256,192,25648,1,8,0:0:0:0:
256,192,25750,1,8,0:0:0:0:
256,192,25851,1,0,0:0:0:0:
256,192,26054,1,8,0:0:0:0:
256,192,26358,1,0,0:0:0:0:
256,192,26459,1,8,0:0:0:0:
256,192,26763,1,8,0:0:0:0:
256,192,27068,1,8,0:0:0:0:
256,192,27372,1,0,0:0:0:0:
256,192,27575,1,8,0:0:0:0:
256,192,27879,1,0,0:0:0:0:
256,192,27980,1,8,0:0:0:0:
256,192,28183,1,0,0:0:0:0:
256,192,28284,1,8,0:0:0:0:
256,192,28386,1,8,0:0:0:0:
256,192,28487,1,0,0:0:0:0:
256,192,28588,1,8,0:0:0:0:
256,192,28791,1,8,0:0:0:0:
256,192,28892,1,0,0:0:0:0:
256,192,29095,1,8,0:0:0:0:
256,192,29399,1,0,0:0:0:0:
256,192,29501,1,8,0:0:0:0:
256,192,29805,1,8,0:0:0:0:
256,192,30109,1,8,0:0:0:0:
256,192,30413,1,0,0:0:0:0:
256,192,30616,1,8,0:0:0:0:
256,192,30920,1,0,0:0:0:0:
256,192,31021,1,8,0:0:0:0:
256,192,31326,1,8,0:0:0:0:
256,192,31427,1,0,0:0:0:0:
256,192,31528,1,0,0:0:0:0:
256,192,31630,1,8,0:0:0:0:
256,192,31731,1,8,0:0:0:0:
256,192,31832,1,8,0:0:0:0:
256,192,31934,1,0,0:0:0:0:
256,192,32137,1,8,0:0:0:0:
256,192,32441,1,0,0:0:0:0:
256,192,32542,1,8,0:0:0:0:
256,192,32846,1,8,0:0:0:0:
256,192,33150,1,8,0:0:0:0:
256,192,33454,1,0,0:0:0:0:
256,192,33657,1,8,0:0:0:0:
256,192,33961,1,0,0:0:0:0:
256,192,34063,1,8,0:0:0:0:
256,192,34367,1,8,0:0:0:0:
256,192,34570,1,0,0:0:0:0:
256,192,34671,1,8,0:0:0:0:
256,192,34874,1,8,0:0:0:0:
256,192,34975,1,0,0:0:0:0:
256,192,35178,1,8,0:0:0:0:
256,192,35482,1,0,0:0:0:0:
256,192,35583,1,8,0:0:0:0:
256,192,35888,1,8,0:0:0:0:
256,192,36192,1,8,0:0:0:0:
256,192,36496,1,0,0:0:0:0:
256,192,36699,1,8,0:0:0:0:
256,192,37003,1,0,0:0:0:0:
256,192,37104,1,8,0:0:0:0:
256,192,37205,1,8,0:0:0:0:
256,192,37306,1,0,0:0:0:0:
256,192,37408,1,8,0:0:0:0:
256,192,37509,1,8,0:0:0:0:
256,192,37610,1,8,0:0:0:0:
256,192,37712,1,0,0:0:0:0:
256,192,37915,1,0,0:0:0:0:
256,192,38016,1,8,0:0:0:0:
256,192,38117,1,0,0:0:0:0:
256,192,38219,1,0,0:0:0:0:
256,192,38320,1,8,0:0:0:0:
256,192,38523,1,8,0:0:0:0:
256,192,38624,1,0,0:0:0:0:
256,192,38827,1,8,0:0:0:0:
256,192,39131,1,0,0:0:0:0:
256,192,39232,1,8,0:0:0:0:
256,192,39537,1,8,0:0:0:0:
256,192,39739,1,0,0:0:0:0:
256,192,39841,1,8,0:0:0:0:
256,192,40043,1,8,0:0:0:0:
256,192,40145,1,0,0:0:0:0:
256,192,40348,1,0,0:0:0:0:
256,192,40652,1,0,0:0:0:0:
256,192,40753,1,0,0:0:0:0:
256,192,41057,1,8,0:0:0:0:
256,192,41260,1,0,0:0:0:0:
256,192,41361,1,8,0:0:0:0:
256,192,41463,1,8,0:0:0:0:
256,192,41564,1,8,0:0:0:0:
256,192,41666,1,0,0:0:0:0:
256,192,41868,1,8,0:0:0:0:
256,192,42172,1,0,0:0:0:0:
256,192,42274,1,8,0:0:0:0:
256,192,42578,1,8,0:0:0:0:
256,192,42781,1,0,0:0:0:0:
256,192,42882,1,8,0:0:0:0:
256,192,43085,1,8,0:0:0:0:
256,192,43186,1,0,0:0:0:0:
256,192,43389,1,0,0:0:0:0:
256,192,43693,1,0,0:0:0:0:
256,192,43794,1,8,0:0:0:0:
256,192,43896,1,8,0:0:0:0:
256,192,43997,1,8,0:0:0:0:
256,192,44099,1,0,0:0:0:0:
256,192,44200,1,0,0:0:0:0:
256,192,44301,1,0,0:0:0:0:
256,192,44403,1,8,0:0:0:0:
256,192,44606,1,0,0:0:0:0:
256,192,44707,1,8,0:0:0:0:
256,192,44910,1,8,0:0:0:0:
256,192,45214,1,0,0:0:0:0:
256,192,45315,1,8,0:0:0:0:
256,192,45417,1,0,0:0:0:0:
256,192,45518,1,0,0:0:0:0:
256,192,45619,1,8,0:0:0:0:
256,192,45721,1,8,0:0:0:0:
256,192,45822,1,0,0:0:0:0:
256,192,45923,1,8,0:0:0:0:
256,192,46025,1,0,0:0:0:0:
256,192,46126,1,0,0:0:0:0:
256,192,46228,1,8,0:0:0:0:
256,192,46430,1,0,0:0:0:0:
256,192,46734,1,8,0:0:0:0:
256,192,46836,1,0,0:0:0:0:
256,192,47140,1,8,0:0:0:0:
256,192,47343,1,0,0:0:0:0:
256,192,47444,1,8,0:0:0:0:
256,192,47647,1,8,0:0:0:0:
256,192,47748,1,0,0:0:0:0:
256,192,47951,1,8,0:0:0:0:
256,192,48255,1,0,0:0:0:0:
256,192,48357,1,8,0:0:0:0:
256,192,48661,1,0,0:0:0:0:
256,192,48863,1,0,0:0:0:0:
256,192,48965,1,8,0:0:0:0:
256,192,49168,1,8,0:0:0:0:
256,192,49269,1,0,0:0:0:0:
256,192,49472,1,8,0:0:0:0:
256,192,49776,1,0,0:0:0:0:
256,192,49877,1,0,0:0:0:0:
256,192,50080,1,0,0:0:0:0:
256,192,50181,1,8,0:0:0:0:
256,192,50283,1,8,0:0:0:0:
256,192,50384,1,0,0:0:0:0:
256,192,50485,1,8,0:0:0:0:
256,192,50587,1,8,0:0:0:0:
256,192,50688,1,8,0:0:0:0:
256,192,50790,1,0,0:0:0:0:
256,192,50992,1,8,0:0:0:0:
256,192,51297,1,0,0:0:0:0:
256,192,51398,1,8,0:0:0:0:
256,192,51702,1,8,0:0:0:0:
256,192,51905,1,0,0:0:0:0:
256,192,52006,1,8,0:0:0:0:
256,192,52209,1,8,0:0:0:0:
256,192,52310,1,0,0:0:0:0:
256,192,52513,1,0,0:0:0:0:
256,192,52817,1,0,0:0:0:0:
256,192,52919,1,0,0:0:0:0:
256,192,53223,1,8,0:0:0:0:
256,192,53425,1,0,0:0:0:0:
256,192,53527,1,8,0:0:0:0:
256,192,53628,1,8,0:0:0:0:
256,192,53730,1,0,0:0:0:0:
256,192,53831,1,8,0:0:0:0:
256,192,54034,1,0,0:0:0:0:
256,192,54338,1,0,0:0:0:0:
256,192,54439,1,8,0:0:0:0:
256,192,54743,1,0,0:0:0:0:
256,192,54946,1,0,0:0:0:0:
256,192,55048,1,8,0:0:0:0:
256,192,55250,1,8,0:0:0:0:
256,192,55352,1,0,0:0:0:0:
256,192,55554,1,8,0:0:0:0:
256,192,55656,1,8,0:0:0:0:
256,192,55859,1,0,0:0:0:0:
256,192,55960,1,0,0:0:0:0:
256,192,56163,1,8,0:0:0:0:
256,192,56264,1,0,0:0:0:0:
256,192,56365,1,0,0:0:0:0:
256,192,56467,1,0,0:0:0:0:
256,192,56568,1,8,0:0:0:0:
256,192,56771,1,8,0:0:0:0:
256,192,56872,1,8,0:0:0:0:
256,192,57075,1,0,0:0:0:0:
256,192,57379,1,0,0:0:0:0:
256,192,57481,1,0,0:0:0:0:
256,192,57683,1,0,0:0:0:0:
256,192,57785,1,8,0:0:0:0:
256,192,57886,1,8,0:0:0:0:
256,192,57988,1,0,0:0:0:0:
256,192,58089,1,8,0:0:0:0:
256,192,58292,1,0,0:0:0:0:
256,192,58393,1,0,0:0:0:0:
256,192,58596,1,0,0:0:0:0:
256,192,58697,1,8,0:0:0:0:
256,192,58900,1,8,0:0:0:0:
256,192,59001,1,0,0:0:0:0:
256,192,59204,1,0,0:0:0:0:
256,192,59305,1,8,0:0:0:0:
256,192,59407,1,0,0:0:0:0:
256,192,59508,1,0,0:0:0:0:
256,192,59610,1,8,0:0:0:0:
256,192,59914,1,12,0:0:0:0:
256,192,61434,1,4,0:0:0:0:
256,192,61941,1,8,0:0:0:0:
256,192,62347,1,0,0:0:0:0:
256,192,62550,1,0,0:0:0:0:
256,192,62600,1,0,0:0:0:0:
256,192,62651,1,8,0:0:0:0:
256,192,62752,1,8,0:0:0:0:
256,192,62854,1,8,0:0:0:0:
256,192,62955,1,0,0:0:0:0:
