osu file format v14

[General]
AudioFilename: audio.ogg
AudioLeadIn: 0
PreviewTime: -1
Countdown: 0
SampleSet: Soft
StackLeniency: 0.7
Mode: 3
LetterboxInBreaks: 0
SpecialStyle: 0
WidescreenStoryboard: 0

[Editor]
DistanceSpacing: 1
BeatDivisor: 2
GridSize: 4
TimelineZoom: 1

[Metadata]
Title:Yorimichi Little Star (TV Size)
TitleUnicode:Yorimichi Little Star (TV Size)
Artist:U149
ArtistUnicode:U149
Creator:YukiZinc
Version:Normal
Source:アイドルマスター シンデレラガールズ U149
Tags:anya melfissa shingyouji yuni azphyx tantan_ tantan melleganol _karaage sinoftrap idolm@ster im@s idolmaster imas cinderella girls cg japanese anime ending ed pop jpop j-pop bandai namco entertaiment cygames 橘ありす tachibana arisu 佐藤亜美菜 satou amina 櫻井桃華 sakurai momoka 照井春佳 terui haruka 赤城みりあ akagi miria 黒沢ともよ kurosawa tomoyo 的場梨沙 matoba risa 集貝はな tamegai hana 結城晴 yuuki haru 小市眞琴 koichi makoto 佐々木千枝 sasaki chie 今井麻夏 imai asaka 龍崎薫 ryuzaki kaoru 春瀬なつみ haruse natsumi 市原仁奈 ichihara nina 久野美咲 kuno misaki 古賀小春 koga koharu 小森結梨 komori yuri 渡部チェル 朝倉路
BeatmapID:4536960
BeatmapSetID:2153204

[Difficulty]
HPDrainRate:7
CircleSize:4
OverallDifficulty:7
ApproachRate:5
SliderMultiplier:1.4
SliderTickRate:1

[Events]
//Background and Video events
Video,60,"U149.mp4"
0,0,"[Nekomoe kissaten&LoliHouse] THE IDOLM@STER CINDERELLA GIRLS U149 - 03 [WebRip 1080p HEVC-10bit AAC ASSx2].mkv_20230424_000643.252.jpg",0,0
//Break Periods
//Storyboard Layer 0 (Background)
//Storyboard Layer 1 (Fail)
//Storyboard Layer 2 (Pass)
//Storyboard Layer 3 (Foreground)
//Storyboard Layer 4 (Overlay)
//Storyboard Sound Samples

[TimingPoints]
0,317.460317460317,4,2,0,20,1,0

[HitObjects]
64,192,0,5,0,0:0:0:0:
64,192,634,1,0,0:0:0:0:
192,192,793,1,0,0:0:0:0:
320,192,952,1,0,0:0:0:0:
448,192,1111,1,0,0:0:0:0:
64,192,1269,1,0,0:0:0:0:
448,192,1904,1,0,0:0:0:0:
320,192,2063,1,0,0:0:0:0:
192,192,2222,1,0,0:0:0:0:
64,192,2380,1,0,0:0:0:0:
448,192,2539,1,0,0:0:0:0:
64,192,3333,1,0,0:0:0:0:
448,192,3333,1,0,0:0:0:0:
320,192,3492,1,0,0:0:0:0:
192,192,3492,1,0,0:0:0:0:
64,192,3809,1,0,0:0:0:0:
320,192,4126,1,0,0:0:0:0:
448,192,4126,1,0,0:0:0:0:
64,192,4444,1,0,0:0:0:0:
192,192,4603,1,0,0:0:0:0:
320,192,4761,1,0,0:0:0:0:
448,192,4761,1,0,0:0:0:0:
448,192,5079,1,0,0:0:0:0:
64,192,5396,1,0,0:0:0:0:
192,192,5396,1,0,0:0:0:0:
448,192,5714,1,0,0:0:0:0:
320,192,5873,1,0,0:0:0:0:
64,192,6031,1,0,0:0:0:0:
192,192,6031,1,0,0:0:0:0:
64,192,6349,1,0,0:0:0:0:
320,192,6666,1,0,0:0:0:0:
448,192,6666,1,0,0:0:0:0:
64,192,6984,1,0,0:0:0:0:
192,192,7142,1,0,0:0:0:0:
320,192,7301,1,0,0:0:0:0:
448,192,7301,1,0,0:0:0:0:
448,192,7619,1,0,0:0:0:0:
64,192,7936,1,0,0:0:0:0:
192,192,7936,1,0,0:0:0:0:
448,192,8253,1,0,0:0:0:0:
320,192,8412,1,0,0:0:0:0:
64,192,8571,1,0,0:0:0:0:
192,192,8571,1,0,0:0:0:0:
64,192,8888,1,0,0:0:0:0:
448,192,9206,1,0,0:0:0:0:
320,192,9206,1,0,0:0:0:0:
64,192,9523,1,0,0:0:0:0:
192,192,9682,1,0,0:0:0:0:
448,192,9841,1,0,0:0:0:0:
320,192,9841,1,0,0:0:0:0:
448,192,10158,1,0,0:0:0:0:
192,192,10476,1,0,0:0:0:0:
64,192,10476,1,0,0:0:0:0:
448,192,10793,1,0,0:0:0:0:
320,192,10952,1,0,0:0:0:0:
192,192,11111,1,0,0:0:0:0:
64,192,11111,1,0,0:0:0:0:
64,192,11428,1,0,0:0:0:0:
320,192,11746,1,0,0:0:0:0:
448,192,11746,1,0,0:0:0:0:
64,192,12063,1,0,0:0:0:0:
192,192,12222,1,0,0:0:0:0:
320,192,12380,1,0,0:0:0:0:
448,192,12380,1,0,0:0:0:0:
192,192,12698,1,0,0:0:0:0:
320,192,12698,1,0,0:0:0:0:
64,192,13333,1,0,0:0:0:0:
448,192,13333,1,0,0:0:0:0:
192,192,14285,1,0,0:0:0:0:
320,192,14444,1,0,0:0:0:0:
192,192,14603,1,0,0:0:0:0:
64,192,14920,1,0,0:0:0:0:
448,192,15238,1,0,0:0:0:0:
64,192,15555,1,0,0:0:0:0:
192,192,15714,1,0,0:0:0:0:
320,192,15873,1,0,0:0:0:0:
448,192,16031,1,0,0:0:0:0:
64,192,16349,128,0,17777:0:0:0:0:
192,192,16825,1,0,0:0:0:0:
448,192,16984,1,0,0:0:0:0:
192,192,17142,1,0,0:0:0:0:
320,192,17460,1,0,0:0:0:0:
448,192,17777,1,0,0:0:0:0:
320,192,18095,1,0,0:0:0:0:
192,192,18253,1,0,0:0:0:0:
64,192,18571,1,0,0:0:0:0:
448,192,18888,128,0,20317:0:0:0:0:
320,192,19047,1,0,0:0:0:0:
64,192,19365,1,0,0:0:0:0:
192,192,19523,1,0,0:0:0:0:
192,192,20158,1,0,0:0:0:0:
320,192,20317,1,0,0:0:0:0:
64,192,20634,1,0,0:0:0:0:
192,192,20793,1,0,0:0:0:0:
448,192,21111,1,0,0:0:0:0:
64,192,21428,128,0,22698:0:0:0:0:
192,192,21428,128,0,22698:0:0:0:0:
320,192,21587,1,0,0:0:0:0:
448,192,21587,1,0,0:0:0:0:
320,192,22698,1,0,0:0:0:0:
448,192,22698,1,0,0:0:0:0:
320,192,23174,1,0,0:0:0:0:
192,192,23492,1,0,0:0:0:0:
320,192,23809,1,0,0:0:0:0:
64,192,24126,1,0,0:0:0:0:
192,192,24285,1,0,0:0:0:0:
320,192,24444,1,0,0:0:0:0:
448,192,24603,1,0,0:0:0:0:
64,192,24761,1,0,0:0:0:0:
192,192,25079,1,0,0:0:0:0:
320,192,25396,1,0,0:0:0:0:
64,192,25714,1,0,0:0:0:0:
64,192,25873,128,0,26507:0:0:0:0:
448,192,26666,1,0,0:0:0:0:
320,192,26825,1,0,0:0:0:0:
192,192,26984,1,0,0:0:0:0:
64,192,27301,1,0,0:0:0:0:
448,192,27619,128,0,27936:0:0:0:0:
64,192,27936,1,0,0:0:0:0:
320,192,28253,1,0,0:0:0:0:
64,192,28412,128,0,29206:0:0:0:0:
448,192,29523,1,0,0:0:0:0:
320,192,29682,1,0,0:0:0:0:
64,192,29841,1,0,0:0:0:0:
192,192,30158,128,0,30476:0:0:0:0:
448,192,30476,1,0,0:0:0:0:
448,192,30793,1,0,0:0:0:0:
64,192,31111,1,0,0:0:0:0:
64,192,31428,1,0,0:0:0:0:
320,192,31746,128,0,32222:0:0:0:0:
192,192,32222,1,0,0:0:0:0:
448,192,32380,128,0,33650:0:0:0:0:
64,192,33015,1,0,0:0:0:0:
192,192,33333,1,0,0:0:0:0:
320,192,33650,1,0,0:0:0:0:
64,192,33809,1,0,0:0:0:0:
448,192,33968,1,0,0:0:0:0:
64,192,34444,1,0,0:0:0:0:
320,192,34603,1,0,0:0:0:0:
448,192,34920,128,0,35238:0:0:0:0:
64,192,35238,1,0,0:0:0:0:
448,192,35555,128,0,36031:0:0:0:0:
64,192,36031,1,0,0:0:0:0:
320,192,36190,128,0,36825:0:0:0:0:
64,192,36984,1,0,0:0:0:0:
192,192,37142,1,0,0:0:0:0:
320,192,37301,1,0,0:0:0:0:
448,192,37460,128,0,37777:0:0:0:0:
64,192,37777,1,0,0:0:0:0:
192,192,38095,1,0,0:0:0:0:
320,192,38571,1,0,0:0:0:0:
64,192,38730,128,0,39365:0:0:0:0:
448,192,39682,1,0,0:0:0:0:
320,192,39841,1,0,0:0:0:0:
192,192,39999,1,0,0:0:0:0:
320,192,40317,1,0,0:0:0:0:
448,192,40634,1,0,0:0:0:0:
64,192,40952,1,0,0:0:0:0:
192,192,41269,128,0,41587:0:0:0:0:
320,192,41587,1,0,0:0:0:0:
64,192,41746,128,0,43492:0:0:0:0:
448,192,41746,128,0,43492:0:0:0:0:
64,192,44444,128,0,46984:0:0:0:0:
192,192,44444,1,0,0:0:0:0:
192,192,45079,128,0,46984:0:0:0:0:
320,192,45079,1,0,0:0:0:0:
320,192,45714,128,0,46984:0:0:0:0:
448,192,45714,1,0,0:0:0:0:
448,192,46349,128,0,46984:0:0:0:0:
320,192,47301,1,0,0:0:0:0:
192,192,47460,1,0,0:0:0:0:
320,192,47619,1,0,0:0:0:0:
192,192,47777,1,0,0:0:0:0:
64,192,48095,1,0,0:0:0:0:
320,192,48412,1,0,0:0:0:0:
64,192,48571,1,0,0:0:0:0:
448,192,48888,1,0,0:0:0:0:
192,192,49206,1,0,0:0:0:0:
64,192,49523,1,0,0:0:0:0:
320,192,49999,1,0,0:0:0:0:
192,192,50158,1,0,0:0:0:0:
320,192,50476,1,0,0:0:0:0:
64,192,50634,128,0,51587:0:0:0:0:
192,192,50793,1,0,0:0:0:0:
448,192,51111,1,0,0:0:0:0:
320,192,51269,1,0,0:0:0:0:
192,192,51587,1,0,0:0:0:0:
320,192,51904,1,0,0:0:0:0:
64,192,52380,1,0,0:0:0:0:
448,192,52539,1,0,0:0:0:0:
64,192,52698,1,0,0:0:0:0:
448,192,52857,1,0,0:0:0:0:
192,192,53174,1,0,0:0:0:0:
320,192,53492,1,0,0:0:0:0:
448,192,53650,1,0,0:0:0:0:
64,192,53968,1,0,0:0:0:0:
320,192,54285,1,0,0:0:0:0:
64,192,54603,1,0,0:0:0:0:
448,192,55079,1,0,0:0:0:0:
192,192,55238,1,0,0:0:0:0:
448,192,55555,1,0,0:0:0:0:
64,192,55714,128,0,56349:0:0:0:0:
192,192,56507,1,0,0:0:0:0:
320,192,56666,1,0,0:0:0:0:
192,192,56825,1,0,0:0:0:0:
320,192,56984,1,0,0:0:0:0:
64,192,57142,1,0,0:0:0:0:
448,192,57142,1,0,0:0:0:0:
192,192,57460,1,0,0:0:0:0:
320,192,57460,1,0,0:0:0:0:
448,192,57777,1,0,0:0:0:0:
320,192,57936,1,0,0:0:0:0:
192,192,58095,1,0,0:0:0:0:
64,192,58253,1,0,0:0:0:0:
320,192,58412,1,0,0:0:0:0:
448,192,58412,1,0,0:0:0:0:
64,192,58730,1,0,0:0:0:0:
192,192,58730,1,0,0:0:0:0:
320,192,59047,1,0,0:0:0:0:
192,192,59206,1,0,0:0:0:0:
64,192,59365,1,0,0:0:0:0:
192,192,59523,1,0,0:0:0:0:
320,192,59682,1,0,0:0:0:0:
448,192,59999,1,0,0:0:0:0:
64,192,60158,1,0,0:0:0:0:
320,192,60476,1,0,0:0:0:0:
448,192,60793,128,0,61269:0:0:0:0:
320,192,61269,128,0,61587:0:0:0:0:
192,192,61587,128,0,61904:0:0:0:0:
64,192,61904,128,0,62222:0:0:0:0:
320,192,62222,1,0,0:0:0:0:
448,192,62222,1,0,0:0:0:0:
192,192,62539,1,0,0:0:0:0:
320,192,62698,1,0,0:0:0:0:
192,192,63015,1,0,0:0:0:0:
320,192,63015,1,0,0:0:0:0:
64,192,63333,128,0,63968:0:0:0:0:
448,192,63333,128,0,63968:0:0:0:0:
320,192,64444,1,0,0:0:0:0:
192,192,64603,1,0,0:0:0:0:
448,192,64761,128,0,67301:0:0:0:0:
320,192,64761,1,0,0:0:0:0:
320,192,65396,128,0,67301:0:0:0:0:
192,192,65396,1,0,0:0:0:0:
192,192,66031,128,0,67301:0:0:0:0:
64,192,66031,1,0,0:0:0:0:
64,192,66666,128,0,67301:0:0:0:0:
448,192,67619,1,0,0:0:0:0:
192,192,67777,1,0,0:0:0:0:
320,192,67936,1,0,0:0:0:0:
64,192,68095,1,0,0:0:0:0:
192,192,68412,1,0,0:0:0:0:
448,192,68730,1,0,0:0:0:0:
320,192,68888,1,0,0:0:0:0:
64,192,69206,1,0,0:0:0:0:
192,192,69523,1,0,0:0:0:0:
320,192,69841,1,0,0:0:0:0:
448,192,69841,1,0,0:0:0:0:
64,192,70317,1,0,0:0:0:0:
192,192,70476,1,0,0:0:0:0:
448,192,70793,1,0,0:0:0:0:
64,192,70952,128,0,71904:0:0:0:0:
192,192,70952,128,0,71904:0:0:0:0:
320,192,71111,1,0,0:0:0:0:
448,192,71428,1,0,0:0:0:0:
320,192,71587,1,0,0:0:0:0:
448,192,71904,1,0,0:0:0:0:
320,192,72222,1,0,0:0:0:0:
448,192,72698,1,0,0:0:0:0:
192,192,72857,1,0,0:0:0:0:
320,192,73015,1,0,0:0:0:0:
64,192,73174,1,0,0:0:0:0:
192,192,73174,1,0,0:0:0:0:
448,192,73492,1,0,0:0:0:0:
320,192,73809,1,0,0:0:0:0:
192,192,73968,1,0,0:0:0:0:
64,192,74285,1,0,0:0:0:0:
448,192,74603,1,0,0:0:0:0:
64,192,74920,1,0,0:0:0:0:
448,192,75396,1,0,0:0:0:0:
448,192,75555,1,0,0:0:0:0:
320,192,75873,1,0,0:0:0:0:
192,192,76031,128,0,76507:0:0:0:0:
64,192,76031,128,0,76507:0:0:0:0:
448,192,76825,1,0,0:0:0:0:
320,192,76984,1,0,0:0:0:0:
192,192,77142,1,0,0:0:0:0:
64,192,77301,1,0,0:0:0:0:
320,192,77460,1,0,0:0:0:0:
448,192,77460,1,0,0:0:0:0:
192,192,77777,1,0,0:0:0:0:
320,192,77777,1,0,0:0:0:0:
64,192,78095,1,0,0:0:0:0:
192,192,78253,1,0,0:0:0:0:
320,192,78412,1,0,0:0:0:0:
448,192,78571,1,0,0:0:0:0:
64,192,78730,1,0,0:0:0:0:
192,192,78730,1,0,0:0:0:0:
192,192,79047,1,0,0:0:0:0:
320,192,79047,1,0,0:0:0:0:
448,192,79365,1,0,0:0:0:0:
320,192,79523,1,0,0:0:0:0:
192,192,79682,1,0,0:0:0:0:
64,192,79841,1,0,0:0:0:0:
448,192,79999,128,0,80317:0:0:0:0:
320,192,80317,1,0,0:0:0:0:
64,192,80476,1,0,0:0:0:0:
448,192,80793,1,0,0:0:0:0:
448,192,80952,1,0,0:0:0:0:
64,192,81111,1,0,0:0:0:0:
192,192,81111,1,0,0:0:0:0:
320,192,81746,1,0,0:0:0:0:
192,192,81904,1,0,0:0:0:0:
64,192,82222,1,0,0:0:0:0:
448,192,82539,128,0,84126:0:0:0:0:
320,192,82539,1,0,0:0:0:0:
320,192,83015,128,0,84126:0:0:0:0:
192,192,83015,1,0,0:0:0:0:
192,192,83492,128,0,84126:0:0:0:0:
64,192,83492,1,0,0:0:0:0:
64,192,83809,128,0,84126:0:0:0:0:
192,192,84444,1,0,0:0:0:0:
320,192,84603,1,0,0:0:0:0:
64,192,84761,1,0,0:0:0:0:
320,192,84920,1,0,0:0:0:0:
448,192,85079,1,0,0:0:0:0:
64,192,85396,1,0,0:0:0:0:
320,192,85714,1,0,0:0:0:0:
448,192,85873,1,0,0:0:0:0:
64,192,86190,1,0,0:0:0:0:
192,192,86190,1,0,0:0:0:0:
448,192,86507,1,0,0:0:0:0:
320,192,86666,1,0,0:0:0:0:
192,192,86984,1,0,0:0:0:0:
64,192,87301,1,0,0:0:0:0:
320,192,87619,128,0,88730:0:0:0:0:
448,192,87619,128,0,88730:0:0:0:0:
