osu file format v14

[General]
AudioFilename: audio.mp3
AudioLeadIn: 0
PreviewTime: 47161
Countdown: 0
SampleSet: Soft
StackLeniency: 1
Mode: 0
LetterboxInBreaks: 0
WidescreenStoryboard: 1

[Editor]
Bookmarks: 14066,24224,34383,47082,57240,67399,77558
DistanceSpacing: 1.4
BeatDivisor: 4
GridSize: 8
TimelineZoom: 1

[Metadata]
Title:Yorimichi Little Star (TV Size)
TitleUnicode:よりみちリトルスター (TV Size)
Artist:U149
ArtistUnicode:U149
Creator:Usaha
Version:Hard
Source:アイドルマスター シンデレラガールズ U149
Tags:japanese pop idol project u149 the idolm@ster imas idolmaster im@s cinderella girls 橘ありす 櫻井桃華 赤城みりあ 的場梨沙 結城晴 佐々木千枝 龍崎薫 市原仁奈 古賀小春 tachibana arisu sakurai momoka ichihara nina ryuuzaki kaoru akagi miria yuuki haru matoba risa sasaki chie koharu koga satou amina terui haruka kuno misaki haruse natusmi kurosawa tomoyo koichi makoto tamegai hana imai asaka komori yuri 佐藤亜美菜 照井春佳 久野美咲 春瀬なつみ 黒沢ともよ 小市眞琴 集貝はな 今井麻夏 小森結梨 nana abe takekii takeki loli
BeatmapID:4117088
BeatmapSetID:1982463

[Difficulty]
HPDrainRate:4
CircleSize:3.8
OverallDifficulty:7
ApproachRate:8
SliderMultiplier:1.2
SliderTickRate:1

[Events]
//Background and Video events
Video,54,"yorimichi.mp4"
0,0,"arisu mommy heart_eyes_cat heart_eyes_cat heart_eyes_cat.jpg",0,0
//Break Periods
//Storyboard Layer 0 (Background)
//Storyboard Layer 1 (Fail)
//Storyboard Layer 2 (Pass)
//Storyboard Layer 3 (Foreground)
//Storyboard Layer 4 (Overlay)
//Storyboard Sound Samples

[TimingPoints]
98,317.460317460317,4,2,1,70,1,0
24224,-111.111111111111,4,2,1,60,0,0
44542,-111.111111111111,4,2,1,70,0,0
46447,-100,4,2,1,70,0,0
47082,-90.9090909090909,4,2,1,85,0,1
86288,-100,4,2,1,85,0,1
87717,-100,4,2,1,70,0,0

[Colours]
Combo1 : 128,128,255
Combo2 : 149,202,255
Combo3 : 255,170,191

[HitObjects]
256,192,2637,12,0,3590,1:0:0:0:
245,337,3907,6,0,L|106:316,1,120,4|2,2:1|1:0,2:0:0:0:
60,275,4383,1,0,2:0:0:0:
60,275,4542,2,0,P|77:233|111:215,1,60,2|0,3:2|3:0,2:0:0:0:
172,214,4859,1,2,1:2:0:0:
318,296,5177,6,0,L|445:282,1,120,2|0,3:0|1:0,2:0:0:0:
504,232,5653,2,0,P|516:174|425:101,1,180,2|0,2:0|1:0,2:0:0:0:
356,124,6288,1,0,2:0:0:0:
356,124,6447,1,2,3:1:0:0:
217,29,6764,5,2,1:2:0:0:
182,105,6923,1,0,2:0:0:0:
243,162,7082,2,0,P|257:203|251:229,1,60,2|0,3:2|3:0,2:0:0:0:
182,262,7399,2,0,P|139:253|119:235,1,60,2|0,1:2|2:0,2:0:0:0:
126,243,7717,6,0,P|145:290|108:366,1,120,2|0,3:0|1:0,2:0:0:0:
50,310,8193,2,0,L|18:251,1,60,2|0,2:0|3:0,2:0:0:0:
94,215,8510,2,0,L|77:91,1,120,2|2,3:0|2:0,2:0:0:0:
29,27,8986,6,0,P|57:69|139:72,1,120,2|2,3:1|1:2,2:0:0:0:
199,44,9463,1,0,2:0:0:0:
268,91,9621,2,0,L|254:158,1,60,2|0,3:2|3:0,2:0:0:0:
349,186,9939,2,0,L|340:112,1,60,2|0,1:2|2:0,2:0:0:0:
444,53,10256,6,0,B|419:91|419:91|436:192,1,120,2|0,3:0|1:0,2:0:0:0:
497,216,10732,1,2,2:0:0:0:
422,330,11050,2,0,L|284:306,1,120,2|2,2:0|3:2,2:0:0:0:
226,326,11526,6,0,P|186:324|142:207,1,180,2|0,3:1|2:0,2:0:0:0:
217,178,12161,2,0,L|290:166,1,60,2|0,3:0|3:0,2:0:0:0:
301,88,12478,2,0,L|228:76,1,60,0|0,1:0|2:0,2:0:0:0:
111,76,12796,6,0,L|125:212,2,120,2|0|2,3:0|1:0|3:2,2:0:0:0:
230,30,13590,1,0,1:0:0:0:
284,93,13748,2,0,L|271:168,1,60,0|0,1:0|3:0,2:0:0:0:
269,236,14066,6,0,P|297:211|397:218,1,120,2|0,3:1|1:0,2:0:0:0:
454,236,14542,1,0,2:0:0:0:
504,168,14701,2,0,P|508:126|497:102,1,60,2|0,3:0|2:0,2:0:0:0:
420,88,15018,2,0,L|428:169,1,60,0|0,1:0|2:0,2:0:0:0:
351,188,15336,1,2,3:0:0:0:
206,152,15653,5,2,1:2:0:0:
157,220,15812,1,0,2:0:0:0:
205,288,15971,1,2,3:2:0:0:
145,346,16129,2,0,L|59:333,2,60,0|2|0,2:0|1:2|2:0,2:0:0:0:
281,328,16605,6,0,P|294:273|241:206,1,120,2|2,3:1|1:2,2:0:0:0:
180,218,17082,1,0,2:0:0:0:
115,164,17240,2,0,L|46:174,1,60,2|0,3:0|3:0,2:0:0:0:
2,106,17558,2,0,P|27:91|57:86,1,60,2|0,1:2|2:0,2:0:0:0:
188,109,17875,6,0,P|234:89|242:15,1,120,2|0,3:0|1:0,2:0:0:0:
162,30,18351,1,2,2:0:0:0:
104,91,18510,2,0,L|135:224,1,120,0|0,3:0|1:0,2:0:0:0:
272,220,19145,6,0,L|241:353,1,120,2|0,3:1|1:0,2:0:0:0:
323,366,19621,2,0,P|363:340|439:342,1,120,2|0,2:0|3:0,2:0:0:0:
505,296,20097,1,0,1:0:0:0:
505,296,20256,1,0,2:0:0:0:
449,232,20415,6,0,P|430:189|452:104,1,120,2|0,3:0|1:0,2:0:0:0:
357,119,20891,2,0,L|278:133,1,60,2|0,2:0|3:0,2:0:0:0:
221,165,21209,1,2,3:0:0:0:
160,106,21367,2,0,P|158:69|171:44,1,60,0|0,1:0|3:0,2:0:0:0:
121,185,21685,6,0,P|67:188|27:129,2,120,4|0|0,2:0|1:0|3:0,2:0:0:0:
204,179,22478,1,0,3:0:0:0:
287,165,22637,1,0,1:0:0:0:
192,283,22796,6,0,L|60:267,1,120,4|0,2:1|3:0,2:0:0:0:
145,247,23272,2,0,L|226:234,1,60,0|0,1:0|3:0,2:0:0:0:
287,251,23590,1,0,1:0:0:0:
368,231,23748,1,8,3:0:0:0:
368,315,23907,1,4,3:0:0:0:
368,315,24066,1,0,3:0:0:0:
470,278,24224,6,0,P|487:247|441:139,1,162,4|0,2:0|3:0,2:0:0:0:
442,139,25177,2,0,L|365:147,1,54.0000000000001,0|0,1:0|2:0,2:0:0:0:
313,153,25494,2,0,P|267:113|274:56,1,108,2|0,3:0|2:0,2:0:0:0:
334,31,25971,1,0,3:0:0:0:
334,31,26129,2,0,L|209:46,1,108,2|0,2:0|1:0,2:0:0:0:
78,73,26764,6,0,P|49:106|143:215,1,216,2|0,3:0|2:0,2:0:0:0:
249,190,27717,1,0,1:0:0:0:
269,298,28034,2,0,B|281:358|281:358|338:361|351:299,1,162,2|0,3:2|3:2,2:0:0:0:
338,165,28828,1,2,2:0:0:0:
405,131,28986,2,0,L|470:143,1,54.0000000000001,0|0,1:0|3:0,2:0:0:0:
495,34,29304,6,0,L|277:53,1,216,2|0,3:0|2:0,2:0:0:0:
207,117,30256,1,0,1:0:0:0:
104,61,30574,2,0,P|62:78|56:156,1,108,2|0,3:2|2:0,2:0:0:0:
13,242,31209,2,0,P|54:227|127:222,1,108,0|0,2:0|1:0,2:0:0:0:
117,221,31844,6,0,P|117:253|264:280,1,216,2|0,3:2|2:0,2:0:0:0:
329,257,32637,1,0,2:0:0:0:
404,289,32796,2,0,L|472:305,2,54.0000000000001,0|0|0,1:0|2:0|2:0,2:0:0:0:
353,215,33272,2,0,L|285:199,2,54.0000000000001,0|2|0,1:0|2:3|3:0,2:0:0:0:
427,200,33748,1,0,1:0:0:0:
478,144,33907,1,8,3:0:0:0:
460,70,34066,1,8,3:0:0:0:
293,162,34383,6,0,L|175:143,1,108,4|2,2:0|2:0,2:0:0:0:
115,171,34859,2,0,P|99:206|138:271,1,108,0|0,3:0|2:0,2:0:0:0:
202,275,35336,1,2,1:2:0:0:
327,240,35653,6,0,P|383:243|434:288,1,108,2|0,3:0|2:0,2:0:0:0:
423,348,36129,1,0,2:0:0:0:
351,373,36288,2,0,L|291:382,2,54.0000000000001,2|0|0,2:0|2:0|1:0,2:0:0:0:
225,288,36923,5,2,3:0:0:0:
225,288,37082,1,2,2:0:0:0:
184,218,37240,1,0,2:0:0:0:
223,149,37399,1,0,3:0:0:0:
168,96,37558,2,0,L|159:23,1,54.0000000000001,2|0,2:0|2:0,2:0:0:0:
261,9,37875,2,0,L|252:82,1,54.0000000000001,0|0,1:0|2:0,2:0:0:0:
331,152,38193,6,0,P|373:150|417:100,1,108,2|0,3:0|2:0,2:0:0:0:
415,103,38669,2,0,P|395:140|417:203,1,108,2|0,3:2|2:0,2:0:0:0:
487,219,39145,2,0,L|476:287,1,54.0000000000001,0|0,1:0|2:0,2:0:0:0:
394,337,39463,6,0,B|348:321|348:321|325:324|325:324|271:308,1,108,2|2,3:0|2:0,2:0:0:0:
221,281,39939,1,0,3:0:0:0:
155,317,40097,2,0,P|140:349|138:373,1,54.0000000000001,0|0,2:0|2:0,2:0:0:0:
151,239,40415,2,0,L|139:175,1,54.0000000000001,2|0,1:3|2:0,2:0:0:0:
110,93,40732,5,8,3:0:0:0:
36,120,40891,1,8,3:0:0:0:
5,52,41050,1,4,3:0:0:0:
202,101,41367,5,4,3:0:0:0:
276,128,41526,1,4,3:0:0:0:
307,60,41685,2,0,L|323:190,1,108,4|4,3:0|2:0,2:0:0:0:
256,192,42161,12,0,44224,2:0:0:0:
256,192,44542,5,4,2:0:0:0:
256,192,45177,1,4,2:1:0:0:
256,192,45812,1,4,2:0:0:0:
256,192,46447,2,0,L|246:237,3,30,0|0|0|0,1:0|1:0|1:0|1:0,2:0:0:0:
317,259,46764,5,0,1:0:0:0:
324,257,46844,1,0,1:0:0:0:
331,256,46923,1,0,1:0:0:0:
339,254,47002,1,0,1:0:0:0:
346,253,47082,2,0,P|398:254|429:343,1,132,4|0,3:1|1:0,2:0:0:0:
360,370,47558,1,2,2:0:0:0:
277,328,47717,1,2,3:0:0:0:
277,328,47875,2,0,L|204:337,1,66,2|0,3:2|1:0,2:0:0:0:
89,315,48193,6,0,P|77:277|123:196,1,132,2|0,3:0|3:0,2:0:0:0:
202,162,48669,2,0,L|211:85,1,66,2|0,1:2|2:0,2:0:0:0:
284,205,48986,2,0,L|293:282,1,66,2|0,3:2|3:0,2:0:0:0:
354,157,49304,2,0,L|363:80,1,66,2|0,1:2|2:0,2:0:0:0:
429,251,49621,6,0,L|282:230,1,132,2|0,3:1|1:0,2:0:0:0:
209,257,50097,1,0,2:0:0:0:
153,184,50256,2,0,P|151:135|160:107,1,66,2|0,3:0|3:0,2:0:0:0:
247,107,50574,1,0,1:2:0:0:
247,107,50732,1,2,3:0:0:0:
211,22,50891,6,0,L|72:30,1,132,2|0,2:0|1:0,2:0:0:0:
17,98,51367,2,0,P|48:119|91:120,1,66,2|0,2:0|3:0,2:0:0:0:
128,195,51685,2,0,P|162:181|187:145,1,66,2|0,3:2|1:0,2:0:0:0:
279,102,52002,5,2,2:0:0:0:
279,102,52161,2,0,B|263:150|263:150|285:251,1,132,2|0,3:1|1:0,2:0:0:0:
305,318,52637,1,2,2:0:0:0:
218,351,52796,1,2,3:0:0:0:
184,264,52955,2,0,P|145:275|125:296,1,66,2|0,3:2|1:0,2:0:0:0:
30,333,53272,6,0,P|19:286|70:215,1,132,2|0,3:0|3:0,2:0:0:0:
134,161,53748,2,0,L|61:133,1,66,2|0,1:2|2:0,2:0:0:0:
166,248,54066,2,0,L|93:276,1,66,2|0,3:2|3:0,2:0:0:0:
242,176,54383,2,0,L|169:148,1,66,2|0,1:2|2:0,2:0:0:0:
282,263,54701,6,0,P|326:229|324:136,1,132,2|0,3:1|1:0,2:0:0:0:
262,99,55177,1,2,2:0:0:0:
384,83,55336,2,0,L|518:118,1,132,2|2,3:0|1:2,2:0:0:0:
364,163,55812,6,0,P|305:137|291:75,1,132,2|0,3:0|3:0,2:0:0:0:
365,20,56288,1,0,1:0:0:0:
450,183,56605,1,2,3:2:0:0:
430,273,56764,1,0,2:0:0:0:
340,249,56923,1,2,1:2:0:0:
320,339,57082,1,0,1:0:0:0:
320,339,57240,2,0,B|282:358|282:358|186:328,1,132,4|0,3:2|1:0,2:0:0:0:
151,249,57717,5,0,2:0:0:0:
151,249,57875,1,2,3:2:0:0:
220,187,58034,1,0,3:0:0:0:
172,107,58193,1,2,1:2:0:0:
254,65,58351,1,0,2:0:0:0:
176,13,58510,2,0,P|126:9|61:56,1,132,2|0,3:0|1:0,2:0:0:0:
67,202,59145,5,2,2:0:0:0:
148,188,59304,1,0,3:0:0:0:
230,176,59463,1,2,1:2:0:0:
311,164,59621,1,0,2:0:0:0:
411,219,59780,6,0,B|436:259|436:259|421:357,1,132,2|0,3:1|1:0,2:0:0:0:
335,371,60256,2,0,P|329:329|339:302,1,66,2|0,2:0|3:0,2:0:0:0:
238,229,60574,2,0,L|254:303,1,66,2|0,3:0|1:0,2:0:0:0:
125,360,60891,5,2,2:0:0:0:
125,360,61050,2,0,P|171:326|128:258,1,132,2|2,3:0|1:2,2:0:0:0:
58,242,61526,1,0,2:0:0:0:
111,166,61685,2,0,P|119:123|107:89,1,66,2|0,3:2|3:0,2:0:0:0:
181,38,62002,2,0,L|99:9,1,66,2|0,1:2|2:0,2:0:0:0:
222,144,62320,6,0,L|359:122,1,132,2|0,3:1|1:0,2:0:0:0:
419,59,62796,2,0,P|370:35|332:37,1,66,2|0,2:0|3:0,2:0:0:0:
296,101,63113,2,0,L|280:180,1,66,2|0,3:0|1:0,2:0:0:0:
349,231,63431,1,2,2:0:0:0:
286,298,63590,6,0,L|214:311,2,66,2|0|0,3:0|3:0|1:0,2:0:0:0:
364,346,64066,1,2,2:0:0:0:
434,286,64224,2,0,L|501:296,1,66,0|0,3:0|3:0,2:0:0:0:
506,202,64542,1,2,1:3:0:0:
428,150,64701,1,0,2:0:0:0:
353,204,64859,6,0,L|218:215,1,132,4|0,2:0|1:0,2:0:0:0:
135,251,65336,1,0,2:0:0:0:
81,176,65494,2,0,P|81:133|96:105,1,66,2|0,3:2|3:0,2:0:0:0:
171,66,65812,2,0,L|183:143,1,66,0|0,1:0|2:0,2:0:0:0:
245,241,66129,6,0,L|237:332,1,66,4|0,2:0|3:0,2:0:0:0:
146,351,66447,2,0,L|138:260,1,66,0|0,1:0|3:0,2:0:0:0:
63,234,66764,5,12,3:0:0:0:
98,144,66923,2,0,L|84:91,2,33,0|0|0,3:0|1:0|1:0,2:0:0:0:
141,160,67161,2,0,L|182:152,1,33,0|0,1:0|1:0,2:0:0:0:
217,137,67320,5,0,1:0:0:0:
217,137,67399,2,0,B|266:147|266:147|293:140|293:140|354:151,1,132,4|0,3:1|1:0,2:0:0:0:
413,213,67875,1,2,2:0:0:0:
494,168,68034,1,2,3:0:0:0:
485,76,68193,2,0,L|412:85,1,66,2|0,3:2|1:0,2:0:0:0:
288,114,68510,6,0,B|265:178|302:172|281:243,1,132,2|0,3:0|3:0,2:0:0:0:
200,289,68986,2,0,L|123:280,1,66,2|0,1:2|2:0,2:0:0:0:
265,238,69304,2,0,L|342:247,1,66,2|0,3:2|3:0,2:0:0:0:
220,162,69621,2,0,L|143:153,1,66,2|0,1:2|2:0,2:0:0:0:
297,113,69939,6,0,P|311:78|248:17,1,132,2|0,3:1|1:0,2:0:0:0:
161,24,70415,1,0,2:0:0:0:
72,52,70574,2,0,P|59:91|66:120,1,66,2|0,3:0|3:0,2:0:0:0:
141,164,70891,1,0,1:2:0:0:
141,164,71050,1,2,3:0:0:0:
67,253,71209,6,0,B|104:232|104:232|206:245,1,132,2|0,2:0|1:0,2:0:0:0:
275,285,71685,2,0,P|262:315|264:347,1,66,2|0,2:0|3:0,2:0:0:0:
357,277,72002,2,0,L|425:296,1,66,2|0,3:2|1:0,2:0:0:0:
308,203,72320,5,2,2:0:0:0:
308,203,72478,2,0,L|460:178,1,132,2|0,3:1|1:0,2:0:0:0:
395,99,72955,1,2,2:0:0:0:
304,117,73113,1,2,3:0:0:0:
279,27,73272,2,0,L|365:37,1,66,2|0,3:2|1:0,2:0:0:0:
231,91,73590,6,0,L|98:103,1,132,2|0,3:0|3:0,2:0:0:0:
33,167,74066,2,0,P|9:200|5:240,1,66,2|0,1:2|2:0,2:0:0:0:
115,166,74383,2,0,P|139:133|143:93,1,66,2|0,3:2|3:0,2:0:0:0:
159,241,74701,2,0,P|135:274|131:314,1,66,2|0,1:2|2:0,2:0:0:0:
250,211,75018,6,0,P|314:215|356:263,1,132,2|0,3:1|1:0,2:0:0:0:
269,296,75494,1,2,2:0:0:0:
233,210,75653,2,0,P|225:146|266:96,1,132,2|2,3:0|1:2,2:0:0:0:
151,142,76129,6,0,L|10:163,1,132,4|0,3:1|3:0,2:0:0:0:
2,70,76605,1,0,1:0:0:0:
100,226,76923,1,2,3:2:0:0:
188,251,77082,1,0,2:0:0:0:
244,177,77240,1,2,1:2:0:0:
332,202,77399,1,0,1:0:0:0:
332,202,77558,2,0,L|473:181,1,132,4|0,3:2|1:0,2:0:0:0:
433,93,78034,5,0,2:0:0:0:
433,93,78193,1,2,3:2:0:0:
361,34,78351,1,0,3:0:0:0:
300,102,78510,1,2,1:2:0:0:
372,161,78669,1,0,2:0:0:0:
329,243,78828,2,0,L|188:222,1,132,2|0,3:0|1:0,2:0:0:0:
78,306,79463,5,2,2:0:0:0:
64,225,79621,1,0,3:0:0:0:
52,143,79780,1,2,1:2:0:0:
40,62,79939,1,0,2:0:0:0:
162,108,80097,6,0,P|210:103|262:34,1,132,2|0,3:1|1:0,2:0:0:0:
260,41,80574,2,0,L|282:133,1,66,2|0,2:0|3:0,2:0:0:0:
336,175,80891,1,2,3:0:0:0:
426,156,81050,1,0,1:0:0:0:
319,229,81209,6,0,L|162:260,1,132,4|0,3:1|3:0,2:0:0:0:
99,274,81685,1,0,1:0:0:0:
194,356,82002,2,0,L|278:362,1,66,2|0,3:0|1:0,2:0:0:0:
320,307,82320,2,0,L|404:313,1,66,0|0,3:0|3:0,2:0:0:0:
484,248,82637,6,0,P|490:205|434:130,1,132,4|0,2:0|1:0,2:0:0:0:
347,159,83113,2,0,P|302:167|313:95,1,132,0|0,3:0|2:0,2:0:0:0:
299,6,83590,2,0,P|290:56|271:73,1,66,0|0,1:0|2:0,2:0:0:0:
142,106,83907,6,0,P|95:69|89:-7,2,132,4|0|0,3:1|1:0|3:0,2:0:0:0:
221,154,84701,1,0,1:0:0:0:
157,221,84859,1,0,3:0:0:0:
211,296,85018,1,0,3:0:0:0:
139,354,85177,6,0,L|7:331,1,132,0|0,1:0|3:0,2:0:0:0:
10,238,85653,2,0,P|61:237|136:278,1,132,4|8,3:0|3:0,2:0:0:0:
216,236,86129,5,0,1:0:0:0:
216,236,86288,2,0,P|188:185|283:133,1,180,4|0,2:0|2:0,2:0:0:0:
331,195,87082,1,0,2:0:0:0:
421,168,87399,1,0,2:0:0:0:
504,141,87717,1,2,2:0:0:0:
