osu file format v14

[General]
AudioFilename: audio.mp3
AudioLeadIn: 0
PreviewTime: 47161
Countdown: 0
SampleSet: Soft
StackLeniency: 1
Mode: 0
LetterboxInBreaks: 0
WidescreenStoryboard: 1

[Editor]
Bookmarks: 14066,24224,34383,47082,57240,67399,77558
DistanceSpacing: 1.4
BeatDivisor: 4
GridSize: 8
TimelineZoom: 1

[Metadata]
Title:Yorimichi Little Star (TV Size)
TitleUnicode:よりみちリトルスター (TV Size)
Artist:U149
ArtistUnicode:U149
Creator:Usaha
Version:Extra
Source:アイドルマスター シンデレラガールズ U149
Tags:japanese pop idol project u149 the idolm@ster imas idolmaster im@s cinderella girls 橘ありす 櫻井桃華 赤城みりあ 的場梨沙 結城晴 佐々木千枝 龍崎薫 市原仁奈 古賀小春 tachibana arisu sakurai momoka ichihara nina ryuuzaki kaoru akagi miria yuuki haru matoba risa sasaki chie koharu koga satou amina terui haruka kuno misaki haruse natusmi kurosawa tomoyo koichi makoto tamegai hana imai asaka komori yuri 佐藤亜美菜 照井春佳 久野美咲 春瀬なつみ 黒沢ともよ 小市眞琴 集貝はな 今井麻夏 小森結梨 nana abe takekii takeki loli
BeatmapID:4117087
BeatmapSetID:1982463

[Difficulty]
HPDrainRate:6
CircleSize:4.2
OverallDifficulty:9.1
ApproachRate:9.5
SliderMultiplier:1.74
SliderTickRate:1

[Events]
//Background and Video events
Video,54,"yorimichi.mp4"
0,0,"arisu mommy heart_eyes_cat heart_eyes_cat heart_eyes_cat.jpg",0,0
//Break Periods
//Storyboard Layer 0 (Background)
//Storyboard Layer 1 (Fail)
//Storyboard Layer 2 (Pass)
//Storyboard Layer 3 (Foreground)
//Storyboard Layer 4 (Overlay)
//Storyboard Sound Samples

[TimingPoints]
98,317.460317460317,4,2,1,70,1,0
24224,-111.111111111111,4,2,1,60,0,0
44542,-102.981330259974,4,2,1,70,0,0
45177,-87.8155320230928,4,2,1,70,0,0
45812,-75.0368575195353,4,2,1,70,0,0
47082,-80,4,2,1,85,0,1
47875,-90.9090909090909,4,2,1,85,0,1
67399,-80,4,2,1,85,0,1
68193,-90.9090909090909,4,2,1,85,0,1
80574,-86.2068965517241,4,2,1,85,0,1
80732,-90.9090909090909,4,2,1,85,0,1
86605,-54.8846650181661,4,2,1,85,0,1
87082,-73.2747304149326,4,2,1,85,0,1
87717,-174.915962335574,4,2,1,70,0,0
87796,-174.915962335574,4,2,2,5,0,0
88828,-174.915962335574,4,2,1,5,0,0

[Colours]
Combo1 : 128,128,255
Combo2 : 149,202,255
Combo3 : 255,170,191

[HitObjects]
256,192,2637,12,0,3431,3:0:0:0:
310,329,3590,5,0,1:0:0:0:
383,267,3748,1,0,3:0:0:0:
294,235,3907,2,0,P|258:189|285:97,1,130.5,4|0,2:1|2:0,2:0:0:0:
330,81,4224,2,0,L|433:108,1,87,2|0,1:0|2:0,2:0:0:0:
183,148,4542,5,2,3:2:0:0:
165,34,4701,1,0,3:0:0:0:
132,212,4859,1,2,1:2:0:0:
268,158,5018,1,0,2:0:0:0:
97,298,5177,6,0,P|37:240|59:160,1,174,2|0,3:0|1:0,2:0:0:0:
173,318,5653,2,0,L|278:300,1,87,2|0,2:0|3:0,2:0:0:0:
453,226,5971,2,0,L|348:244,1,87,2|0,3:0|1:0,2:0:0:0:
269,138,6288,1,0,2:0:0:0:
320,350,6447,1,2,3:1:0:0:
320,350,6764,5,2,1:2:0:0:
183,216,6923,1,0,2:0:0:0:
349,165,7082,1,2,3:2:0:0:
111,238,7240,5,0,3:0:0:0:
281,129,7399,2,0,L|264:242,1,87,2|0,1:2|2:0,2:0:0:0:
98,81,7717,6,0,P|181:92|246:38,1,174,2|0,3:0|1:0,2:0:0:0:
80,160,8193,2,0,L|-13:179,1,87,2|0,2:0|3:0,2:0:0:0:
217,187,8510,2,0,P|231:142|216:98,1,87,2|0,3:0|1:0,2:0:0:0:
162,21,8828,1,2,2:0:0:0:
178,267,8986,6,0,B|221:280|221:280|373:235,1,174,2|2,3:1|1:2,2:0:0:0:
258,354,9463,1,0,2:0:0:0:
426,278,9621,5,2,3:2:0:0:
260,177,9780,1,0,3:0:0:0:
341,339,9939,5,2,1:2:0:0:
309,111,10097,1,0,2:0:0:0:
117,199,10256,1,2,3:0:0:0:
117,199,10574,5,0,1:0:0:0:
366,163,10732,2,0,L|428:158,2,43.5,2|0|0,2:0|2:0|3:0,2:0:0:0:
201,230,11050,1,2,2:0:0:0:
201,230,11209,1,0,1:0:0:0:
233,82,11367,1,2,3:2:0:0:
139,296,11526,6,0,P|77:298|31:180,1,174,2|0,3:1|1:0,2:0:0:0:
215,158,12002,1,0,2:0:0:0:
246,323,12161,1,2,3:0:0:0:
151,219,12320,1,0,3:0:0:0:
331,181,12478,1,0,1:0:0:0:
116,130,12637,1,0,2:0:0:0:
170,340,12796,5,2,3:0:0:0:
291,248,12955,1,0,2:0:0:0:
151,219,13113,1,0,1:0:0:0:
327,84,13272,1,0,2:0:0:0:
363,296,13431,5,2,3:2:0:0:
215,145,13590,1,0,1:0:0:0:
458,209,13748,2,0,L|472:112,1,87,0|0,1:0|3:0,2:0:0:0:
470,122,14066,6,0,L|485:301,1,174,2|0,3:1|1:0,2:0:0:0:
292,355,14542,1,0,2:0:0:0:
212,197,14701,2,0,P|223:149|254:117,1,87,2|0,3:0|2:0,2:0:0:0:
148,260,15018,2,0,L|38:243,1,87,0|0,1:0|2:0,2:0:0:0:
294,187,15336,6,0,L|404:170,1,87,2|0,3:0|2:0,2:0:0:0:
146,136,15653,1,2,1:2:0:0:
228,287,15812,1,0,2:0:0:0:
80,325,15971,1,2,3:2:0:0:
219,178,16129,5,0,2:0:0:0:
219,178,16209,1,0,2:0:0:0:
219,178,16288,1,2,1:2:0:0:
256,362,16447,1,0,2:0:0:0:
317,155,16605,2,0,L|339:61,1,87,2|0,3:1|2:0,2:0:0:0:
375,234,16923,5,2,1:2:0:0:
246,108,17082,1,0,2:0:0:0:
113,236,17240,2,0,P|112:282|130:320,1,87,2|0,3:0|3:0,2:0:0:0:
63,144,17558,2,0,P|28:174|11:212,1,87,2|0,1:2|2:0,2:0:0:0:
252,354,17875,6,0,B|280:234|280:234|260:182,1,174,2|0,3:0|1:0,2:0:0:0:
382,303,18351,2,0,L|412:341,2,43.5,2|0|0,2:0|2:0|3:0,2:0:0:0:
193,250,18669,1,2,2:0:0:0:
352,197,18828,1,0,1:0:0:0:
140,132,18986,1,2,2:0:0:0:
352,197,19145,6,0,B|462:174|462:174|435:151|391:150,1,174,2|0,3:1|1:0,2:0:0:0:
246,150,19621,1,2,2:0:0:0:
287,280,19780,1,0,3:0:0:0:
319,99,19939,1,0,3:0:0:0:
136,174,20097,1,0,1:0:0:0:
286,27,20256,1,0,2:0:0:0:
198,291,20415,1,2,3:0:0:0:
198,291,20732,5,0,1:0:0:0:
218,119,20891,1,2,2:0:0:0:
56,164,21050,1,0,3:0:0:0:
318,225,21209,1,2,3:0:0:0:
318,225,21288,1,0,3:0:0:0:
318,225,21367,1,0,1:0:0:0:
162,218,21526,1,0,3:0:0:0:
353,127,21685,6,0,L|447:149,1,87,4|0,2:0|2:0,2:0:0:0:
162,105,22002,2,0,P|152:58|167:18,1,87,0|0,1:0|2:0,2:0:0:0:
355,48,22320,5,0,3:0:0:0:
237,174,22478,1,0,3:0:0:0:
439,239,22637,1,0,1:0:0:0:
171,235,22796,6,0,B|47:268|47:268|88:318,1,174,4|0,2:1|3:0,2:0:0:0:
267,311,23272,1,0,1:0:0:0:
127,156,23431,1,0,3:0:0:0:
322,131,23590,1,0,1:0:0:0:
192,247,23748,1,8,3:0:0:0:
231,52,23907,1,4,3:0:0:0:
46,148,24066,1,0,3:0:0:0:
289,178,24224,6,0,L|382:164,1,78.3000000000001,4|0,2:0|2:0,2:0:0:0:
512,112,24542,2,0,L|419:126,1,78.3000000000001,0|0,2:0|3:0,2:0:0:0:
206,140,24859,2,0,P|182:99|197:24,1,117.45,0|0,2:0|2:0,2:0:0:0:
177,160,25177,2,0,L|161:250,1,78.3000000000001,0|0,1:0|2:0,2:0:0:0:
350,369,25494,6,0,P|381:303|333:247,1,156.6,2|0,3:0|2:0,2:0:0:0:
226,297,25971,1,0,3:0:0:0:
101,258,26129,2,0,P|137:214|194:215,1,117.45,2|0,2:0|2:0,2:0:0:0:
251,261,26447,2,0,L|236:353,1,78.3000000000001,0|0,1:0|2:0,2:0:0:0:
288,78,26764,6,0,L|273:170,1,78.3000000000001,2|0,3:0|2:0,2:0:0:0:
144,114,27082,2,0,P|140:70|153:32,1,78.3000000000001,0|0,2:0|3:0,2:0:0:0:
396,33,27399,2,0,P|419:83|351:82,1,117.45,0|0,2:0|2:0,2:0:0:0:
372,102,27717,2,0,L|468:88,1,78.3000000000001,0|0,1:0|2:0,2:0:0:0:
260,213,28034,6,0,L|77:194,1,156.6,2|0,3:2|2:0,2:0:0:0:
220,312,28510,2,0,L|323:295,1,78.3000000000001,0|0,3:2|2:0,2:0:0:0:
437,256,28828,1,2,2:0:0:0:
437,256,28986,2,0,P|385:254|355:234,1,78.3000000000001,0|0,1:0|3:0,2:0:0:0:
65,157,29304,6,0,P|133:187|146:262,1,156.6,2|0,3:0|2:0,2:0:0:0:
85,325,29780,1,0,2:0:0:0:
225,240,29939,2,0,L|331:264,1,78.3000000000001,0|0,2:0|2:0,2:0:0:0:
97,182,30256,2,0,L|-9:158,1,78.3000000000001,0|0,1:0|2:0,2:0:0:0:
246,138,30574,6,0,P|269:97|266:53,1,78.3000000000001,2|0,3:2|2:0,2:0:0:0:
269,66,30891,2,0,P|293:106|332:125,1,78.3000000000001,0|2,2:0|3:2,2:0:0:0:
441,222,31209,2,0,L|338:207,1,78.3000000000001,0|0,2:0|2:0,2:0:0:0:
126,276,31526,2,0,L|203:287,1,78.3000000000001,0|0,1:0|2:0,2:0:0:0:
334,290,31844,6,0,P|276:240|285:166,1,156.6,2|0,3:2|2:0,2:0:0:0:
187,258,32320,2,0,L|98:278,1,78.3000000000001,0|0,3:0|2:0,2:0:0:0:
37,215,32637,1,0,2:0:0:0:
197,147,32796,1,0,1:0:0:0:
223,328,32955,1,0,2:0:0:0:
135,95,33113,5,0,2:0:0:0:
135,95,33272,2,0,P|114:135|120:180,1,78.3000000000001,0|2,1:0|2:3,2:0:0:0:
291,76,33590,1,0,3:0:0:0:
379,227,33748,5,0,1:0:0:0:
379,227,33907,1,8,3:0:0:0:
379,227,34066,1,8,3:0:0:0:
379,227,34224,1,0,3:0:0:0:
379,227,34383,2,0,L|390:139,1,78.3000000000001,4|0,2:0|2:0,2:0:0:0:
425,7,34701,6,0,P|417:44|428:81,1,78.3000000000001,2|0,2:0|3:0,2:0:0:0:
448,317,35018,2,0,P|472:276|457:201,1,117.45,0|0,2:0|2:0,2:0:0:0:
376,305,35336,2,0,L|286:289,1,78.3000000000001,2|0,1:2|2:0,2:0:0:0:
27,233,35653,6,0,B|59:228|84:217|84:217|125:225|125:225|151:215|184:212,1,156.599995220947,2|0,3:0|2:0,2:0:0:0:
291,156,36129,1,0,2:0:0:0:
268,366,36288,2,0,P|224:330|225:273,1,117.45,2|0,2:0|2:0,2:0:0:0:
224,273,36605,2,0,L|134:257,1,78.3000000000001,0|0,1:0|2:0,2:0:0:0:
378,205,36923,6,0,L|468:189,1,78.3000000000001,2|2,3:0|2:0,2:0:0:0:
302,122,37240,1,0,2:0:0:0:
218,200,37399,1,0,3:0:0:0:
119,148,37558,2,0,P|108:98|123:57,1,78.3000000000001,2|0,2:0|2:0,2:0:0:0:
162,272,37875,2,0,P|173:322|158:363,1,78.3000000000001,0|0,1:0|2:0,2:0:0:0:
8,204,38193,6,0,B|56:215|56:215|190:181,1,156.6,2|0,3:0|2:0,2:0:0:0:
309,241,38669,2,0,L|326:138,1,78.3000000000001,2|0,3:2|2:0,2:0:0:0:
243,80,38986,1,0,2:0:0:0:
232,250,39145,1,0,1:0:0:0:
406,202,39304,1,0,2:0:0:0:
151,115,39463,1,2,3:0:0:0:
151,115,39780,5,2,2:0:0:0:
305,145,39939,1,0,3:0:0:0:
100,185,40097,2,0,L|11:197,1,78.3000000000001,0|0,2:0|2:0,2:0:0:0:
233,95,40415,2,0,P|245:52|233:10,1,78.3000000000001,2|0,1:3|2:0,2:0:0:0:
264,250,40732,5,8,3:0:0:0:
145,102,40891,1,8,3:0:0:0:
166,296,41050,2,0,L|173:376,1,78.3000000000001,4|0,3:0|2:0,2:0:0:0:
207,190,41367,5,4,3:0:0:0:
82,299,41526,1,4,3:0:0:0:
59,135,41685,1,4,3:0:0:0:
198,305,41844,1,0,3:0:0:0:
323,132,42002,1,4,2:0:0:0:
256,192,42161,12,0,43431,2:0:0:0:
392,338,44542,22,1,B|419:338|419:338|403:317|403:317|411:287|411:287|384:297|384:297|360:280|360:280|361:309|361:309|338:326|338:326|365:335|365:335|373:359,1,253.443997413037,4|0,2:0|2:0,2:0:0:0:
138,273,45177,22,1,B|106:273|106:273|125:248|125:248|116:213|116:213|147:225|147:225|175:205|175:205|174:239|174:239|201:259|201:259|170:269|170:269|160:298,1,297.213936973433,4|0,2:1|2:0,2:0:0:0:
377,169,45812,22,1,B|414:169|414:169|392:140|392:140|403:99|403:99|366:113|366:113|334:90|334:90|335:129|335:129|303:153|303:153|340:164|340:164|351:198,1,347.829065112502,4|0,2:0|2:0,2:0:0:0:
69,124,46447,5,0,1:0:0:0:
94,87,46526,5,0,1:0:0:0:
85,44,46605,5,0,1:0:0:0:
126,58,46685,5,0,1:0:0:0:
164,36,46764,5,0,1:0:0:0:
163,79,46844,5,0,1:0:0:0:
195,109,46923,5,0,1:0:0:0:
154,122,47002,5,0,1:0:0:0:
135,160,47082,6,0,B|143:217|143:217|193:188,1,108.75,4|0,3:1|2:0,2:0:0:0:
334,94,47399,5,0,1:0:0:0:
406,295,47558,1,2,2:0:0:0:
276,176,47717,1,2,3:0:0:0:
482,193,47875,2,0,L|366:216,1,95.7,2|0,3:2|1:0,2:0:0:0:
184,332,48193,5,2,3:0:0:0:
184,332,48272,1,0,2:0:0:0:
184,332,48351,1,0,2:0:0:0:
285,274,48510,1,0,3:0:0:0:
58,234,48669,5,2,1:2:0:0:
311,279,48828,1,0,2:0:0:0:
191,216,48986,2,0,L|180:105,1,95.7,2|0,3:2|3:0,2:0:0:0:
450,82,49304,2,0,P|410:106|363:105,1,95.7,2|0,1:2|2:0,2:0:0:0:
127,36,49621,6,0,P|43:60|62:145,1,191.4,2|0,3:1|1:0,2:0:0:0:
257,52,50097,1,0,2:0:0:0:
284,243,50256,1,2,3:0:0:0:
192,137,50415,1,0,3:0:0:0:
374,237,50574,1,0,1:2:0:0:
186,317,50732,1,2,3:0:0:0:
374,237,50891,6,0,L|503:272,1,95.7,2|0,2:0|3:0,2:0:0:0:
308,124,51209,1,0,1:0:0:0:
212,339,51367,2,0,P|158:335|119:307,1,95.7,2|0,2:0|3:0,2:0:0:0:
128,187,51685,2,0,P|168:162|215:160,1,95.7,2|0,3:2|1:0,2:0:0:0:
54,247,52002,1,2,2:0:0:0:
293,218,52161,6,0,B|315:174|315:174|302:125,1,95.7,2|0,3:1|2:0,2:0:0:0:
171,49,52478,1,0,1:0:0:0:
224,250,52637,1,2,2:0:0:0:
426,139,52796,1,2,3:0:0:0:
145,179,52955,2,0,L|31:197,1,95.7,2|0,3:2|1:0,2:0:0:0:
232,140,53272,5,2,3:0:0:0:
232,140,53351,1,0,2:0:0:0:
232,140,53431,1,0,2:0:0:0:
146,285,53590,1,0,3:0:0:0:
387,363,53748,6,0,P|406:317|394:265,1,95.7,2|0,1:2|2:0,2:0:0:0:
235,219,54066,2,0,P|222:263|260:262,1,95.7,2|0,3:2|3:0,2:0:0:0:
466,186,54383,2,0,P|431:149|379:138,1,95.7,2|0,1:2|2:0,2:0:0:0:
138,207,54701,5,2,3:1:0:0:
335,231,54859,1,0,2:0:0:0:
224,124,55018,1,0,1:0:0:0:
335,231,55177,5,2,2:0:0:0:
121,113,55336,1,2,3:0:0:0:
341,42,55494,1,0,3:0:0:0:
222,358,55653,5,2,1:2:0:0:
222,358,55812,2,0,P|239:269|164:219,1,191.4,2|0,3:0|3:0,2:0:0:0:
41,346,56288,2,0,L|159:326,1,95.7,0|0,1:0|2:0,2:0:0:0:
357,287,56605,1,2,3:2:0:0:
194,230,56764,1,0,2:0:0:0:
373,150,56923,1,2,1:2:0:0:
217,91,57082,1,0,1:0:0:0:
217,91,57161,1,0,1:0:0:0:
217,91,57240,2,0,P|161:93|138:179,1,143.55,4|0,3:2|2:0,2:0:0:0:
133,166,57558,2,0,L|110:53,1,95.7,0|0,1:0|2:0,2:0:0:0:
166,334,57875,5,2,3:2:0:0:
290,109,58034,1,0,3:0:0:0:
39,174,58193,1,2,1:2:0:0:
256,319,58351,1,0,2:0:0:0:
377,112,58510,6,0,P|347:38|225:66,1,191.4,2|0,3:0|1:0,2:0:0:0:
342,252,58986,1,0,2:0:0:0:
483,149,59145,1,2,2:0:0:0:
326,346,59304,5,0,3:0:0:0:
246,108,59463,1,2,1:2:0:0:
421,203,59621,1,0,2:0:0:0:
215,228,59780,2,0,L|108:212,1,95.7,2|0,3:1|2:0,2:0:0:0:
329,174,60097,5,0,1:0:0:0:
183,319,60256,1,2,2:0:0:0:
126,79,60415,1,0,3:0:0:0:
183,319,60574,1,2,3:0:0:0:
421,203,60732,1,0,1:0:0:0:
234,192,60891,6,0,L|221:124,2,47.85,2|0|2,2:0|2:0|3:0,2:0:0:0:
301,313,61209,1,0,2:0:0:0:
364,123,61367,2,0,P|348:83|312:105,1,95.7,2|0,1:2|2:0,2:0:0:0:
395,242,61685,2,0,L|494:260,1,95.7000029205323,2|0,3:2|3:0,2:0:0:0:
219,153,62002,2,0,L|117:136,1,95.7,2|0,1:2|2:0,2:0:0:0:
181,358,62320,6,0,P|242:353|282:228,1,191.4,2|0,3:1|1:0,2:0:0:0:
61,97,62796,2,0,P|47:146|66:189,1,95.7,2|0,2:0|3:0,2:0:0:0:
261,70,63113,2,0,P|225:33|178:28,1,95.7,2|0,3:0|1:0,2:0:0:0:
280,169,63431,6,0,L|332:156,2,47.85,2|0|2,2:0|2:0|3:0,2:0:0:0:
170,187,63748,1,0,3:0:0:0:
408,142,63907,1,0,1:0:0:0:
189,312,64066,6,0,P|229:273|227:221,1,95.7,2|0,2:0|3:0,2:0:0:0:
89,194,64383,1,0,3:0:0:0:
319,235,64542,1,2,1:3:0:0:
321,35,64701,1,0,2:0:0:0:
324,315,64859,5,4,2:0:0:0:
205,108,65018,1,0,2:0:0:0:
239,357,65177,1,0,1:0:0:0:
391,91,65336,1,0,2:0:0:0:
154,174,65494,5,2,3:2:0:0:
490,232,65653,1,0,3:0:0:0:
283,82,65812,1,0,1:0:0:0:
212,356,65971,1,0,2:0:0:0:
205,38,66129,5,4,2:0:0:0:
310,332,66288,1,0,3:0:0:0:
380,68,66447,5,0,1:0:0:0:
138,310,66605,1,0,3:0:0:0:
195,15,66764,5,12,3:0:0:0:
329,348,66923,1,0,3:0:0:0:
367,357,67002,1,0,1:0:0:0:
406,366,67082,1,0,1:0:0:0:
421,348,67161,1,0,1:0:0:0:
414,309,67240,1,0,1:0:0:0:
407,270,67320,1,0,1:0:0:0:
400,231,67399,2,0,L|274:250,1,108.75,4|0,3:1|2:0,2:0:0:0:
69,251,67717,5,0,1:0:0:0:
266,320,67875,1,2,2:0:0:0:
287,119,68034,1,2,3:0:0:0:
181,210,68193,2,0,P|159:162|173:106,1,95.7,2|0,3:2|1:0,2:0:0:0:
384,123,68510,5,2,3:0:0:0:
384,123,68590,1,0,2:0:0:0:
384,123,68669,1,0,2:0:0:0:
228,31,68828,1,0,3:0:0:0:
184,289,68986,5,2,1:2:0:0:
269,165,69145,1,0,2:0:0:0:
58,116,69304,2,0,L|47:227,1,95.7,2|0,3:2|3:0,2:0:0:0:
233,345,69621,2,0,L|222:234,1,95.7,2|0,1:2|2:0,2:0:0:0:
381,146,69939,6,0,P|467:175|473:265,1,191.4,2|0,3:1|1:0,2:0:0:0:
273,139,70415,1,0,2:0:0:0:
224,294,70574,1,2,3:0:0:0:
374,237,70732,1,0,3:0:0:0:
161,176,70891,1,0,1:2:0:0:
374,237,71050,1,2,3:0:0:0:
132,285,71209,6,0,L|3:320,1,95.7,2|0,2:0|3:0,2:0:0:0:
201,102,71526,1,0,1:0:0:0:
274,304,71685,2,0,P|297:262|298:215,1,95.7,2|0,2:0|3:0,2:0:0:0:
117,177,72002,2,0,L|9:205,1,95.7,2|0,3:2|1:0,2:0:0:0:
161,37,72320,1,2,2:0:0:0:
340,142,72478,6,0,L|448:170,1,95.7,2|0,3:1|2:0,2:0:0:0:
213,178,72796,1,0,1:0:0:0:
384,77,72955,1,2,2:0:0:0:
179,188,73113,1,2,3:0:0:0:
339,318,73272,2,0,P|367:276|354:209,1,95.7,2|0,3:2|1:0,2:0:0:0:
218,324,73590,5,2,3:0:0:0:
218,324,73669,1,0,2:0:0:0:
218,324,73748,1,0,2:0:0:0:
441,277,73907,1,0,3:0:0:0:
156,245,74066,2,0,L|52:231,1,95.7,2|0,1:2|2:0,2:0:0:0:
364,216,74383,6,0,L|270:201,1,95.7,2|0,3:2|3:0,2:0:0:0:
151,112,74701,2,0,L|57:97,1,95.7,2|0,1:2|2:0,2:0:0:0:
291,86,75018,5,2,3:1:0:0:
164,213,75177,1,0,2:0:0:0:
160,37,75336,1,0,1:0:0:0:
309,174,75494,1,2,2:0:0:0:
86,171,75653,5,2,3:0:0:0:
338,283,75812,1,0,3:0:0:0:
371,39,75971,1,2,1:2:0:0:
279,337,76129,6,0,P|368:354|418:279,1,191.4,4|0,3:1|3:0,2:0:0:0:
196,310,76605,2,0,L|78:290,1,95.7,0|0,1:0|2:0,2:0:0:0:
45,163,76923,1,2,3:2:0:0:
219,231,77082,1,0,2:0:0:0:
273,54,77240,1,2,1:2:0:0:
311,279,77399,1,0,1:0:0:0:
311,279,77478,1,0,1:0:0:0:
311,279,77558,2,0,P|367:277|390:191,1,143.55,4|0,3:2|2:0,2:0:0:0:
395,204,77875,2,0,L|418:317,1,95.7,0|0,1:0|2:0,2:0:0:0:
362,72,78193,5,2,3:2:0:0:
228,288,78351,1,0,3:0:0:0:
472,235,78510,1,2,1:2:0:0:
222,128,78669,1,0,2:0:0:0:
233,370,78828,6,0,L|37:331,1,191.4,2|0,3:0|1:0,2:0:0:0:
19,184,79304,1,0,2:0:0:0:
168,267,79463,1,2,2:0:0:0:
271,81,79621,5,0,3:0:0:0:
168,267,79780,1,2,1:2:0:0:
114,37,79939,1,0,2:0:0:0:
359,147,80097,2,0,L|466:131,1,95.7,2|0,3:1|2:0,2:0:0:0:
263,33,80415,5,0,1:0:0:0:
301,242,80574,2,0,P|337:267|393:268,1,100.920003079834,2|0,2:0|3:0,2:0:0:0:
457,193,80891,5,2,3:0:0:0:
231,110,81050,1,0,1:0:0:0:
252,322,81209,2,0,L|264:387,2,47.85,4|0|0,3:1|2:0|2:0,2:0:0:0:
226,204,81526,5,0,3:0:0:0:
92,278,81685,1,0,1:0:0:0:
346,196,81844,1,2,3:2:0:0:
108,115,82002,5,2,3:0:0:0:
435,201,82161,1,0,1:0:0:0:
435,201,82240,1,0,1:0:0:0:
435,201,82320,1,0,3:0:0:0:
243,27,82478,5,0,3:0:0:0:
238,342,82637,2,0,L|269:135,1,191.4,4|0,2:0|1:0,2:0:0:0:
129,277,83113,2,0,P|72:277|27:157,1,191.4,0|0,3:0|2:0,2:0:0:0:
171,86,83590,2,0,L|185:199,1,95.7,0|0,1:0|2:0,2:0:0:0:
347,279,83907,6,0,L|496:255,1,143.55,4|0,3:1|2:0,2:0:0:0:
488,256,84224,2,0,P|448:219|386:211,1,95.7,0|0,1:0|2:0,2:0:0:0:
205,259,84542,5,0,3:0:0:0:
413,116,84701,1,0,1:0:0:0:
305,327,84859,1,0,1:0:0:0:
301,61,85018,1,0,3:0:0:0:
82,183,85177,5,0,1:0:0:0:
381,280,85336,1,0,2:0:0:0:
161,144,85494,1,0,3:0:0:0:
390,39,85653,5,4,3:0:0:0:
237,300,85812,1,0,3:0:0:0:
169,52,85971,5,8,3:0:0:0:
193,359,86129,1,0,1:0:0:0:
461,207,86288,1,4,2:0:0:0:
356,241,86605,22,1,B|373:241|373:241|363:228|363:228|368:209|368:209|351:215|351:215|336:205|336:205|337:223|337:223|322:234|322:234|339:239|339:239|344:254,1,158.514222453952,0|0,2:0|2:0,2:0:0:0:
191,209,87082,22,1,B|203:186|203:186|192:162|192:162|219:168|219:168|237:149|237:149|242:176|242:176|265:188|265:188|239:202|239:202|235:226|235:226|217:207,1,237.462502336202,0|0,2:0|2:0,2:0:0:0:
98,215,87717,22,1,B|117:246|117:246|81:243|81:243|52:274|52:274|44:235|44:235|8:220|8:220|41:200|41:200|45:160|45:160|74:186|74:186|108:177,1,348.167195188076,2|0,2:0|2:0,2:0:0:0:
