osu file format v14

[General]
AudioFilename: audio.ogg
AudioLeadIn: 0
PreviewTime: 46403
Countdown: 0
SampleSet: Soft
StackLeniency: 0.7
Mode: 0
LetterboxInBreaks: 0
WidescreenStoryboard: 1

[Editor]
DistanceSpacing: 1
BeatDivisor: 4
GridSize: 8
TimelineZoom: 2

[Metadata]
Title:Yorimichi Little Star (TV Size)
TitleUnicode:よりみちリトルスター (TV Size)
Artist:U149
ArtistUnicode:U149
Creator:Kohno Marika
Version:Normal
Source:アイドルマスター シンデレラガールズ U149
Tags:anime ending ed japanese pop jpop j-pop idol project u149 the idolm@ster imas idolmaster im@s cinderella girls 橘ありす 櫻井桃華 赤城みりあ 的場梨沙 結城晴 佐々木千枝 龍崎薫 市原仁奈 古賀小春 tachibana arisu sakurai momoka ichihara nina ryuuzaki kaoru akagi miria yuuki haru matoba risa sasaki chie koharu koga satou amina terui haruka kuno misaki haruse natusmi kurosawa tomoyo koichi makoto tamegai hana imai asaka komori yuri 佐藤亜美菜 照井春佳 久野美咲 春瀬なつみ 黒沢ともよ 小市眞琴 集貝はな 今井麻夏 小森結梨 matsuyuki ame rk657 -yua cclemon nana abe takekii takeki usaha poyoyo
BeatmapID:4115309
BeatmapSetID:1980628

[Difficulty]
HPDrainRate:3
CircleSize:3.4
OverallDifficulty:4
ApproachRate:5.5
SliderMultiplier:1.1
SliderTickRate:1

[Events]
//Background and Video events
0,0,"bg.jpg",0,0
Video,954,"yorimichi.mp4"
//Break Periods
//Storyboard Layer 0 (Background)
//Storyboard Layer 1 (Fail)
//Storyboard Layer 2 (Pass)
//Storyboard Layer 3 (Foreground)
//Storyboard Layer 4 (Overlay)
//Storyboard Sound Samples

[TimingPoints]
2047,317.460317460317,4,2,1,40,1,0
5539,-100,4,2,1,70,0,0
26173,-111.111111111111,4,2,1,60,0,0
46491,-111.111111111111,4,2,1,70,0,0
49031,-111.111111111111,4,2,1,85,0,1
49348,-100,4,2,1,85,0,1
59189,-100,4,2,1,85,0,0
69348,-100,4,2,1,85,0,1
79507,-100,4,2,1,85,0,0
89666,-100,4,2,1,70,0,0

[Colours]
Combo1 : 255,128,0
Combo2 : 235,247,134
Combo3 : 128,64,0
Combo4 : 0,157,39

[HitObjects]
18,152,5539,5,0,1:0:0:0:
44,45,5856,2,0,P|89:25|137:66,1,110,4|2,2:1|1:0,2:0:0:0:
165,110,6332,1,0,2:0:0:0:
165,110,6491,2,0,L|294:124,1,110,2|2,3:2|1:2,2:0:0:0:
375,77,7126,2,0,P|420:111|416:172,1,110,2|0,3:0|1:0,2:0:0:0:
458,202,7602,2,0,P|423:247|362:243,1,110,2|2,2:0|3:0,2:0:0:0:
321,234,8078,2,0,L|327:301,1,55,0|0,1:0|2:0,2:0:0:0:
331,343,8396,1,2,3:1:0:0:
229,302,8713,6,0,L|158:294,1,55,2|0,1:2|2:0,2:0:0:0:
132,332,9031,2,0,L|70:338,2,55,2|0|2,3:2|3:0|1:2,2:0:0:0:
99,226,9666,2,0,P|74:174|105:122,1,110,2|0,3:0|1:0,2:0:0:0:
69,80,10142,2,0,P|121:55|173:86,1,110,2|2,2:0|3:0,2:0:0:0:
209,108,10618,2,0,L|264:102,1,55,0|2,1:0|2:0,2:0:0:0:
306,67,10935,1,2,3:1:0:0:
412,39,11253,6,0,L|421:97,1,55,2|0,1:2|2:0,2:0:0:0:
460,131,11570,2,0,P|478:181|433:232,1,110,2|2,3:2|1:2,2:0:0:0:
345,186,12205,2,0,P|293:185|244:242,1,110,2|0,3:0|1:0,2:0:0:0:
215,264,12681,2,0,P|166:232|97:240,2,110,2|2|2,2:0|2:0|3:2,2:0:0:0:
248,308,13475,1,2,3:1:0:0:
155,367,13793,6,0,P|123:363|96:333,1,55,0|0,1:0|2:0,2:0:0:0:
73,304,14110,2,0,P|48:314|21:310,2,55,2|0|0,3:0|3:0|1:0,2:0:0:0:
117,203,14745,2,0,P|161:160|263:189,1,165,2|0,3:0|2:0,2:0:0:0:
298,213,15380,2,0,L|357:205,1,55,2|0,3:2|1:0,2:0:0:0:
396,238,15697,2,0,L|388:297,2,55,0|0|2,1:0|3:0|3:1,2:0:0:0:
474,161,16332,6,0,L|466:102,1,55,2|0,1:2|2:0,2:0:0:0:
438,58,16650,2,0,P|385:37|331:75,1,110,2|0,3:0|1:0,2:0:0:0:
252,126,17285,1,2,3:0:0:0:
169,53,17602,2,0,L|160:-12,2,55,2|0|2,1:2|2:0|3:2,2:0:0:0:
121,81,18078,2,0,P|94:131|118:179,1,110,0|0,3:0|3:0,2:0:0:0:
158,208,18554,1,2,3:1:0:0:
64,266,18872,6,0,P|72:298|58:334,1,55,2|0,1:2|2:0,2:0:0:0:
47,370,19189,2,0,P|101:353|167:353,1,110,2|2,3:0|1:2,2:0:0:0:
262,372,19824,2,0,L|276:251,1,110,2|0,3:0|1:0,2:0:0:0:
280,207,20300,1,2,2:0:0:0:
365,276,20618,1,2,2:0:0:0:
470,244,20935,5,2,2:0:0:0:
470,244,21094,2,0,P|489:192|460:140,1,110,2|0,3:1|1:0,2:0:0:0:
425,109,21570,2,0,L|308:92,1,110,2|0,2:0|3:0,2:0:0:0:
267,119,22046,1,0,1:0:0:0:
173,61,22364,2,0,P|142:106|155:161,1,110,2|0,3:0|1:0,2:0:0:0:
195,191,22840,2,0,P|214:244|188:302,1,110,2|2,2:0|3:0,2:0:0:0:
158,331,23316,2,0,L|89:322,2,55,0|0|4,1:0|3:0|2:0,2:0:0:0:
264,359,23951,5,0,1:0:0:0:
337,276,24269,2,0,L|329:212,2,55,0|0|0,3:0|3:0|1:0,2:0:0:0:
375,314,24745,2,0,P|429:310|458:244,1,110,4|0,2:1|3:0,2:0:0:0:
477,215,25221,1,0,1:0:0:0:
447,108,25539,2,0,P|418:95|377:106,1,55,0|8,1:0|3:0,2:0:0:0:
350,64,25856,2,0,P|320:75|300:111,1,55,4|0,3:0|3:0,2:0:0:0:
266,121,26173,6,0,L|283:272,1,148.5,4|0,2:0|3:0,2:0:0:0:
286,318,26808,1,2,2:0:0:0:
204,374,27126,2,0,L|139:365,1,49.5000000000001,0|0,1:0|3:0,2:0:0:0:
111,342,27443,2,0,P|83:276|103:243,1,99.0000000000001,2|0,3:0|2:0,2:0:0:0:
129,223,27920,1,0,3:0:0:0:
253,142,28396,2,0,L|248:86,1,49.5000000000001,0|0,1:0|2:0,2:0:0:0:
266,46,28713,6,0,L|325:33,2,49.5000000000001,2|0|0,3:0|2:0|2:0,2:0:0:0:
173,11,29348,2,0,P|124:43|70:39,1,99.0000000000001,2|0,2:0|1:0,2:0:0:0:
53,137,29983,2,0,P|97:146|134:184,1,99.0000000000001,2|0,3:0|2:0,2:0:0:0:
154,228,30459,1,2,3:2:0:0:
283,155,30935,2,0,L|341:166,1,49.5000000000001,0|0,1:0|3:0,2:0:0:0:
380,174,31253,6,0,P|405:216|389:278,1,99.0000000000001,2|0,3:0|2:0,2:0:0:0:
374,307,31729,1,0,3:0:0:0:
374,307,31888,2,0,P|321:302|269:332,1,99.0000000000001,0|0,2:0|1:0,2:0:0:0:
192,366,32523,2,0,L|85:349,1,99.0000000000001,2|0,3:2|2:0,2:0:0:0:
33,272,33158,2,0,L|140:255,1,99.0000000000001,2|0,2:0|1:0,2:0:0:0:
201,186,33793,6,0,P|214:115|157:61,1,148.5,2|0,3:2|3:0,2:0:0:0:
120,42,34427,1,2,2:0:0:0:
33,90,34745,2,0,L|43:155,1,49.5000000000001,0|0,1:0|2:0,2:0:0:0:
79,170,35062,2,0,L|69:235,2,49.5000000000001,0|0|2,2:0|1:0|2:3,2:0:0:0:
163,118,35697,2,0,L|223:129,1,49.5000000000001,0|8,1:0|3:0,2:0:0:0:
241,166,36015,2,0,L|301:155,1,49.5000000000001,8|0,3:0|3:0,2:0:0:0:
329,127,36332,6,0,P|407:128|453:195,1,148.5,4|0,2:0|3:0,2:0:0:0:
458,227,36967,1,2,2:0:0:0:
448,325,37285,1,0,1:2:0:0:
356,288,37602,2,0,B|302:297|302:297|277:320|277:320|211:332,1,148.5,2|0,3:0|3:0,2:0:0:0:
181,363,38237,2,0,P|127:368|87:336,1,99.0000000000001,2|0,2:0|1:0,2:0:0:0:
61,254,38872,5,2,3:0:0:0:
61,254,39031,2,0,L|4:247,2,49.5000000000001,0|2|0,2:0|2:0|3:0,2:0:0:0:
105,231,39507,2,0,P|123:185|96:138,1,99.0000000000001,2|0,2:0|1:0,2:0:0:0:
79,46,40142,2,0,B|147:20|167:81|230:42,1,148.5,2|2,3:0|3:2,2:0:0:0:
268,26,40777,2,0,P|296:70|272:114,1,99.0000000000001,2|0,2:0|1:0,2:0:0:0:
223,191,41412,5,2,3:0:0:0:
312,233,41729,2,0,L|317:297,1,49.5000000000001,2|0,2:0|3:0,2:0:0:0:
324,331,42046,2,0,P|367:339|413:305,1,99.0000000000001,2|2,2:0|1:3,2:0:0:0:
425,211,42681,2,0,P|450:199|483:202,2,49.5000000000001,8|8|4,3:0|3:0|3:0,2:0:0:0:
342,155,43316,2,0,P|339:129|358:100,1,49.5000000000001,4|4,3:0|3:0,2:0:0:0:
326,65,43634,2,0,P|340:46|363:37,1,49.5000000000001,4|0,3:0|3:0,2:0:0:0:
413,45,43951,1,4,2:0:0:0:
256,192,44269,12,2,45221,2:0:0:0:
459,135,46491,6,1,P|408:57|304:68,2,198,4|4|4,2:1|2:0|2:1,2:0:0:0:
413,327,48396,1,0,1:0:0:0:
323,285,48713,2,0,L|314:223,1,49.5000000000001,0|0,1:0|1:0,2:0:0:0:
307,181,49031,5,4,3:1:0:0:
248,87,49348,2,0,P|269:71|316:75,2,55,0|2|2,1:0|2:0|3:0,2:0:0:0:
213,129,49824,2,0,L|151:120,1,55,2|0,3:2|1:0,2:0:0:0:
108,144,50142,2,0,P|69:186|81:238,1,110,2|0,3:0|3:0,2:0:0:0:
114,274,50618,1,2,1:2:0:0:
198,344,50935,2,0,L|261:337,1,55,2|0,3:2|3:0,2:0:0:0:
296,303,51253,2,0,L|303:240,1,55,2|0,1:2|2:0,2:0:0:0:
348,219,51570,6,0,P|429:192|443:111,1,165,2|0,3:1|2:0,2:0:0:0:
422,71,52205,1,2,3:0:0:0:
321,25,52523,1,0,1:2:0:0:
321,25,52681,2,0,B|255:36|255:36|232:57|232:57|153:70,1,165,2|0,3:0|1:0,2:0:0:0:
124,104,53316,2,0,L|133:172,1,55,2|0,2:0|3:0,2:0:0:0:
94,199,53634,2,0,L|25:190,2,55,2|0|2,3:2|1:0|2:0,2:0:0:0:
116,249,54110,1,2,3:1:0:0:
219,284,54427,6,0,L|210:350,2,55,0|2|2,1:0|2:0|3:0,2:0:0:0:
255,242,54904,1,2,3:2:0:0:
332,319,55221,2,0,B|377:328|377:328|390:343|390:343|435:352,1,110,2|0,3:0|3:0,2:0:0:0:
486,337,55697,1,2,1:2:0:0:
432,240,56015,2,0,L|441:170,1,55,2|0,3:2|3:0,2:0:0:0:
480,149,56332,2,0,L|471:79,1,55,2|0,1:2|2:0,2:0:0:0:
495,43,56650,6,0,P|415:15|350:82,1,165,2|2,3:1|2:0,2:0:0:0:
341,112,57285,2,0,P|285:127|238:80,1,110,2|2,3:0|1:2,2:0:0:0:
198,69,57761,2,0,L|182:184,1,110,2|0,3:0|3:0,2:0:0:0:
174,232,58237,1,0,1:0:0:0:
201,338,58554,6,0,P|177:357|139:356,1,55,2|2,3:2|2:0,2:0:0:0:
108,326,58872,2,0,P|77:322|51:294,1,55,2|0,1:2|1:0,2:0:0:0:
27,262,59189,2,0,L|13:137,1,110,4|0,3:2|1:0,2:0:0:0:
66,55,59824,2,0,B|126:48|111:90|176:86,1,110,2|2,3:2|1:2,2:0:0:0:
216,60,60300,1,0,2:0:0:0:
216,60,60459,2,0,P|238:114|193:172,1,110,2|0,3:0|1:0,2:0:0:0:
158,250,61094,6,0,P|132:235|98:240,2,55,2|0|2,2:0|3:0|1:2,2:0:0:0:
195,290,61570,1,0,2:0:0:0:
195,290,61729,2,0,L|314:277,1,110,2|0,3:1|1:0,2:0:0:0:
346,313,62205,2,0,L|359:194,1,110,2|2,2:0|3:0,2:0:0:0:
410,106,62840,2,0,B|389:97|371:74|371:74|325:122|253:119,1,165,2|2,2:0|1:2,2:0:0:0:
169,74,63634,1,2,3:2:0:0:
258,10,63951,1,2,1:2:0:0:
270,119,64269,6,0,L|280:235,1,110,2|0,3:1|1:0,2:0:0:0:
283,283,64745,1,2,2:0:0:0:
195,349,65062,1,2,2:3:0:0:
88,320,65380,2,0,P|63:266|99:213,1,110,2|0,2:0|3:0,2:0:0:0:
128,191,65856,1,0,1:0:0:0:
128,191,66015,2,0,P|184:195|215:252,1,110,2|2,2:0|2:0,2:0:0:0:
242,282,66491,2,0,L|304:290,1,55,2|0,1:3|2:0,2:0:0:0:
335,328,66808,5,4,2:0:0:0:
435,282,67126,2,0,L|422:221,1,55,0|0,1:0|2:0,2:0:0:0:
448,179,67443,2,0,P|392:184|348:128,1,110,2|0,3:2|1:0,2:0:0:0:
330,106,67920,1,0,2:0:0:0:
330,106,68078,1,4,2:0:0:0:
410,31,68396,2,0,L|421:84,1,55,0|0,1:0|3:0,2:0:0:0:
460,125,68713,2,0,L|448:178,1,55,12|0,3:0|3:0,2:0:0:0:
407,216,69031,2,0,L|418:269,1,55,0|0,1:0|1:0,2:0:0:0:
432,323,69348,5,4,3:1:0:0:
326,342,69666,2,0,P|302:323|267:323,1,55,0|2,1:0|2:0,2:0:0:0:
254,277,69983,1,2,3:0:0:0:
254,277,70142,2,0,P|223:280|198:305,1,55,2|0,3:2|1:0,2:0:0:0:
176,342,70459,2,0,P|122:355|70:312,1,110,2|0,3:0|3:0,2:0:0:0:
48,280,70935,1,2,1:2:0:0:
128,205,71253,6,0,L|134:145,1,55,2|0,3:2|3:0,2:0:0:0:
88,118,71570,2,0,L|82:58,1,55,2|0,1:2|2:0,2:0:0:0:
115,18,71888,2,0,P|197:6|236:78,1,165,2|0,3:1|2:0,2:0:0:0:
233,122,72523,1,2,3:0:0:0:
325,190,72840,1,0,1:2:0:0:
325,190,72999,2,0,P|400:187|431:111,1,165,2|0,3:0|1:0,2:0:0:0:
406,62,73634,2,0,L|344:50,1,55,2|0,2:0|3:0,2:0:0:0:
296,52,73951,2,0,L|281:-16,2,55,2|0|2,3:2|1:0|2:0,2:0:0:0:
258,96,74427,1,2,3:1:0:0:
158,142,74745,6,0,P|130:128|91:132,2,55,0|2|2,1:0|2:0|3:0,2:0:0:0:
185,192,75221,2,0,L|192:265,1,55,2|0,3:2|1:0,2:0:0:0:
195,301,75539,2,0,P|240:337|290:325,1,110,2|0,3:0|3:0,2:0:0:0:
333,296,76015,1,2,1:2:0:0:
419,228,76332,6,0,P|397:220|376:189,1,55,2|0,3:2|3:0,2:0:0:0:
323,195,76650,2,0,P|313:175|319:137,1,55,2|0,1:2|2:0,2:0:0:0:
274,108,76967,2,0,P|285:42|383:40,1,165,2|2,3:1|2:0,2:0:0:0:
417,59,77602,2,0,L|407:131,1,55,2|0,3:0|3:0,2:0:0:0:
447,161,77920,1,2,1:2:0:0:
447,161,78078,2,0,L|466:279,1,110,4|0,3:1|3:0,2:0:0:0:
459,324,78554,1,0,1:0:0:0:
361,373,78872,6,0,L|293:361,1,55,2|0,3:2|2:0,2:0:0:0:
269,323,79189,2,0,L|281:255,1,55,2|0,1:2|1:0,2:0:0:0:
253,219,79507,2,0,P|207:187|151:222,1,110,4|0,3:2|1:0,2:0:0:0:
62,253,80142,2,0,P|43:222|54:192,1,55,2|0,3:2|3:0,2:0:0:0:
78,159,80459,2,0,P|94:137|93:110,1,55,2|0,1:2|2:0,2:0:0:0:
80,56,80777,2,0,B|127:51|127:51|142:62|142:62|196:56,1,110,2|0,3:0|1:0,2:0:0:0:
288,16,81412,6,0,P|279:75|274:140,1,110,2|2,2:0|1:2,2:0:0:0:
303,171,81888,1,2,2:0:0:0:
303,171,82046,2,0,P|355:159|400:214,1,110,2|0,3:1|1:0,2:0:0:0:
447,173,82523,2,0,P|483:212|458:278,1,110,2|2,2:0|3:0,2:0:0:0:
440,307,82999,1,0,1:0:0:0:
440,307,83158,1,4,3:1:0:0:
339,350,83475,2,0,P|313:335|275:339,1,55,0|0,3:0|1:0,2:0:0:0:
240,357,83793,1,2,3:2:0:0:
240,357,83951,2,0,L|226:239,1,110,2|0,3:0|3:0,2:0:0:0:
324,195,84586,6,0,P|378:180|395:120,1,110,4|0,2:0|1:0,2:0:0:0:
378,81,85062,2,0,P|349:32|287:31,1,110,0|0,3:0|2:0,2:0:0:0:
255,59,85539,2,0,L|190:68,1,55,0|0,1:0|3:0,2:0:0:0:
156,99,85856,1,4,3:1:0:0:
49,71,86173,1,0,1:0:0:0:
77,177,86491,6,0,L|88:250,1,55,0|0,3:0|1:0,2:0:0:0:
132,259,86808,2,0,L|121:332,1,55,0|0,1:0|3:0,2:0:0:0:
116,368,87126,1,0,1:0:0:0:
221,339,87443,2,0,P|248:332|280:344,1,55,0|4,3:0|3:0,2:0:0:0:
327,366,87761,1,0,3:0:0:0:
327,366,87920,2,0,P|354:362|380:340,1,55,8|0,3:0|1:0,2:0:0:0:
397,294,88237,1,4,2:0:0:0:
256,192,88396,12,2,89666,2:0:0:0:
