osu file format v14

[General]
AudioFilename: audio.ogg
AudioLeadIn: 0
PreviewTime: 46403
Countdown: 0
SampleSet: Soft
StackLeniency: 0.5
Mode: 0
LetterboxInBreaks: 0
WidescreenStoryboard: 1

[Editor]
DistanceSpacing: 1.3
BeatDivisor: 4
GridSize: 8
TimelineZoom: 2

[Metadata]
Title:Yorimichi Little Star (TV Size)
TitleUnicode:よりみちリトルスター (TV Size)
Artist:U149
ArtistUnicode:U149
Creator:Kohno Marika
Version:Ame's Hard
Source:アイドルマスター シンデレラガールズ U149
Tags:anime ending ed japanese pop jpop j-pop idol project u149 the idolm@ster imas idolmaster im@s cinderella girls 橘ありす 櫻井桃華 赤城みりあ 的場梨沙 結城晴 佐々木千枝 龍崎薫 市原仁奈 古賀小春 tachibana arisu sakurai momoka ichihara nina ryuuzaki kaoru akagi miria yuuki haru matoba risa sasaki chie koharu koga satou amina terui haruka kuno misaki haruse natusmi kurosawa tomoyo koichi makoto tamegai hana imai asaka komori yuri 佐藤亜美菜 照井春佳 久野美咲 春瀬なつみ 黒沢ともよ 小市眞琴 集貝はな 今井麻夏 小森結梨 matsuyuki ame rk657 -yua cclemon nana abe takekii takeki usaha poyoyo
BeatmapID:4147534
BeatmapSetID:1980628

[Difficulty]
HPDrainRate:4
CircleSize:3.8
OverallDifficulty:6.5
ApproachRate:8
SliderMultiplier:1.4
SliderTickRate:1

[Events]
//Background and Video events
0,0,"bg.jpg",0,0
Video,954,"yorimichi.mp4"
//Break Periods
//Storyboard Layer 0 (Background)
//Storyboard Layer 1 (Fail)
//Storyboard Layer 2 (Pass)
//Storyboard Layer 3 (Foreground)
//Storyboard Layer 4 (Overlay)
//Storyboard Sound Samples

[TimingPoints]
2047,317.460317460317,4,2,1,40,1,0
5380,-100,4,2,1,70,0,0
5539,-111.111111111111,4,2,1,70,0,0
26173,-125,4,2,1,60,0,0
43951,-166.666666666667,4,2,1,60,0,0
46491,-125,4,2,1,70,0,0
48396,-100,4,2,1,70,0,0
49031,-90.9090909090909,4,2,1,85,0,1
59189,-90.9090909090909,4,2,1,85,0,0
69348,-90.9090909090909,4,2,1,85,0,1
79507,-90.9090909090909,4,2,1,85,0,0
88237,-125,4,2,1,85,0,0
89666,-125,4,2,1,70,0,0
90777,-125,4,2,1,5,0,0

[Colours]
Combo1 : 255,128,0
Combo2 : 235,247,134
Combo3 : 128,64,0
Combo4 : 0,157,39

[HitObjects]
256,192,2047,12,2,4586,2:0:0:0:
203,104,5380,5,0,3:0:0:0:
203,104,5539,2,0,P|214:145|218:181,1,63.0000000000001,0|0,1:0|3:0,2:0:0:0:
192,260,5856,6,0,B|270:278|259:237|342:260,1,126,4|2,2:1|1:0,2:0:0:0:
389,313,6332,1,0,2:0:0:0:
389,313,6491,2,0,P|431:303|470:301,1,63.0000000000001,2|0,3:2|3:0,2:0:0:0:
505,236,6808,2,0,P|497:191|470:165,1,63.0000000000001,2|0,1:2|2:0,2:0:0:0:
429,95,7126,6,0,P|386:131|299:117,1,126,2|0,3:0|1:0,2:0:0:0:
226,134,7602,2,0,P|233:89|238:53,1,63.0000000000001,2|0,2:0|3:0,2:0:0:0:
154,13,7920,2,0,P|146:57|139:95,1,63.0000000000001,2|0,3:0|1:0,2:0:0:0:
71,128,8237,1,0,2:0:0:0:
107,219,8396,6,0,P|98:287|129:346,1,126,2|2,3:1|1:2,2:0:0:0:
209,378,8872,1,0,2:0:0:0:
209,378,9031,2,0,L|220:301,1,63.0000000000001,2|0,3:2|3:0,2:0:0:0:
290,264,9348,2,0,P|325:276|377:274,1,63.0000000000001,2|0,1:2|2:0,2:0:0:0:
458,304,9666,6,0,P|466:235|434:176,1,126,2|0,3:0|1:0,2:0:0:0:
450,90,10142,2,0,P|414:98|363:105,1,63.0000000000001,2|0,2:0|3:0,2:0:0:0:
329,34,10459,2,0,P|294:38|259:46,1,63.0000000000001,2|0,3:0|1:0,2:0:0:0:
193,91,10777,1,2,2:0:0:0:
255,165,10935,6,0,B|265:233|230:217|250:306,1,126,2|2,3:1|1:2,2:0:0:0:
204,376,11412,1,0,2:0:0:0:
204,376,11570,2,0,P|166:366|116:361,1,63.0000000000001,2|0,3:2|3:0,2:0:0:0:
53,381,11888,2,0,P|47:339|36:305,1,63.0000000000001,2|0,1:2|2:0,2:0:0:0:
0,218,12205,6,0,P|65:222|110:159,1,126,2|0,3:0|1:0,2:0:0:0:
71,97,12681,2,0,L|-12:84,1,63.0000000000001,2|0,2:0|3:0,2:0:0:0:
83,5,12999,2,0,L|149:16,1,63.0000000000001,2|0,2:0|1:0,2:0:0:0:
232,4,13316,1,2,3:2:0:0:
207,101,13475,6,0,B|280:86|265:123|347:104,1,126,2|0,3:1|1:0,2:0:0:0:
415,63,13951,1,0,2:0:0:0:
415,63,14110,2,0,P|406:27|404:-8,2,63.0000000000001,2|0|0,3:0|3:0|1:0,2:0:0:0:
328,204,14745,2,0,P|345:280|350:357,1,126,2|0,3:0|1:0,2:0:0:0:
458,379,15221,1,0,2:0:0:0:
458,379,15380,2,0,P|450:334|448:300,1,63.0000000000001,2|0,3:2|1:0,2:0:0:0:
470,228,15697,1,0,1:0:0:0:
305,191,16015,6,0,P|251:212|167:201,1,126,2|2,3:1|1:2,2:0:0:0:
93,184,16491,1,0,2:0:0:0:
93,184,16650,2,0,P|100:223|106:253,1,63.0000000000001,2|0,3:0|2:0,2:0:0:0:
17,290,16967,2,0,P|10:255|3:219,1,63.0000000000001,0|0,1:0|2:0,2:0:0:0:
0,131,17285,6,0,B|71:108|48:84|113:64,1,126,2|2,3:0|1:2,2:0:0:0:
188,12,17761,1,0,2:0:0:0:
188,12,17920,1,2,3:2:0:0:
250,74,18078,2,0,P|228:136|243:214,1,126,0|0,2:0|3:0,2:0:0:0:
281,305,18554,6,0,B|331:292|331:292|363:300|363:300|423:286,1,126,2|2,3:1|1:2,2:0:0:0:
512,321,19031,1,0,2:0:0:0:
512,321,19189,2,0,L|495:242,1,63.0000000000001,2|0,3:0|3:0,2:0:0:0:
418,211,19507,2,0,L|401:134,1,63.0000000000001,2|0,1:2|2:0,2:0:0:0:
455,50,19824,6,0,P|395:62|322:24,1,126,2|0,3:0|1:0,2:0:0:0:
233,0,20300,2,0,P|243:43|243:79,1,63.0000000000001,2|0,2:0|3:0,2:0:0:0:
311,123,20618,2,0,P|313:157|322:190,1,63.0000000000001,2|0,2:0|1:0,2:0:0:0:
301,272,20935,1,2,2:0:0:0:
217,331,21094,6,0,B|148:319|155:353|76:337,1,126,2|0,3:1|1:0,2:0:0:0:
10,291,21570,2,0,P|0:252|44:159,1,126,2|0,2:0|3:0,2:0:0:0:
89,104,22046,1,0,1:0:0:0:
229,6,22364,2,0,P|233:52|241:88,1,63.0000000000001,2|0,3:0|2:0,2:0:0:0:
242,161,22681,1,0,1:0:0:0:
242,161,22840,2,0,P|279:152|313:148,1,63.0000000000001,2|0,2:0|3:0,2:0:0:0:
372,80,23158,2,0,P|436:72|495:133,1,126,2|0,3:0|3:0,2:0:0:0:
506,211,23634,6,0,B|525:278|485:265|510:355,2,126,4|0|0,2:0|1:0|3:0,2:0:0:0:
420,168,24427,1,0,3:0:0:0:
420,168,24586,1,0,1:0:0:0:
351,241,24745,2,0,P|310:270|218:253,1,126,4|0,2:1|3:0,2:0:0:0:
134,217,25221,2,0,P|142:261|146:289,1,63.0000000000001,0|0,1:0|3:0,2:0:0:0:
91,364,25539,1,0,1:0:0:0:
91,364,25697,1,8,3:0:0:0:
14,345,25856,2,0,P|5:300|3:272,1,63.0000000000001,4|0,3:0|3:0,2:0:0:0:
34,171,26173,6,0,P|96:178|163:88,1,168,4|0,2:0|3:0,2:0:0:0:
146,31,26808,1,2,2:0:0:0:
273,104,27126,1,0,1:0:0:0:
377,3,27443,2,0,L|395:120,1,112,2|0,3:0|2:0,2:0:0:0:
462,154,27920,2,0,L|480:271,1,112,0|0,3:0|2:0,2:0:0:0:
430,331,28396,1,0,1:0:0:0:
288,362,28713,6,0,B|204:336|214:389|112:364,1,168,2|0,3:0|3:0,2:0:0:0:
47,344,29348,1,2,2:0:0:0:
0,205,29666,1,0,1:0:0:0:
124,129,29983,2,0,P|117:61|107:6,1,112,2|0,3:2|2:0,2:0:0:0:
194,2,30459,2,0,P|201:70|211:125,1,112,0|2,3:2|2:0,2:0:0:0:
178,183,30935,1,0,1:0:0:0:
262,301,31253,6,0,P|327:286|379:280,1,112,2|2,3:0|2:0,2:0:0:0:
451,271,31729,1,0,3:0:0:0:
451,271,31888,1,2,2:0:0:0:
507,137,32205,1,0,1:0:0:0:
397,40,32523,2,0,P|405:102|414:160,1,112,2|0,3:2|2:0,2:0:0:0:
277,205,33158,2,0,P|269:149|262:94,1,112,2|0,2:0|1:0,2:0:0:0:
142,10,33793,6,0,P|75:11|24:108,1,168,2|0,3:2|3:0,2:0:0:0:
15,166,34427,1,2,2:0:0:0:
144,232,34745,1,0,1:0:0:0:
58,349,35062,2,0,L|128:334,1,56,0|0,2:0|1:0,2:0:0:0:
181,380,35380,2,0,P|247:364|296:358,1,112,2|0,2:3|1:0,2:0:0:0:
355,307,35856,1,8,3:0:0:0:
355,307,36015,2,0,P|345:270|342:235,1,56,8|0,3:0|3:0,2:0:0:0:
286,177,36332,6,0,P|355:212|451:189,1,168,4|0,2:0|3:0,2:0:0:0:
497,138,36967,1,2,2:0:0:0:
434,6,37285,1,0,1:2:0:0:
296,52,37602,2,0,B|248:23|248:23|194:39,1,112,2|0,3:0|2:0,2:0:0:0:
114,20,38078,2,0,L|134:153,1,112,2|0,3:2|3:2,2:0:0:0:
145,209,38554,1,0,1:0:0:0:
66,332,38872,6,0,B|173:357|147:301|246:324,1,168,2|0,3:0|3:2,2:0:0:0:
308,310,39507,1,2,2:0:0:0:
433,383,39824,1,0,1:0:0:0:
503,255,40142,2,0,P|513:183|493:145,1,112,2|0,3:0|2:0,2:0:0:0:
444,92,40618,2,0,L|321:111,1,112,2|0,3:2|2:0,2:0:0:0:
258,125,41094,1,0,1:0:0:0:
136,44,41412,6,0,P|68:43|26:79,1,112,2|2,3:0|2:0,2:0:0:0:
0,140,41888,1,0,3:2:0:0:
0,140,42046,1,2,2:0:0:0:
113,231,42364,1,2,1:3:0:0:
78,372,42681,2,0,P|114:363|142:359,1,56,8|8,3:0|3:0,2:0:0:0:
182,295,42999,2,0,P|253:281|306:266,1,112,4|4,3:0|3:0,2:0:0:0:
373,315,43475,1,4,3:0:0:0:
373,315,43634,2,0,P|364:353|361:376,1,56,4|0,3:0|3:0,2:0:0:0:
463,376,43951,6,0,P|510:286|373:131,1,335.999999999999,4|2,2:0|2:0,2:0:0:0:
237,18,46491,6,1,P|178:22|143:118,1,168,4|0,2:1|2:0,2:0:0:0:
188,191,47126,2,0,B|275:169|254:218|360:190,1,168,4|0,2:0|2:0,2:0:0:0:
417,263,47761,2,0,P|398:340|321:358,1,168,4|0,2:1|2:0,2:0:0:0:
236,383,48396,2,0,P|231:344|220:301,1,70,0|0,1:0|1:0,2:0:0:0:
222,298,48634,1,0,1:0:0:0:
222,298,48713,2,0,L|214:248,2,35,0|0|0,1:0|1:0|1:0,2:0:0:0:
136,352,49031,6,0,B|34:369|34:369|3:325,1,154,4|0,3:1|1:0,2:0:0:0:
28,227,49507,1,2,2:0:0:0:
127,262,49666,1,2,3:0:0:0:
127,262,49824,2,0,P|133:212|141:182,1,77,2|0,3:2|1:0,2:0:0:0:
75,93,50142,6,0,P|151:100|203:18,1,154,2|0,3:0|3:0,2:0:0:0:
281,0,50618,2,0,P|286:46|296:86,1,77,2|0,1:2|2:0,2:0:0:0:
366,151,50935,1,2,3:2:0:0:
366,151,51094,1,0,3:0:0:0:
451,105,51253,2,0,P|474:144|461:219,1,115.5,2|0,1:2|2:0,2:0:0:0:
459,233,51570,6,0,B|381:255|394:210|302:238,1,154,2|0,3:1|1:0,2:0:0:0:
220,205,52046,1,0,2:0:0:0:
181,285,52205,2,0,P|194:324|196:361,1,77,2|0,3:0|3:0,2:0:0:0:
293,375,52523,1,0,1:2:0:0:
377,328,52681,6,0,P|364:256|356:160,1,154,2|0,3:0|3:0,2:0:0:0:
426,114,53158,2,0,B|466:121|466:121|499:102,1,77,0|2,1:0|2:0,2:0:0:0:
430,19,53475,1,0,3:0:0:0:
346,64,53634,2,0,P|309:72|261:75,1,77,2|0,3:2|1:0,2:0:0:0:
183,20,53951,1,2,2:0:0:0:
183,20,54031,1,2,2:0:0:0:
183,20,54110,6,0,B|196:97|148:69|180:178,1,154,2|0,3:1|1:0,2:0:0:0:
109,245,54586,1,2,2:0:0:0:
14,225,54745,1,2,3:0:0:0:
14,225,54904,2,0,P|23:266|27:305,1,77,2|0,3:2|1:0,2:0:0:0:
111,374,55221,6,0,B|190:351|180:384|270:355,1,154,2|0,3:0|3:0,2:0:0:0:
355,369,55697,2,0,P|343:325|339:292,1,77,2|0,1:2|2:0,2:0:0:0:
260,252,56015,1,2,3:2:0:0:
260,252,56173,1,0,3:0:0:0:
308,159,56332,2,0,P|381:178|438:166,1,115.5,2|0,1:2|2:0,2:0:0:0:
439,164,56650,6,0,B|424:110|424:110|439:77|439:77|422:12,1,154,2|0,3:1|1:0,2:0:0:0:
328,3,57126,1,2,2:0:0:0:
255,78,57285,2,0,B|220:60|220:60|177:70,1,77,2|0,3:0|3:0,2:0:0:0:
109,111,57602,1,2,1:2:0:0:
0,63,57761,6,0,P|20:141|23:225,1,154,2|0,3:0|3:0,2:0:0:0:
87,273,58237,2,0,P|134:259|174:256,1,77,0|0,1:0|2:0,2:0:0:0:
255,218,58554,1,2,3:2:0:0:
239,309,58713,1,2,2:0:0:0:
327,337,58872,2,0,P|365:332|401:320,1,77,2|0,1:2|1:0,2:0:0:0:
413,314,59110,1,0,1:0:0:0:
425,308,59189,6,0,P|408:212|454:152,1,154,4|0,3:2|1:0,2:0:0:0:
460,79,59666,1,0,2:0:0:0:
460,79,59824,2,0,L|381:69,1,77,2|0,3:2|3:0,2:0:0:0:
298,36,60142,1,2,1:2:0:0:
298,36,60300,1,0,2:0:0:0:
228,110,60459,6,0,B|143:127|161:78|74:99,1,154,2|0,3:0|1:0,2:0:0:0:
9,169,60935,1,0,2:0:0:0:
9,169,61094,2,0,P|20:216|22:255,1,77,2|0,2:0|3:0,2:0:0:0:
62,335,61412,1,2,1:2:0:0:
62,335,61570,1,0,2:0:0:0:
153,304,61729,6,0,P|222:335|302:317,1,154,2|0,3:1|1:0,2:0:0:0:
325,237,62205,2,0,P|315:196|309:153,1,77,2|0,2:0|3:0,2:0:0:0:
226,126,62523,2,0,P|220:87|210:50,1,77,2|0,3:0|1:0,2:0:0:0:
301,4,62840,6,0,B|387:-7|363:31|459:13,1,154,2|0,2:0|2:0,2:0:0:0:
512,79,63316,2,0,P|501:127|498:166,1,77,2|0,1:2|2:0,2:0:0:0:
433,216,63634,1,2,3:2:0:0:
433,216,63793,1,0,3:0:0:0:
499,300,63951,2,0,P|478:338|399:343,1,115.5,2|0,1:2|2:0,2:0:0:0:
390,343,64269,6,0,B|334:327|334:327|298:341|298:341|230:325,1,154,2|0,3:1|1:0,2:0:0:0:
165,375,64745,2,0,P|161:326|148:288,1,77,2|0,2:0|3:0,2:0:0:0:
74,246,65062,2,0,P|37:259|-12:263,1,77,2|0,3:0|1:0,2:0:0:0:
73,149,65380,1,2,2:0:0:0:
173,193,65539,6,0,B|268:209|242:167|341:188,2,154,2|0|0,3:0|1:0|3:0,2:0:0:0:
50,40,66491,1,2,1:3:0:0:
50,40,66650,1,0,2:0:0:0:
141,0,66808,6,0,B|200:50|200:50|284:16,1,154,4|0,2:0|1:0,2:0:0:0:
369,0,67285,1,0,2:0:0:0:
369,0,67443,2,0,P|418:56|380:137,1,154,2|0,3:2|1:0,2:0:0:0:
322,193,67920,1,0,2:0:0:0:
405,257,68078,6,0,P|448:246|485:241,1,77,4|0,2:0|3:0,2:0:0:0:
446,345,68396,2,0,P|403:356|366:361,1,77,0|0,1:0|3:0,2:0:0:0:
306,290,68713,1,12,3:0:0:0:
218,338,68872,1,0,3:0:0:0:
218,338,68951,1,0,1:0:0:0:
218,338,69031,2,0,L|207:293,3,38.5,0|0|0|0,1:0|1:0|1:0|1:0,2:0:0:0:
204,278,69348,6,0,P|133:298|73:246,1,154,4|0,3:1|1:0,2:0:0:0:
53,151,69824,1,2,2:0:0:0:
148,176,69983,1,2,3:0:0:0:
148,176,70142,2,0,P|192:171|230:161,1,77,2|0,3:2|1:0,2:0:0:0:
317,210,70459,6,0,P|298:116|292:46,1,154,2|0,3:0|3:0,2:0:0:0:
374,0,70935,2,0,P|378:44|386:85,1,77,2|0,1:2|2:0,2:0:0:0:
407,170,71253,1,2,3:2:0:0:
407,170,71412,1,0,3:0:0:0:
492,136,71570,2,0,P|498:173|501:212,1,77,2|0,1:2|2:0,2:0:0:0:
481,314,71888,6,0,B|407:299|414:350|319:324,1,154,2|0,3:1|1:0,2:0:0:0:
246,369,72364,1,0,2:0:0:0:
184,301,72523,2,0,P|185:250|198:223,1,77,2|0,3:0|3:0,2:0:0:0:
258,166,72840,1,0,1:2:0:0:
304,73,72999,6,0,B|250:59|250:59|209:72|209:72|143:58,1,154,2|0,3:0|3:0,2:0:0:0:
63,27,73475,2,0,P|72:68|75:111,1,77,0|2,1:0|2:0,2:0:0:0:
139,171,73793,1,0,3:0:0:0:
75,230,73951,2,0,P|35:221|-7:220,1,77,2|0,3:2|1:0,2:0:0:0:
75,328,74269,1,2,2:0:0:0:
75,328,74348,1,2,2:0:0:0:
75,328,74427,6,0,B|154:306|154:306|173:340|221:349,1,154,2|0,3:1|1:0,2:0:0:0:
302,381,74904,1,2,2:0:0:0:
360,308,75062,1,2,3:0:0:0:
360,308,75221,2,0,P|350:256|345:224,1,77,2|0,3:2|1:0,2:0:0:0:
361,129,75539,6,0,P|431:162|510:149,1,154,2|0,3:0|3:0,2:0:0:0:
510,52,76015,2,0,P|474:61|429:68,1,77,2|0,1:2|2:0,2:0:0:0:
352,15,76332,1,2,3:2:0:0:
352,15,76491,1,0,3:0:0:0:
262,48,76650,2,0,P|271:83|278:129,1,77,2|0,1:2|2:0,2:0:0:0:
194,201,76967,6,0,P|152:130|163:53,1,154,2|0,3:1|1:0,2:0:0:0:
89,0,77443,1,2,2:0:0:0:
3,32,77602,2,0,P|14:77|19:122,1,77,2|0,3:0|3:0,2:0:0:0:
69,178,77920,1,2,1:2:0:0:
0,270,78078,6,0,B|81:285|44:317|136:339,1,154,4|0,3:1|3:0,2:0:0:0:
227,372,78554,2,0,P|220:332|216:293,1,77,0|0,1:0|2:0,2:0:0:0:
269,214,78872,1,2,3:2:0:0:
344,267,79031,1,0,2:0:0:0:
397,192,79189,2,0,P|392:153|386:115,1,77,2|0,1:2|1:0,2:0:0:0:
385,104,79427,1,0,1:0:0:0:
384,89,79507,6,0,P|313:96|234:44,1,154,4|0,3:2|1:0,2:0:0:0:
168,7,79983,1,0,2:0:0:0:
79,21,80142,2,0,P|74:64|88:98,1,77,2|0,3:2|3:0,2:0:0:0:
153,160,80459,1,2,1:2:0:0:
153,160,80618,1,0,2:0:0:0:
55,199,80777,6,0,B|27:249|27:249|69:278|72:338,1,154,2|0,3:0|1:0,2:0:0:0:
147,384,81253,1,0,2:0:0:0:
226,338,81412,2,0,B|260:356|260:356|310:349,1,77,2|0,2:0|3:0,2:0:0:0:
358,290,81729,1,2,1:2:0:0:
358,290,81888,1,2,2:0:0:0:
251,240,82046,6,0,P|242:156|226:84,1,154,2|0,3:1|1:0,2:0:0:0:
275,12,82523,2,0,P|321:6|358:-2,1,77,2|0,2:0|3:0,2:0:0:0:
446,16,82840,1,2,3:0:0:0:
405,99,82999,1,0,1:0:0:0:
494,141,83158,6,0,P|523:188|480:275,1,154,4|0,3:1|3:0,2:0:0:0:
419,336,83634,2,0,P|386:327|341:324,1,77,0|2,1:0|3:2,2:0:0:0:
251,370,83951,1,2,3:0:0:0:
169,322,84110,1,0,1:0:0:0:
169,322,84189,1,0,1:0:0:0:
169,322,84269,2,0,P|182:276|182:234,1,77,0|0,3:0|3:0,2:0:0:0:
151,139,84586,6,0,B|75:125|86:168|-7:144,1,154,4|0,2:0|1:0,2:0:0:0:
5,47,85062,2,0,B|65:-3|65:-3|152:26,1,154,0|0,3:0|2:0,2:0:0:0:
241,20,85539,2,0,P|230:61|230:112,1,77,0|0,1:0|3:0,2:0:0:0:
298,196,85856,6,0,B|354:183|354:183|392:197|392:197|470:180,1,154,4|0,3:1|1:0,2:0:0:0:
511,374,86491,2,0,B|476:357|476:357|416:362,1,77,0|0,3:0|1:0,2:0:0:0:
354,329,86808,1,0,1:0:0:0:
354,329,86967,1,0,3:0:0:0:
252,384,87126,6,0,P|237:344|242:303,1,77,0|0,1:0|3:0,2:0:0:0:
293,235,87443,2,0,P|330:177|313:82,1,154,0|0,3:0|3:0,2:0:0:0:
270,9,87920,1,8,3:0:0:0:
192,56,88078,1,0,1:0:0:0:
105,2,88237,6,0,P|66:54|74:116,1,112,4|0,2:0|2:0,2:0:0:0:
105,187,88713,2,0,P|178:171|240:165,1,112,2|2,2:0|2:0,2:0:0:0:
325,261,89348,1,2,2:0:0:0:
257,382,89666,1,2,2:0:0:0:
256,192,89745,12,0,90777,2:0:0:0:
