osu file format v14

[General]
AudioFilename: audio.mp3
AudioLeadIn: 0
PreviewTime:46667
Countdown: 0
SampleSet: Soft
StackLeniency: 1
Mode: 0
LetterboxInBreaks: 0
WidescreenStoryboard: 1

[Editor]
DistanceSpacing: 1.3
BeatDivisor: 4
GridSize: 8
TimelineZoom: 1

[Metadata]
Title:Shine In The Sky* (TV Size)
TitleUnicode:Shine In The Sky☆ (TV Size)
Artist:U149
ArtistUnicode:U149
Creator:Usaha
Version:Extra
Source:アイドルマスター シンデレラガールズ U149
Tags:japanese pop idol project u149 the idolm@ster imas idolmaster im@s cinderella girls 橘ありす 櫻井桃華 赤城みりあ 的場梨沙 結城晴 佐々木千枝 龍崎薫 市原仁奈 古賀小春 tachibana arisu sakurai momoka ichihara nina ryuuzaki kaoru akagi miria yuuki haru matoba risa sasaki chie koharu koga satou amina terui haruka kuno misaki haruse natusmi kurosawa tomoyo koichi makoto tamegai hana imai asaka komori yuri 佐藤亜美菜 照井春佳 久野美咲 春瀬なつみ 黒沢ともよ 小市眞琴 集貝はな 今井麻夏 小森結梨 nana abe takekii takeki loli yorita yoshino -claris-
BeatmapID:4117080
BeatmapSetID:1982460

[Difficulty]
HPDrainRate:6
CircleSize:4.2
OverallDifficulty:9.1
ApproachRate:9.2
SliderMultiplier:1.8
SliderTickRate:1

[Events]
//Background and Video events
Video,490,"shine in the sky.mp4"
0,0,"arisu.jpg",0,0
//Break Periods
//Storyboard Layer 0 (Background)
//Storyboard Layer 1 (Fail)
//Storyboard Layer 2 (Pass)
//Storyboard Layer 3 (Foreground)
//Storyboard Layer 4 (Overlay)
//Storyboard Sound Samples

[TimingPoints]
770,375,4,2,1,70,1,0
770,-90.9090909090908,4,2,1,70,0,0
6973,352.941176470588,4,2,1,75,1,0
8208,352.941176470588,4,2,1,80,1,0
13855,-111.111111111111,4,2,1,80,0,0
14191,-111.111111111111,4,2,1,70,0,0
25149,-111.111111111111,4,2,1,80,0,0
25325,-100,4,2,1,80,0,0
36443,-100,4,2,1,70,0,0
38737,-111.111111111111,4,2,1,70,0,0
44207,-111.111111111111,4,2,1,80,0,0
46237,-111.111111111111,4,2,1,70,0,0
47737,-90.9090909090909,4,2,1,80,0,0
70325,-76.9230769230769,4,2,1,80,0,0
76325,-90.9090909090909,4,2,1,80,0,0

[Colours]
Combo1 : 255,128,128
Combo2 : 150,186,254
Combo3 : 255,170,191
Combo4 : 128,128,255

[HitObjects]
122,231,770,6,0,L|-6:213,1,99.00000000000011,4|0,3:2|2:0,2:0:0:0:
198,224,1051,2,0,P|227:179|219:126,1,99.00000000000011,0|0,2:0|2:0,2:0:0:0:
138,109,1332,2,0,L|151:171,1,49.500000000000064,0|0,2:0|2:0,2:0:0:0:
291,242,1520,5,2,2:0:0:0:
340,236,1613,1,0,2:0:0:0:
344,255,1707,1,2,2:0:0:0:
393,249,1801,1,0,2:0:0:0:
396,272,1895,1,2,2:0:0:0:
445,266,1988,1,2,2:0:0:0:
449,285,2082,1,2,2:0:0:0:
498,279,2176,1,2,2:0:0:0:
501,298,2270,6,0,L|386:312,1,99.00000000000011,4|0,3:2|2:0,2:0:0:0:
305,271,2551,2,0,P|303:217|352:214,1,99.00000000000011,0|0,2:0|2:0,2:0:0:0:
416,220,2832,2,0,L|426:165,1,49.500000000000064,0|0,2:0|2:0,2:0:0:0:
378,48,3020,5,2,2:0:0:0:
329,42,3113,1,0,2:0:0:0:
325,61,3207,1,2,2:0:0:0:
276,55,3301,1,0,2:0:0:0:
273,78,3395,1,2,2:0:0:0:
224,72,3488,1,2,2:0:0:0:
220,91,3582,1,2,2:0:0:0:
171,85,3676,1,2,2:0:0:0:
166,109,3770,6,0,P|112:109|75:67,1,99.00000000000011,4|0,3:2|3:0,2:0:0:0:
245,111,4051,2,0,L|359:133,1,99.00000000000011,0|0,2:0|2:0,2:0:0:0:
254,185,4332,2,0,L|195:194,1,49.500000000000064,0|0,2:0|2:0,2:0:0:0:
106,295,4520,5,2,2:0:0:0:
107,326,4613,5,0,2:0:0:0:
138,334,4707,5,2,2:0:0:0:
156,306,4801,5,0,2:0:0:0:
135,283,4895,5,2,2:0:0:0:
90,292,4988,5,2,2:0:0:0:
65,252,5082,5,2,2:0:0:0:
97,216,5176,5,2,2:0:0:0:
138,236,5270,6,0,P|181:260|237:244,1,99.00000000000011,4|0,3:2|3:0,2:0:0:0:
371,180,5551,2,0,P|328:204|272:188,1,99.00000000000011,0|0,2:0|2:0,2:0:0:0:
231,144,5832,2,0,L|223:87,1,49.500000000000064,0|0,2:0|2:0,2:0:0:0:
351,34,6020,5,2,2:0:0:0:
370,9,6113,5,0,2:0:0:0:
399,21,6207,5,2,2:0:0:0:
397,54,6301,5,0,2:0:0:0:
367,60,6395,5,2,2:0:0:0:
336,27,6488,5,2,2:0:0:0:
292,44,6582,5,2,2:0:0:0:
297,92,6676,5,2,2:0:0:0:
342,100,6770,6,0,L|389:108,1,49.500000000000064,2|0,2:0|2:0,2:0:0:0:
94,165,6973,5,0,3:0:0:0:
281,238,7149,1,0,1:0:0:0:
142,272,7325,1,0,3:0:0:0:
310,166,7502,1,0,1:0:0:0:
322,361,7678,1,0,1:0:0:0:
200,162,7855,1,0,1:0:0:0:
381,278,8031,1,0,3:0:0:0:
421,51,8208,5,4,3:2:0:0:
320,186,8384,1,0,2:0:0:0:
265,62,8560,1,2,1:0:0:0:
266,274,8737,1,0,2:0:0:0:
431,183,8913,2,0,L|324:160,1,90.00000000000001,2|0,3:0|2:0,2:0:0:0:
257,364,9266,2,0,L|150:341,1,90.00000000000001,0|2,1:0|2:0,2:0:0:0:
101,326,9531,5,2,2:0:0:0:
101,326,9619,1,2,3:0:0:0:
296,258,9796,1,0,2:0:0:0:
96,179,9972,1,2,1:0:0:0:
296,258,10149,1,0,2:0:0:0:
265,62,10325,2,0,L|152:83,1,90.00000000000001,2|0,3:0|2:0,2:0:0:0:
367,176,10678,5,2,1:0:0:0:
411,181,10766,1,2,2:0:0:0:
450,160,10855,1,2,2:0:0:0:
471,121,10943,1,2,2:0:0:0:
467,77,11031,1,4,3:2:0:0:
383,282,11207,1,0,2:0:0:0:
303,69,11384,5,2,1:0:0:0:
285,322,11560,1,0,2:0:0:0:
161,92,11737,5,0,1:0:0:0:
193,350,11913,1,2,2:0:0:0:
195,361,12002,1,2,2:0:0:0:
197,372,12090,1,2,1:0:0:0:
466,253,12266,1,0,3:0:0:0:
170,184,12443,5,2,1:0:0:0:
415,347,12619,1,0,3:0:0:0:
145,308,12796,5,2,1:0:0:0:
471,239,12972,1,0,3:0:0:0:
153,173,13149,6,0,L|45:158,1,90.00000000000001,2|0,1:0|3:0,2:0:0:0:
13,100,13413,1,0,3:0:0:0:
13,100,13502,2,0,P|20:47|57:13,1,90.00000000000001,0|0,1:0|2:0,2:0:0:0:
239,50,13855,6,0,B|210:133|269:116|234:236,1,162.00000000000014,4|0,2:0|1:0,2:0:0:0:
240,208,14560,2,0,P|277:187|317:189,1,81.00000000000007,0|0,3:0|2:0,2:0:0:0:
367,248,14913,1,0,1:0:0:0:
488,133,15090,6,0,P|424:113|426:185,1,162.00000000000014,2|2,2:0|2:0,2:0:0:0:
425,327,15619,1,0,1:0:0:0:
493,288,15796,2,0,P|497:263|487:231,1,40.50000000000004,0|0,2:0|2:0,2:0:0:0:
340,257,15972,2,0,L|248:279,1,81.00000000000007,2|0,3:2|2:0,2:0:0:0:
113,344,16325,2,0,P|47:341|43:244,1,162.00000000000014,2|2,1:2|3:0,2:0:0:0:
30,258,17031,6,0,L|114:238,1,81.00000000000007,0|0,1:0|2:0,2:0:0:0:
195,183,17384,1,2,3:2:0:0:
99,154,17560,1,0,2:0:0:0:
195,183,17737,1,0,1:0:0:0:
194,285,17913,6,0,L|173:371,1,81.00000000000007,2|2,2:0|3:0,2:0:0:0:
290,235,18266,2,0,P|310:190|302:149,1,81.00000000000007,2|0,2:0|1:0,2:0:0:0:
203,99,18619,2,0,L|269:89,1,40.50000000000004,0|0,2:0|2:0,2:0:0:0:
388,75,18796,1,2,3:0:0:0:
277,19,18972,1,2,2:0:0:0:
364,180,19149,2,0,P|419:188|498:98,1,162.00000000000014,2|2,1:0|3:0,2:0:0:0:
142,205,19855,6,0,L|46:215,1,81.00000000000007,0|0,1:0|2:0,2:0:0:0:
230,230,20207,1,2,3:0:0:0:
182,125,20384,1,0,2:0:0:0:
163,283,20560,1,0,1:0:0:0:
312,224,20737,2,0,P|352:224|392:251,1,81.00000000000007,2|2,2:0|3:0,2:0:0:0:
218,215,21090,5,2,2:0:0:0:
343,194,21266,2,0,P|380:208|408:247,1,81.00000000000007,2|0,1:0|2:0,2:0:0:0:
151,308,21619,6,0,P|108:242|132:167,1,162.00000000000014,2|0,3:0|1:0,2:0:0:0:
249,285,22149,1,2,2:0:0:0:
66,231,22325,1,0,3:0:0:0:
249,285,22502,2,0,L|361:313,2,81.00000000000007,2|0|0,2:0|1:0|2:0,2:0:0:0:
144,290,23031,5,2,3:0:0:0:
348,226,23207,1,0,2:0:0:0:
212,155,23384,1,0,1:2:0:0:
426,254,23560,2,0,L|472:267,2,40.50000000000004,2|0|2,2:0|2:0|3:0,2:0:0:0:
225,262,23913,5,2,2:0:0:0:
390,114,24090,1,0,1:0:0:0:
310,328,24266,1,0,2:0:0:0:
117,192,24443,1,2,3:0:0:0:
117,192,24531,1,0,3:0:0:0:
117,192,24619,1,0,3:0:0:0:
296,215,24796,1,2,1:2:0:0:
60,287,24972,1,0,2:0:0:0:
391,221,25149,5,4,3:2:0:0:
211,158,25325,2,0,P|205:107|224:67,1,90.00000000000001,2|0,2:0|1:0,2:0:0:0:
219,72,25855,2,0,L|321:93,1,90.00000000000001,2|0,3:0|2:0,2:0:0:0:
142,96,26207,1,0,1:0:0:0:
363,38,26384,1,2,2:0:0:0:
363,38,26472,1,0,2:0:0:0:
363,38,26560,1,2,3:0:0:0:
361,179,26737,6,0,P|319:209|275:213,1,90.00000000000001,2|0,2:0|1:0,2:0:0:0:
40,209,27090,2,0,P|74:180|118:173,1,90.00000000000001,2|0,2:0|3:0,2:0:0:0:
222,288,27443,1,2,2:0:0:0:
274,118,27619,1,0,1:0:0:0:
400,254,27796,1,2,2:0:0:0:
190,198,27972,6,0,L|244:189,1,45.00000000000001,2|0,3:0|2:0,2:0:0:0:
376,173,28149,2,0,L|322:182,1,45.00000000000001,2|0,2:0|2:0,2:0:0:0:
101,216,28325,2,0,P|80:173|99:113,1,90.00000000000001,2|0,1:0|2:0,2:0:0:0:
248,67,28678,1,2,3:0:0:0:
280,253,28855,1,2,2:0:0:0:
205,164,29031,1,0,1:0:0:0:
435,218,29207,2,0,L|500:230,2,45.00000000000001,2|0|2,2:0|2:0|3:0,2:0:0:0:
283,333,29560,5,2,2:0:0:0:
321,123,29737,1,0,1:0:0:0:
283,333,29913,2,0,P|230:325|200:281,1,90.00000000000001,2|0,2:0|3:0,2:0:0:0:
320,202,30266,1,2,2:0:0:0:
167,225,30443,2,0,P|154:209|201:200,1,90.00000000000001,2|0,1:0|2:0,2:0:0:0:
81,318,30796,6,0,P|36:284|39:168,1,180,4|0,3:2|1:0,2:0:0:0:
193,226,31325,1,0,2:0:0:0:
249,67,31502,1,2,3:0:0:0:
228,310,31678,1,2,2:0:0:0:
151,143,31855,1,0,1:0:0:0:
342,218,32031,1,2,2:0:0:0:
135,285,32207,5,2,3:0:0:0:
425,215,32384,1,0,3:0:0:0:
251,158,32560,1,0,1:0:0:0:
385,352,32737,2,0,L|484:335,1,90.00000000000001,2|0,1:0|3:0,2:0:0:0:
223,240,33090,5,2,3:2:0:0:
348,286,33266,1,0,1:0:0:0:
405,160,33443,1,2,3:2:0:0:
265,349,33619,5,4,3:2:0:0:
164,136,33796,1,0,3:0:0:0:
404,234,33972,1,0,1:0:0:0:
414,24,34149,1,2,2:0:0:0:
239,247,34325,5,2,3:0:0:0:
450,174,34502,1,2,3:0:0:0:
200,100,34678,1,2,1:0:0:0:
238,335,34855,1,2,3:0:0:0:
314,63,35031,5,0,1:0:0:0:
128,333,35207,1,0,1:0:0:0:
167,48,35384,5,0,1:0:0:0:
271,361,35560,1,0,1:0:0:0:
232,152,35913,6,0,L|237:210,1,45.00000000000001,2|0,2:0|2:0,2:0:0:0:
327,293,36090,2,0,L|322:235,1,45.00000000000001,2|0,2:0|2:0,2:0:0:0:
379,109,36266,2,0,L|384:167,1,45.00000000000001,2|0,2:0|2:0,2:0:0:0:
150,231,36443,1,4,2:0:0:0:
143,261,36619,5,0,3:0:0:0:
123,256,36707,1,0,3:0:0:0:
103,251,36796,1,0,1:0:0:0:
83,246,36884,1,0,3:0:0:0:
64,241,36972,1,0,1:0:0:0:
44,237,37060,1,0,3:0:0:0:
24,232,37149,1,0,3:0:0:0:
166,148,37325,1,0,3:0:0:0:
189,311,37502,1,0,1:0:0:0:
100,245,37678,5,0,1:0:0:0:
100,245,37766,1,0,1:0:0:0:
100,245,37855,1,8,3:0:0:0:
287,190,38031,1,4,3:0:0:0:
261,351,38207,1,0,1:0:0:0:
200,224,38384,1,0,1:0:0:0:
200,224,38737,6,0,L|270:215,1,40.50000000000004,2|0,2:0|2:0,2:0:0:0:
368,142,38913,2,0,L|298:151,1,40.50000000000004,2|0,2:0|2:0,2:0:0:0:
180,69,39090,2,0,L|250:60,1,40.50000000000004,2|0,2:0|2:0,2:0:0:0:
337,277,39266,1,4,2:0:0:0:
353,291,39443,5,0,1:0:0:0:
372,285,39531,1,0,1:0:0:0:
391,279,39619,1,0,1:0:0:0:
255,335,39796,1,0,1:0:0:0:
180,243,39972,1,0,3:0:0:0:
169,214,40060,1,0,3:0:0:0:
170,184,40149,1,0,3:0:0:0:
182,156,40237,1,0,3:0:0:0:
203,135,40325,1,0,1:0:0:0:
295,208,40502,5,0,1:0:0:0:
295,208,40590,1,0,1:0:0:0:
295,208,40678,1,0,1:0:0:0:
137,252,40855,1,0,1:0:0:0:
279,120,41031,1,0,1:0:0:0:
266,313,41207,1,0,1:0:0:0:
266,313,41560,6,0,L|259:257,1,40.50000000000004,2|0,2:0|2:0,2:0:0:0:
174,149,41737,2,0,L|179:206,1,40.50000000000004,2|0,2:0|2:0,2:0:0:0:
88,330,41913,2,0,L|84:277,1,40.50000000000004,2|0,2:0|2:0,2:0:0:0:
290,194,42090,1,4,2:0:0:0:
315,205,42266,5,0,3:0:0:0:
340,196,42355,1,0,3:0:0:0:
361,180,42443,1,0,1:0:0:0:
375,157,42531,1,0,3:0:0:0:
379,130,42619,1,0,1:0:0:0:
374,104,42707,1,0,3:0:0:0:
359,81,42796,1,4,3:0:0:0:
318,75,42884,1,4,3:0:0:0:
278,70,42972,1,4,3:0:0:0:
238,65,43060,1,4,3:0:0:0:
198,60,43149,1,4,3:0:0:0:
214,205,43325,5,0,1:0:0:0:
215,237,43413,1,0,1:0:0:0:
199,266,43502,1,4,3:0:0:0:
169,281,43590,1,4,3:0:0:0:
136,277,43678,1,4,3:0:0:0:
111,256,43766,1,4,3:0:0:0:
100,225,43855,1,0,1:0:0:0:
284,188,44031,1,0,1:0:0:0:
223,352,44207,5,2,1:0:0:0:
216,311,44296,1,0,1:0:0:0:
210,271,44384,1,0,1:0:0:0:
240,251,44472,5,2,1:0:0:0:
233,210,44560,1,0,1:0:0:0:
227,170,44649,1,0,1:0:0:0:
249,142,44737,5,2,1:0:0:0:
242,101,44825,1,0,1:0:0:0:
236,60,44913,1,4,1:2:0:0:
399,285,45266,5,0,1:0:0:0:
136,199,45619,5,0,1:0:0:0:
397,115,45796,1,0,1:0:0:0:
236,337,46149,5,0,1:0:0:0:
237,330,46237,5,0,2:0:0:0:
238,323,46325,5,0,2:0:0:0:
239,317,46413,5,0,2:0:0:0:
240,310,46502,5,0,2:0:0:0:
241,303,46590,5,0,2:0:0:0:
242,297,46678,5,0,2:0:0:0:
243,290,46766,5,0,2:0:0:0:
244,283,46855,5,2,2:0:0:0:
246,277,46943,5,0,2:0:0:0:
247,270,47031,5,0,2:0:0:0:
248,263,47119,5,0,2:0:0:0:
249,257,47207,5,2,2:0:0:0:
250,250,47296,5,0,2:0:0:0:
251,243,47384,5,2,2:0:0:0:
252,237,47472,5,0,2:0:0:0:
253,230,47560,5,2,2:0:0:0:
255,223,47649,5,0,2:0:0:0:
256,217,47737,6,0,L|145:226,1,99,4|0,3:2|2:0,2:0:0:0:
373,181,48090,2,0,P|395:126|380:70,1,99,2|0,1:0|2:0,2:0:0:0:
375,315,48443,2,0,P|451:337|510:247,1,198,2|0,3:0|1:0,2:0:0:0:
313,112,48972,1,0,2:0:0:0:
273,308,49149,5,2,3:0:0:0:
423,245,49325,1,2,2:0:0:0:
423,245,49413,1,0,2:0:0:0:
423,245,49502,1,0,1:0:0:0:
192,190,49678,2,0,L|89:167,1,99,2|0,2:0|3:0,2:0:0:0:
288,185,50031,5,2,2:0:0:0:
77,245,50207,1,0,1:0:0:0:
237,77,50384,1,2,2:0:0:0:
272,277,50560,6,0,P|272:329|246:370,1,99,2|0,3:0|2:0,2:0:0:0:
366,219,50913,2,0,L|466:248,1,99,2|0,1:0|2:0,2:0:0:0:
168,226,51266,2,0,P|99:160|124:69,1,198,2|0,3:0|1:0,2:0:0:0:
280,192,51796,1,0,2:0:0:0:
345,31,51972,5,2,3:0:0:0:
198,110,52149,2,0,L|207:168,2,49.5,2|0|0,2:0|2:0|1:0,2:0:0:0:
398,176,52502,5,2,2:0:0:0:
215,241,52678,1,0,3:0:0:0:
195,284,52766,1,0,3:0:0:0:
211,330,52855,1,2,3:2:0:0:
254,351,52943,1,0,3:0:0:0:
300,336,53031,1,2,1:0:0:0:
339,305,53119,1,0,3:0:0:0:
387,300,53207,1,2,3:2:0:0:
431,320,53296,1,0,3:0:0:0:
458,361,53384,2,0,L|360:340,1,99,2|0,3:0|2:0,2:0:0:0:
290,322,53649,5,2,3:2:0:0:
279,319,53737,1,0,1:0:0:0:
475,262,53913,1,0,2:0:0:0:
212,186,54090,2,0,L|199:294,1,99,2|0,3:2|2:0,2:0:0:0:
348,186,54443,1,0,1:0:0:0:
115,118,54619,1,0,2:0:0:0:
450,86,54796,6,0,L|352:107,1,99,2|0,3:0|2:0,2:0:0:0:
282,125,55060,1,2,3:2:0:0:
271,128,55149,1,0,1:0:0:0:
317,295,55325,1,2,2:0:0:0:
202,82,55502,5,2,3:2:0:0:
202,82,55590,1,0,3:0:0:0:
202,82,55678,1,2,3:2:0:0:
385,195,55855,1,2,1:2:0:0:
109,235,56031,1,2,2:0:0:0:
389,304,56207,6,0,L|495:325,1,99,4|0,3:2|2:0,2:0:0:0:
166,230,56560,2,0,L|60:209,1,99,2|0,1:0|2:0,2:0:0:0:
392,177,56913,5,4,3:2:0:0:
189,315,57090,1,0,3:0:0:0:
155,45,57266,1,2,1:0:0:0:
298,223,57443,6,0,L|287:277,2,49.5,4|0|0,2:0|2:0|2:0,2:0:0:0:
332,54,57796,1,0,1:0:0:0:
187,211,57972,1,0,1:0:0:0:
429,274,58149,5,0,3:0:0:0:
119,182,58325,1,0,1:0:0:0:
359,134,58502,1,0,3:0:0:0:
359,134,58590,1,0,3:0:0:0:
359,134,58678,1,0,1:0:0:0:
242,321,58855,1,0,1:0:0:0:
170,106,59031,6,0,L|145:3,1,99,4|0,3:2|2:0,2:0:0:0:
322,144,59384,2,0,P|344:89|329:33,1,99,2|0,1:0|2:0,2:0:0:0:
128,215,59737,2,0,P|45:205|25:96,1,198,2|0,3:0|1:0,2:0:0:0:
214,88,60266,1,0,2:0:0:0:
222,306,60443,5,2,3:0:0:0:
124,132,60619,1,2,2:0:0:0:
124,132,60707,1,0,2:0:0:0:
124,132,60796,1,0,1:0:0:0:
327,230,60972,2,0,L|430:207,1,99,2|0,2:0|3:0,2:0:0:0:
211,194,61325,5,2,2:0:0:0:
389,302,61502,1,0,1:0:0:0:
417,77,61678,1,2,2:0:0:0:
231,270,61855,6,0,P|179:270|138:244,1,99,2|0,3:0|2:0,2:0:0:0:
347,106,62207,2,0,L|320:202,1,99,2|0,1:0|2:0,2:0:0:0:
404,334,62560,2,0,P|473:268|448:177,1,198,2|0,3:0|1:0,2:0:0:0:
218,169,63090,1,0,2:0:0:0:
299,325,63266,5,2,3:0:0:0:
284,120,63443,2,0,L|293:62,2,49.5,2|0|0,2:0|2:0|1:0,2:0:0:0:
69,199,63796,5,2,2:0:0:0:
263,281,63972,1,0,3:0:0:0:
309,270,64060,1,0,3:0:0:0:
335,229,64149,1,2,3:2:0:0:
325,182,64237,1,0,3:0:0:0:
285,155,64325,1,2,1:0:0:0:
237,143,64413,1,0,3:0:0:0:
203,109,64502,1,2,3:2:0:0:
192,62,64590,1,0,3:0:0:0:
207,15,64678,2,0,L|221:126,1,99,4|0,3:2|2:0,2:0:0:0:
227,184,64943,5,2,3:2:0:0:
229,198,65031,1,0,1:0:0:0:
379,81,65207,1,0,2:0:0:0:
118,172,65384,2,0,P|67:171|23:138,1,99,2|0,3:2|2:0,2:0:0:0:
275,75,65737,1,0,1:0:0:0:
316,278,65913,1,0,2:0:0:0:
223,158,66090,5,4,3:2:0:0:
223,158,66178,1,0,3:0:0:0:
223,158,66266,1,0,3:0:0:0:
248,340,66443,1,0,1:0:0:0:
433,242,66619,1,2,2:0:0:0:
157,253,66796,5,4,3:2:0:0:
397,323,66972,1,2,2:0:0:0:
127,357,67149,1,0,1:0:0:0:
392,217,67325,1,2,3:2:0:0:
130,75,67502,5,4,3:2:0:0:
226,330,67678,1,0,3:0:0:0:
330,83,67855,1,0,1:0:0:0:
319,297,68031,1,0,3:0:0:0:
57,179,68207,5,2,1:0:0:0:
378,223,68384,1,0,3:0:0:0:
103,272,68560,6,0,L|49:283,2,49.5,0|0|0,1:0|2:0|2:0,2:0:0:0:
315,161,68913,5,4,3:2:0:0:
315,161,69002,1,0,3:0:0:0:
315,161,69090,1,0,3:0:0:0:
91,101,69266,1,0,1:0:0:0:
302,254,69443,1,0,3:0:0:0:
292,18,69619,1,2,3:0:0:0:
179,277,69796,1,0,2:0:0:0:
442,207,69972,2,0,L|373:186,1,49.5,2|0,3:2|3:0,2:0:0:0:
165,184,70149,2,0,L|234:205,1,49.5,0|0,3:0|3:0,2:0:0:0:
402,283,70325,6,0,P|469:285|517:236,1,117.00000000000004,4|0,3:2|2:0,2:0:0:0:
373,295,70590,6,0,P|431:328|496:307,1,117.00000000000004,4|0,3:0|2:0,2:0:0:0:
334,286,70855,6,0,L|272:270,1,58.50000000000002,4|0,3:0|2:0,2:0:0:0:
93,221,71031,5,2,2:0:0:0:
55,199,71119,5,0,2:0:0:0:
17,178,71207,5,2,2:0:0:0:
59,169,71296,5,0,2:0:0:0:
101,160,71384,5,2,2:0:0:0:
138,183,71472,5,2,2:0:0:0:
176,162,71560,5,2,2:0:0:0:
187,199,71649,5,2,2:0:0:0:
225,178,71737,6,0,P|247:114|215:54,1,117.00000000000004,4|0,3:2|2:0,2:0:0:0:
227,209,72002,6,0,P|276:164|276:95,1,117.00000000000004,8|0,3:0|2:0,2:0:0:0:
206,243,72266,6,0,L|215:316,1,58.50000000000002,8|0,3:0|2:0,2:0:0:0:
432,331,72443,5,2,2:0:0:0:
470,309,72531,5,0,2:0:0:0:
508,288,72619,5,2,2:0:0:0:
466,279,72707,5,0,2:0:0:0:
424,270,72796,5,2,2:0:0:0:
387,293,72884,5,2,2:0:0:0:
349,272,72972,5,2,2:0:0:0:
338,309,73060,5,2,2:0:0:0:
300,288,73149,6,0,P|256:250|276:197,1,117.00000000000004,4|0,3:2|2:0,2:0:0:0:
455,109,73413,6,0,P|444:166|388:175,1,117.00000000000004,4|0,3:0|2:0,2:0:0:0:
315,98,73678,6,0,L|250:82,1,58.50000000000002,4|0,3:0|2:0,2:0:0:0:
79,264,73855,5,2,2:0:0:0:
80,309,73943,5,0,2:0:0:0:
126,321,74031,5,2,2:0:0:0:
153,279,74119,5,0,2:0:0:0:
122,245,74207,5,2,2:0:0:0:
54,258,74296,5,2,2:0:0:0:
16,198,74384,5,2,2:0:0:0:
64,144,74472,5,2,2:0:0:0:
126,174,74560,6,0,L|266:150,1,117.00000000000004,4|0,3:2|2:0,2:0:0:0:
432,258,74825,6,0,L|292:234,1,117.00000000000004,4|0,3:0|2:0,2:0:0:0:
151,315,75090,6,0,L|221:303,1,58.50000000000002,4|0,3:0|2:0,2:0:0:0:
371,139,75266,5,2,2:0:0:0:
398,103,75355,5,0,2:0:0:0:
442,120,75443,5,2,2:0:0:0:
439,170,75531,5,0,2:0:0:0:
394,179,75619,5,2,2:0:0:0:
347,129,75707,5,2,2:0:0:0:
281,155,75796,5,2,2:0:0:0:
288,227,75884,5,2,2:0:0:0:
356,239,75972,6,0,L|476:217,1,117.00000000000004,4|0,3:2|2:0,2:0:0:0:
217,311,76325,2,0,P|168:310|128:282,1,99,0|0,1:0|2:0,2:0:0:0:
339,331,76678,2,0,L|444:366,1,99,2|0,3:0|2:0,2:0:0:0:
217,223,77031,1,0,1:0:0:0:
429,149,77207,1,0,3:0:0:0:
217,223,77384,6,0,B|80:192|80:192|138:151,1,198,2|0,3:0|1:0,2:0:0:0:
263,76,77913,1,2,2:0:0:0:
310,267,78090,2,0,P|327:211|310:170,1,99,2|0,3:0|2:0,2:0:0:0:
245,151,78355,1,2,2:0:0:0:
245,151,78443,1,0,1:0:0:0:
285,342,78619,1,2,2:0:0:0:
448,250,78796,6,0,L|245:230,1,198,2|0,3:0|1:0,2:0:0:0:
35,218,79325,2,0,L|100:202,1,49.5,0|0,2:0|2:0,2:0:0:0:
265,148,79502,1,2,3:0:0:0:
100,108,79678,1,0,2:0:0:0:
145,301,79855,1,0,1:0:0:0:
100,108,80031,2,0,L|85:39,2,49.5,2|0|0,3:0|3:0|3:0,2:0:0:0:
341,182,80384,5,0,1:0:0:0:
151,217,80560,1,0,1:0:0:0:
361,106,80737,1,0,1:0:0:0:
355,337,80913,1,0,3:0:0:0:
355,337,81002,1,0,3:0:0:0:
355,337,81090,1,0,3:0:0:0:
212,104,81266,1,0,1:0:0:0:
148,325,81443,1,0,3:0:0:0:
427,194,81619,5,2,1:0:0:0:
191,271,81796,1,0,2:0:0:0:
337,319,81972,5,2,1:0:0:0:
212,104,82149,1,0,2:0:0:0:
191,271,82325,5,2,1:0:0:0:
337,70,82502,1,0,2:0:0:0:
212,104,82678,6,0,L|264:126,1,49.5,2|0,1:0|2:0,2:0:0:0:
425,193,82855,2,0,L|358:215,1,49.5,0|0,3:0|2:0,2:0:0:0:
191,271,83031,1,2,1:0:0:0:
337,70,83560,1,2,1:0:0:0:
337,319,84619,5,2,3:0:0:0:
115,179,84796,1,2,3:2:0:0:
300,143,84972,1,2,3:0:0:0:
121,285,85149,1,2,1:0:0:0:
121,285,85678,5,2,3:0:0:0:
333,82,85855,1,2,3:2:0:0:
364,338,86031,1,2,3:0:0:0:
179,130,86207,1,4,1:2:0:0:
