osu file format v14

[General]
AudioFilename: audio.mp3
AudioLeadIn: 0
PreviewTime: 72525
Countdown: 1
SampleSet: None
StackLeniency: 0.7
Mode: 0
LetterboxInBreaks: 0
WidescreenStoryboard: 1

[Editor]
Bookmarks: 6173,11114,17467,28761,40055,49937,55584,66878,72525,83820,89467,95114,106055,106408
DistanceSpacing: 1.05
BeatDivisor: 4
GridSize: 8
TimelineZoom: 3.799999

[Metadata]
Title:Uncompleted steam engine girl
TitleUnicode:未完成ノ蒸氣驅動乙女
Artist:U1 overground
ArtistUnicode:U1 overground
Creator:Yooh
Version:Easy
Source:
Tags:
BeatmapID:1996612
BeatmapSetID:910936

[Difficulty]
HPDrainRate:2
CircleSize:2.6
OverallDifficulty:2
ApproachRate:3.5
SliderMultiplier:0.799999999999999
SliderTickRate:1

[Events]
//Background and Video events
0,0,"animegirls-1547490698485-2899.jpg",0,0
//Break Periods
2,49783,54204
2,67078,71145
//Storyboard Layer 0 (Background)
//Storyboard Layer 1 (Fail)
//Storyboard Layer 2 (Pass)
//Storyboard Layer 3 (Foreground)
//Storyboard Sound Samples

[TimingPoints]
526,352.941176470588,4,2,0,80,1,0
17467,-100,4,2,0,80,0,1
28761,-100,4,2,0,80,0,0
72525,-100,4,2,0,80,0,1
83820,-100,4,2,0,80,0,0

[HitObjects]
256,192,526,12,0,4761,0:0:0:0:
28,56,6173,6,0,B|59:52|59:52|76:58|76:58|108:54,1,79.9999999999999,8|8,0:0|0:0,0:0:0:0:
176,100,6878,2,0,B|207:96|207:96|224:102|224:102|256:98,1,79.9999999999999,8|8,0:0|0:0,0:0:0:0:
288,21,7584,6,0,P|317:40|338:83,1,79.9999999999999,8|8,0:0|0:0,0:0:0:0:
312,160,8290,1,8,0:0:0:0:
232,187,8643,2,0,B|65:207,1,160,8|8,0:0|0:0,0:0:0:0:
62,290,9702,2,0,B|157:278,1,79.9999999999999,8|8,0:0|0:0,0:0:0:0:
225,272,10408,5,8,0:0:0:0:
215,355,10761,1,8,0:0:0:0:
293,324,11114,2,0,B|372:334,1,79.9999999999999,8|8,0:0|0:0,0:0:0:0:
455,346,11820,6,0,B|466:307|466:307|462:264,1,79.9999999999999,8|8,0:0|0:0,0:0:0:0:
379,251,12525,2,0,B|375:211|375:211|386:172,1,79.9999999999999,8|8,0:0|0:0,0:0:0:0:
468,156,13231,6,0,P|447:115|415:94,1,79.9999999999999,8|8,0:0|0:0,0:0:0:0:
336,107,13937,2,0,B|297:124|259:106|259:106|248:64|206:49|206:49|162:68|122:49,1,240,10|10,0:0|0:0,0:0:0:0:
48,34,15349,2,0,P|48:75|78:119,1,79.9999999999999,8|8,0:0|0:0,0:0:0:0:
143,141,16055,5,8,0:0:0:0:
76,192,16408,1,8,0:0:0:0:
152,225,16761,2,0,P|150:264|130:298,1,79.9999999999999,8|8,0:0|0:0,0:0:0:0:
177,367,17467,6,0,B|218:380|253:353|253:353|281:320|328:317,1,160,8|8,0:0|0:0,0:0:0:0:
392,362,18525,1,8,0:0:0:0:
467,324,18878,2,0,P|443:294|396:276,1,79.9999999999999,8|8,0:0|0:0,0:0:0:0:
333,234,19584,1,10,0:0:0:0:
322,150,19937,1,10,0:0:0:0:
399,182,20290,6,0,B|433:137|433:137|421:34,1,160,8|8,0:0|0:0,0:0:0:0:
339,12,21349,1,8,0:0:0:0:
282,74,21702,2,0,L|202:64,1,79.9999999999999,8|8,0:0|0:0,0:0:0:0:
126,28,22408,1,8,0:0:0:0:
42,39,22761,1,8,0:0:0:0:
94,103,23114,6,0,B|65:128|29:122|29:122|12:170|42:215,1,160,8|8,0:0|0:0,0:0:0:0:
10,287,24173,1,8,0:0:0:0:
60,354,24525,2,0,P|89:317|94:284,1,79.9999999999999,8|8,0:0|0:0,0:0:0:0:
122,205,25231,1,10,0:0:0:0:
206,216,25584,1,8,0:0:0:0:
240,292,25937,6,0,L|327:281,1,79.9999999999999,8|8,0:0|0:0,0:0:0:0:
329,365,26643,2,0,L|416:354,1,79.9999999999999,8|8,0:0|0:0,0:0:0:0:
491,342,27349,2,0,B|481:295|440:279|440:279|430:196,1,160,8|8,0:0|0:0,0:0:0:0:
420,120,28408,1,8,0:0:0:0:
415,36,28761,6,0,P|354:66|343:154,1,160,8|8,0:0|0:0,0:0:0:0:
350,234,29820,1,8,0:0:0:0:
273,200,30173,2,0,B|249:197|249:197|216:201|216:201|184:197,1,79.9999999999999,8|8,0:0|0:0,0:0:0:0:
154,272,30878,2,0,L|143:359,1,79.9999999999999,8|8,0:0|0:0,0:0:0:0:
60,346,31584,6,0,L|79:185,1,160,8|8,0:0|0:0,0:0:0:0:
70,103,32643,2,0,P|34:114|1:154,2,79.9999999999999,8|8|8,0:0|0:0|0:0,0:0:0:0:
153,112,33702,2,0,L|240:122,1,79.9999999999999,8|8,0:0|0:0,0:0:0:0:
248,38,34408,6,0,B|311:45|311:45|333:64|333:64|404:73,1,160,8|8,0:0|0:0,0:0:0:0:
475,34,35467,1,8,0:0:0:0:
472,117,35820,2,0,P|446:145|397:159,1,79.9999999999999,8|8,0:0|0:0,0:0:0:0:
323,148,36525,2,0,L|312:235,1,79.9999999999999,8|8,0:0|0:0,0:0:0:0:
361,296,37231,2,0,L|448:306,2,79.9999999999999,8|8|8,0:0|0:0|0:0,0:0:0:0:
294,347,38290,1,8,0:0:0:0:
245,278,38643,2,0,B|209:308|210:347|210:347|168:331|119:348,1,160,10|10,0:0|0:0,0:0:0:0:
51,369,39702,1,8,0:0:0:0:
6,297,40055,6,0,B|18:193|18:193|36:130,1,160,2|2,0:0|0:0,0:0:0:0:
57,58,41114,1,2,0:0:0:0:
138,79,41467,2,0,L|118:156,1,79.9999999999999,0|2,0:0|0:0,0:0:0:0:
99,238,42173,1,2,0:0:0:0:
180,258,42525,6,0,L|212:127,2,120,2|0|2,0:0|0:0|0:0,0:0:0:0:
235,321,43937,1,2,0:0:0:0:
317,304,44290,2,0,L|393:281,1,79.9999999999999,0|2,0:0|0:0,0:0:0:0:
361,203,44996,6,0,L|245:236,2,120,2|2|2,0:0|0:0|0:0,0:0:0:0:
389,125,46408,1,0,0:0:0:0:
334,63,46761,2,0,L|276:7,1,79.9999999999999,0|2,0:0|0:0,0:0:0:0:
225,75,47467,6,0,L|311:158,2,120,2|2|2,0:0|0:0|0:0,0:0:0:0:
154,29,48878,2,0,P|106:24|72:37,2,79.9999999999999,2|2|2,0:0|0:0|0:0,0:0:0:0:
40,344,55584,5,0,0:0:0:0:
203,303,56290,2,0,L|290:313,1,79.9999999999999,2|2,0:0|0:0,0:0:0:0:
329,384,56996,2,0,P|355:359|369:313,1,79.9999999999999,2|2,0:0|0:0,0:0:0:0:
331,242,57702,1,0,0:0:0:0:
504,266,58408,5,0,0:0:0:0:
459,194,58761,2,0,L|469:106,1,79.9999999999999,2|2,0:0|0:0,0:0:0:0:
479,31,59467,1,2,0:0:0:0:
395,20,59820,2,0,L|384:107,1,79.9999999999999,2|0,0:0|0:0,0:0:0:0:
367,181,60525,2,0,B|317:171|299:112|299:112|306:53,1,160,2|0,0:0|0:0,0:0:0:0:
140,24,61937,6,0,L|60:34,1,79.9999999999999,2|0,0:0|0:0,0:0:0:0:
3,95,62643,2,0,P|37:117|86:117,1,79.9999999999999,2|2,0:0|0:0,0:0:0:0:
158,107,63349,1,0,0:0:0:0:
73,252,64055,6,0,B|136:259|136:259|162:246|162:246|233:255,1,160,2|2,0:0|0:0,0:0:0:0:
312,268,65114,1,2,0:0:0:0:
395,278,65467,2,0,P|420:315|422:352,1,79.9999999999999,2|0,0:0|0:0,0:0:0:0:
337,355,66173,2,0,L|178:335,1,160,2|0,0:0|0:0,0:0:0:0:
441,75,72525,6,0,B|431:116|461:141|461:141|478:188|451:235,1,160,8|8,0:0|0:0,0:0:0:0:
498,298,73584,1,8,0:0:0:0:
460,373,73937,2,0,P|422:338|414:302,1,79.9999999999999,8|8,0:0|0:0,0:0:0:0:
372,239,74643,1,10,0:0:0:0:
289,249,74996,1,10,0:0:0:0:
272,331,75349,6,0,L|113:350,1,160,8|8,0:0|0:0,0:0:0:0:
29,357,76408,1,8,0:0:0:0:
66,281,76761,2,0,L|56:201,1,79.9999999999999,8|8,0:0|0:0,0:0:0:0:
7,132,77467,1,10,0:0:0:0:
16,50,77820,1,10,0:0:0:0:
84,98,78173,6,0,B|108:114|156:106|148:98|188:66|252:98,1,160,8|8,0:0|0:0,0:0:0:0:
317,63,79231,1,8,0:0:0:0:
383,113,79584,2,0,P|347:144|302:148,1,79.9999999999999,8|8,0:0|0:0,0:0:0:0:
236,177,80290,1,10,0:0:0:0:
246,260,80643,1,10,0:0:0:0:
162,270,80996,6,0,L|152:190,1,79.9999999999999,8|8,0:0|0:0,0:0:0:0:
68,201,81702,2,0,L|78:281,1,79.9999999999999,10|8,0:0|0:0,0:0:0:0:
124,350,82408,2,0,B|166:355|166:355|235:337|235:337|292:344,1,160,8|10,0:0|0:0,0:0:0:0:
364,352,83467,1,10,0:0:0:0:
447,342,83820,6,0,L|427:183,1,160,8|8,0:0|0:0,0:0:0:0:
460,106,84878,1,8,0:0:0:0:
376,118,85231,2,0,P|353:143|344:197,1,79.9999999999999,8|8,0:0|0:0,0:0:0:0:
351,270,85937,2,0,B|319:266|319:266|296:255|296:255|264:251,1,79.9999999999999,10|10,0:0|0:0,0:0:0:0:
255,334,86643,6,0,L|96:314,1,160,8|10,0:0|0:0,0:0:0:0:
30,366,87702,1,2,0:0:0:0:
18,282,88055,2,0,L|28:202,1,79.9999999999999,8|8,0:0|0:0,0:0:0:0:
78,137,88761,2,0,P|101:162|110:216,1,79.9999999999999,8|8,0:0|0:0,0:0:0:0:
256,192,89467,12,10,93702,0:0:0:0:
48,56,95114,6,0,B|103:62|103:62|142:75|142:75|213:84,1,160,8|8,0:0|0:0,0:0:0:0:
288,94,96173,1,8,0:0:0:0:
357,47,96525,6,0,L|436:37,2,79.9999999999999,8|8|8,0:0|0:0|0:0,0:0:0:0:
367,130,97584,1,8,0:0:0:0:
415,198,97937,2,0,L|405:277,1,79.9999999999999,8|8,0:0|0:0,0:0:0:0:
349,340,98643,2,0,P|299:330|270:341,1,79.9999999999999,8|8,0:0|0:0,0:0:0:0:
197,376,99349,5,8,0:0:0:0:
114,366,99702,1,8,0:0:0:0:
89,285,100055,2,0,L|9:294,1,79.9999999999999,8|8,0:0|0:0,0:0:0:0:
3,210,100761,6,0,B|98:198|98:198|148:216|148:216|244:204,1,240,8|8,0:0|0:0,0:0:0:0:
301,260,102173,2,0,P|319:229|297:144,1,120,8|2,0:0|0:0,0:0:0:0:
224,120,103055,1,0,0:0:0:0:
98,113,103584,6,0,L|18:122,2,79.9999999999999,0|8|8,0:0|0:0|0:0,0:0:0:0:
141,41,104643,2,0,L|299:21,1,160,8|8,0:0|0:0,0:0:0:0:
363,76,105702,2,0,B|326:96|317:137|317:137|358:153|366:206,1,160,8|4,0:0|0:0,0:0:0:0:
