osu file format v14

[General]
AudioFilename: audio.mp3
AudioLeadIn: 0
PreviewTime: 64205
Countdown: 1
SampleSet: Soft
StackLeniency: 0.2
Mode: 0
LetterboxInBreaks: 0
WidescreenStoryboard: 1

[Editor]
DistanceSpacing: 0.5
BeatDivisor: 8
GridSize: 4
TimelineZoom: 1

[Metadata]
Title:Serotonin
TitleUnicode:セロトニン
Artist:U1 overground
ArtistUnicode:U1 overground
Creator:-kevincela-
Version:C10H12N2O
Source:beatmania IIDX 23 copula
Tags:
BeatmapID:1062577
BeatmapSetID:499204

[Difficulty]
HPDrainRate:5
CircleSize:4.5
OverallDifficulty:9
ApproachRate:9.5
SliderMultiplier:1.8
SliderTickRate:1

[Events]
//Background and Video events
0,0,"bgg.jpg",0,0
//Break Periods
//Storyboard Layer 0 (Background)
//Storyboard Layer 1 (Fail)
//Storyboard Layer 2 (Pass)
//Storyboard Layer 3 (Foreground)
//Storyboard Sound Samples

[TimingPoints]
1005,400,4,2,1,80,1,0
2205,-66.6666666666667,4,2,1,80,0,0
2405,-50,4,2,1,80,0,0
2605,-100,4,2,1,80,0,0
3605,-66.6666666666667,4,2,1,80,0,0
3755,-66.6666666666667,4,2,1,5,0,0
3805,-50,4,2,1,80,0,0
4205,-100,4,2,1,80,0,0
5405,-66.6666666666667,4,2,1,80,0,0
5605,-50,4,2,1,80,0,0
5805,-100,4,2,1,80,0,0
7605,-83.3333333333333,4,2,1,80,0,0
9005,-66.6666666666667,4,2,1,80,0,0
12196,-50,4,2,1,80,0,0
13805,-83.3333333333333,4,2,1,80,0,0
14905,-66.6666666666667,4,2,1,80,0,0
15405,-83.3333333333333,4,2,1,80,0,0
15805,-66.6666666666667,4,2,1,80,0,0
16205,-83.3333333333333,4,2,1,80,0,0
25405,-66.6666666666667,4,2,1,80,0,0
25605,-55.5555555555556,4,2,1,80,0,0
26605,-83.3333333333333,4,2,1,80,0,0
28805,-41.6666666666667,4,2,1,80,0,0
29005,-83.3333333333333,4,2,1,80,0,0
29605,-66.6666666666667,4,2,1,80,0,0
29805,-83.3333333333333,4,2,1,80,0,0
32805,-41.6666666666667,4,2,1,80,0,0
33005,-83.3333333333333,4,2,1,80,0,0
36005,-66.6666666666667,4,2,1,80,0,0
39405,-83.3333333333333,4,2,1,80,0,0
40005,-41.6666666666667,4,2,1,80,0,0
40205,-66.6666666666667,4,2,1,80,0,0
40505,-33.3333333333333,4,2,1,80,0,0
40605,-66.6666666666667,4,2,1,80,0,0
40805,-50,4,2,1,80,0,0
41005,-83.3333333333333,4,2,1,80,0,0
41505,-41.6666666666667,4,2,1,80,0,0
41805,-83.3333333333333,4,2,1,80,0,0
42005,-41.6666666666667,4,2,1,80,0,0
42205,-50,4,2,1,80,0,0
42405,-28.5714285714286,4,2,1,80,0,0
42605,-83.3333333333333,4,2,1,80,0,0
43205,-41.6666666666667,4,2,1,80,0,0
43405,-66.6666666666667,4,2,1,80,0,0
43705,-33.3333333333333,4,2,1,80,0,0
43805,-66.6666666666667,4,2,1,80,0,0
44005,-62.5,4,2,1,80,0,0
44205,-25,4,2,1,60,0,0
44805,-41.6666666666667,4,2,1,80,0,0
45005,-66.6666666666667,4,2,1,80,0,0
45405,-133.333333333333,4,2,1,80,0,0
45805,-83.3333333333333,4,2,1,80,0,0
46155,-83.3333333333333,4,2,1,5,0,0
46205,-76.9230769230769,4,2,1,80,0,0
46555,-76.9230769230769,4,2,1,5,0,0
46605,-71.4285714285714,4,2,1,80,0,0
46955,-71.4285714285714,4,2,1,5,0,0
47005,-66.6666666666667,4,2,1,80,0,0
47355,-66.6666666666667,4,2,1,5,0,0
47405,-62.5,4,2,1,80,0,0
47755,-62.5,4,2,1,5,0,0
47805,-58.8235294117647,4,2,1,80,0,0
48155,-58.8235294117647,4,2,1,5,0,0
48205,-55.5555555555556,4,2,1,80,0,0
48555,-55.5555555555556,4,2,1,5,0,0
48605,-52.6315789473684,4,2,1,80,0,0
48955,-52.6315789473684,4,2,1,5,0,0
49005,-50,4,2,1,80,0,0
49355,-50,4,2,1,5,0,0
49405,-47.6190476190476,4,2,1,80,0,0
49755,-47.6190476190476,4,2,1,5,0,0
49805,-45.4545454545455,4,2,1,80,0,0
50155,-45.4545454545455,4,2,1,5,0,0
50205,-43.4782608695652,4,2,1,80,0,0
50555,-43.4782608695652,4,2,1,5,0,0
50605,-41.6666666666667,4,2,1,80,0,0
50955,-41.6666666666667,4,2,1,5,0,0
51005,-40,4,2,1,80,0,0
51355,-40,4,2,1,5,0,0
51405,-38.4615384615385,4,2,1,80,0,0
51755,-38.4615384615385,4,2,1,5,0,0
51805,-37.037037037037,4,2,1,80,0,0
52205,-66.6666666666667,4,2,1,80,0,0
52805,-33.3333333333333,4,2,1,80,0,0
53205,-66.6666666666667,4,2,1,80,0,0
53401,-100,4,2,1,80,0,0
53605,-66.6666666666667,4,2,1,80,0,0
56005,-33.3333333333333,4,2,1,80,0,0
56205,-66.6666666666667,4,2,1,80,0,0
56605,-100,4,2,1,80,0,0
56805,-66.6666666666667,4,2,1,80,0,0
61605,-55.5555555555556,4,2,1,80,0,0
61805,-62.5,4,2,1,80,0,0
62005,-52.6315789473684,4,2,1,80,0,0
62205,-58.8235294117647,4,2,1,80,0,0
62405,-50,4,2,1,80,0,0
62605,-55.5555555555556,4,2,1,80,0,0
62805,-47.6190476190476,4,2,1,80,0,0
63005,-52.6315789473684,4,2,1,80,0,0
63205,-45.4545454545455,4,2,1,80,0,0
63405,-50,4,2,1,80,0,0
63605,-43.4782608695652,4,2,1,80,0,0
63805,-47.6190476190476,4,2,1,80,0,0
64005,-41.6666666666667,4,2,1,80,0,0
64205,-133.333333333333,4,2,1,40,0,0
65005,-66.6666666666667,4,2,2,80,0,1
65405,-100,4,2,2,80,0,1
65605,-50,4,2,2,80,0,1
65805,-66.6666666666667,4,2,2,80,0,1
66205,-133.333333333333,4,2,2,60,0,1
66605,-66.6666666666667,4,2,2,80,0,1
67805,-100,4,2,2,80,0,1
68205,-66.6666666666667,4,2,2,80,0,1
68805,-50,4,2,2,80,0,1
69005,-66.6666666666667,4,2,2,80,0,1
69205,-50,4,2,2,80,0,1
69405,-50,4,2,2,80,0,1
69805,-66.6666666666667,4,2,2,80,0,1
70005,-52.6315789473684,4,2,2,80,0,1
70405,-50,4,2,2,80,0,1
70605,-66.6666666666667,4,2,2,80,0,1
71205,-50,4,2,2,80,0,1
71405,-66.6666666666667,4,2,2,80,0,1
71605,-45.4545454545455,4,2,2,80,0,1
71805,-58.8235294117647,4,2,2,80,0,1
72005,-50,4,2,2,80,0,1
72605,-33.3333333333333,4,2,2,40,0,1
73005,-50,4,2,2,80,0,1
73605,-66.6666666666667,4,2,2,80,0,1
73805,-133.333333333333,4,2,2,80,0,1
74205,-66.6666666666667,4,2,2,80,0,1
75405,-33.3333333333333,4,2,2,80,0,1
75805,-66.6666666666667,4,2,2,60,0,1
76405,-50,4,2,2,80,0,1
77005,-66.6666666666667,4,2,2,80,0,1
77605,-33.3333333333333,4,2,2,80,0,1
77805,-83.3333333333333,4,2,1,80,0,1
79605,-41.6666666666667,4,2,1,80,0,1
79805,-83.3333333333333,4,2,1,80,0,1
80405,-41.6666666666667,4,2,1,80,0,1
80605,-83.3333333333333,4,2,1,80,0,1
80805,-66.6666666666667,4,2,1,80,0,1
81005,-58.8235294117647,4,2,1,80,0,1
84205,-83.3333333333333,4,2,1,80,0,1
84805,-41.6666666666667,4,2,1,80,0,1
85005,-83.3333333333333,4,2,1,80,0,1
86005,-41.6666666666667,4,2,1,80,0,1
86205,-83.3333333333333,4,2,1,80,0,1
86405,-41.6666666666667,4,2,1,80,0,1
86605,-83.3333333333333,4,2,1,80,0,1
86805,-41.6666666666667,4,2,1,80,0,1
87005,-83.3333333333333,4,2,1,80,0,1
87205,-41.6666666666667,4,2,1,80,0,1
87405,-83.3333333333333,4,2,1,80,0,1
89005,-58.8235294117647,4,2,1,80,0,1
89805,-41.6666666666667,4,2,1,80,0,1
90605,-66.6666666666667,4,2,1,80,0,0
103405,-50,4,2,1,80,0,0

[Colours]
Combo1 : 255,36,41
Combo2 : 75,61,254
Combo3 : 60,148,255
Combo4 : 242,193,47
Combo5 : 247,159,43
Combo6 : 245,107,149
Combo7 : 218,61,116

[HitObjects]
64,160,1005,6,0,B|88:136|88:136|80:244,1,135,0|0,1:0|0:0,0:0:0:0:
72,316,1405,2,0,L|176:320,1,90,0|2,1:0|0:0,0:0:0:0:
232,360,1705,1,2,0:0:0:0:
280,268,1805,6,0,P|272:228|244:280,1,135,0|2,1:0|0:2,0:0:0:0:
324,348,2205,6,0,L|392:348,1,67.5000025749208,0|0,1:0|0:0,0:0:0:0:
456,240,2405,6,0,B|404:240|404:240|372:268|372:268|416:268,1,135,2|0,0:1|0:0,0:0:0:0:
348,176,2605,6,0,B|308:212|308:212|220:212,1,135,0|0,1:0|0:0,0:0:0:0:
199,132,3005,2,0,L|247:132,1,45,0|0,1:0|0:0,0:0:0:0:
440,56,3205,5,2,0:0:0:0:
440,56,3305,1,2,0:0:0:0:
440,56,3405,2,0,P|407:46|372:52,1,67.5,0|0,1:0|0:0,0:0:0:0:
316,100,3605,22,2,B|296:72|296:72|263:57|263:57|212:60,1,101.250003862381,0|0,0:1|0:0,1:1:0:0:
244,132,3805,6,0,B|260:172|260:172|252:228,1,90,0|0,1:0|0:0,0:0:0:0:
80,324,4005,2,0,B|73:277|73:277|89:237,1,90,0|0,1:0|0:0,0:0:0:0:
292,292,4205,6,0,B|243:295|243:295|207:283|207:283|159:287,1,135,0|0,1:0|0:0,0:0:0:0:
80,324,4605,2,0,B|73:277|73:277|89:237,1,90,0|2,1:0|0:0,0:0:0:0:
128,160,4905,1,2,0:0:0:0:
20,108,5005,6,0,B|56:116|56:116|84:88|84:88|124:68|172:88,1,157.5,0|2,1:0|0:0,0:0:0:0:
232,140,5405,6,0,P|236:180|228:216,1,67.5000025749208,0|0,1:0|0:0,0:0:0:0:
73,291,5605,6,0,B|112:276|112:276|164:284|164:284|195:309,1,135,2|0,0:1|0:0,0:0:0:0:
300,376,5805,22,0,B|296:328|296:328|312:296|312:296|308:232,1,135,0|0,1:0|0:0,0:0:0:0:
388,216,6205,2,0,L|392:267,1,45,0|0,1:0|0:0,0:0:0:0:
440,124,6405,5,2,0:0:0:0:
444,144,6505,1,2,0:0:0:0:
448,164,6605,2,0,P|412:188|324:164,1,135,0|0,1:0|0:0,0:0:0:0:
244,48,7005,1,0,1:0:0:0:
244,48,7205,1,0,0:0:0:0:
248,72,7305,1,0,0:0:0:0:
168,72,7405,5,0,1:0:0:0:
324,48,7605,2,0,L|332:108,1,53.9999983520508,2|0,0:0|0:0,0:0:0:0:
180,152,7805,5,0,1:0:0:0:
344,172,8005,2,0,L|352:232,1,53.9999983520508,2|0,0:0|0:0,0:0:0:0:
192,236,8205,5,0,1:0:0:0:
364,296,8405,2,0,L|372:356,1,53.9999983520508,2|0,0:0|0:0,0:0:0:0:
204,316,8605,5,0,1:0:0:0:
344,172,8805,2,0,P|364:160|404:152,1,53.9999983520508,2|0,0:0|0:0,0:0:0:0:
276,244,9005,21,0,1:0:0:0:
396,64,9205,2,0,P|428:71|458:88,1,67.5000025749208,2|0,0:0|0:0,0:0:0:0:
248,156,9405,5,0,1:0:0:0:
500,160,9605,2,0,P|509:192|509:226,1,67.5000025749208,2|0,0:0|0:0,0:0:0:0:
304,76,9805,5,0,1:0:0:0:
492,308,10005,2,0,P|468:332|439:349,1,67.5000025749208,2|0,0:0|0:0,0:0:0:0:
396,64,10205,5,0,1:0:0:0:
356,356,10405,2,0,P|323:348|293:331,1,67.5000025749208,2|0,0:0|0:0,0:0:0:0:
500,160,10605,5,0,1:0:0:0:
466,163,10705,1,0,0:0:0:0:
432,167,10805,1,2,0:0:0:0:
399,170,10905,1,0,0:0:0:0:
408,248,11005,5,0,1:0:0:0:
367,243,11105,1,0,0:0:0:0:
326,238,11205,1,2,0:0:0:0:
286,234,11305,1,0,0:0:0:0:
228,172,11405,21,0,1:0:0:0:
185,193,11505,1,0,0:0:0:0:
155,231,11605,1,2,0:0:0:0:
146,277,11705,1,0,0:0:0:0:
130,378,11805,5,0,1:0:0:0:
85,355,11905,1,0,0:0:0:0:
53,315,12005,1,2,0:0:0:0:
44,267,12105,1,0,0:0:0:0:
80,176,12205,6,0,L|180:172,1,90,2|0,1:1|0:0,0:0:0:0:
344,208,12405,1,0,0:0:0:0:
255,212,12505,2,0,L|355:208,1,90,2|0,1:0|1:0,0:0:0:0:
480,276,12705,5,2,0:0:0:0:
400,284,12805,1,2,0:1:0:0:
400,284,13805,6,0,L|392:104,1,161.999995056153,4|0,1:2|0:0,0:0:0:0:
386,32,14205,1,8,0:1:0:0:
287,233,14405,1,2,0:0:0:0:
292,156,14505,1,2,0:0:0:0:
265,248,14605,2,0,L|271:124,1,107.999996704102,0|0,1:0|0:0,0:0:0:0:
143,92,14905,6,0,B|176:99|176:99|218:87,1,67.5000025749208,2|8,0:0|0:1,0:0:0:0:
4,60,15105,2,0,B|37:53|37:53|79:65,1,67.5000025749208,2|0,0:0|0:0,0:0:0:0:
208,89,15305,1,0,0:0:0:0:
270,140,15405,22,0,B|265:247|265:247|280:220|308:208,1,161.999995056153,0|0,1:0|0:0,0:0:0:0:
364,292,15805,6,0,P|344:308|344:276,1,67.5000025749208,8|0,0:1|0:0,0:0:0:0:
432,256,16005,2,0,P|440:284|436:328,1,67.5000025749208
304,209,16205,6,0,B|309:102|309:102|294:129|266:141,1,161.999995056153,0|0,1:0|0:0,0:0:0:0:
172,64,16605,6,0,B|199:66|199:66|195:66|195:66|207:67|207:67|191:65|191:65|215:67|215:67|183:65|183:65|243:70,1,161.999995056153,8|0,0:1|0:0,0:0:0:0:
380,176,17005,6,0,B|376:304|376:304|356:272,1,161.999995056153,0|0,1:0|0:0,0:0:0:0:
304,209,17405,1,8,0:1:0:0:
304,209,17605,5,2,0:0:0:0:
216,228,17705,1,2,0:0:0:0:
244,144,17805,21,0,1:0:0:0:
248,164,17905,1,0,0:0:0:0:
252,180,18005,1,0,0:0:0:0:
256,196,18105,1,2,0:0:0:0:
260,212,18205,2,0,L|280:288,1,53.9999983520508,8|0,0:2|0:0,0:0:0:0:
168,144,18405,5,0,3:0:0:0:
308,104,18505,1,0,3:0:0:0:
160,58,18605,6,0,P|108:82|88:178,1,161.999995056153,0|0,1:0|0:0,0:0:0:0:
204,248,19005,2,0,B|180:236|180:236|140:240,1,53.9999983520508,8|0,0:1|0:0,0:0:0:0:
56,336,19205,5,2,0:0:0:0:
56,336,19305,2,0,B|172:324,1,107.999996704102,2|0,0:0|0:0,0:0:0:0:
16,256,19605,2,0,B|91:248,1,53.9999983520508
244,316,19805,5,8,0:1:0:0:
244,316,20005,1,0,0:0:0:0:
328,307,20105,1,0,0:0:0:0:
163,324,20205,5,4,1:2:0:0:
163,324,20405,2,0,B|238:318,1,53.9999983520508
412,299,20605,1,8,0:1:0:0:
412,299,20805,21,2,0:0:0:0:
328,307,20905,1,2,0:0:0:0:
364,224,21005,5,0,1:0:0:0:
328,227,21105,1,0,0:0:0:0:
292,231,21205,1,0,0:0:0:0:
256,235,21305,1,0,0:0:0:0:
284,152,21405,1,8,0:1:0:0:
284,152,21605,5,2,0:0:0:0:
364,224,21705,1,2,0:0:0:0:
388,120,21805,5,0,1:0:0:0:
413,143,21905,1,0,0:0:0:0:
439,167,22005,1,0,0:0:0:0:
465,190,22105,1,0,0:0:0:0:
500,88,22205,1,8,0:1:0:0:
500,88,22405,5,2,0:0:0:0:
388,120,22505,1,2,0:0:0:0:
412,8,22605,5,0,1:0:0:0:
367,20,22705,1,0,0:0:0:0:
322,33,22805,1,0,0:0:0:0:
277,45,22905,1,0,0:0:0:0:
264,140,23005,22,0,L|256:200,1,53.9999983520508,8|0,0:1|0:0,0:0:0:0:
244,296,23205,2,0,L|236:356,1,53.9999983520508
108,218,23405,6,0,B|152:182|152:182|268:194,1,161.999995056153,0|0,1:0|0:0,0:0:0:0:
392,270,23805,2,0,B|348:306|348:306|232:294,1,161.999995056153,8|0,0:1|0:0,0:0:0:0:
368,132,24205,5,0,1:0:0:0:
368,132,24305,2,0,B|364:188|364:188|325:222,1,107.999996704102,2|0,0:0|0:0,0:0:0:0:
132,352,24605,2,0,B|136:296|136:296|180:256,1,107.999996704102,10|0,0:0|0:0,0:0:0:0:
336,352,25005,6,0,B|296:340|268:352|268:352|240:364|204:356|208:320|248:320,1,161.999995056153,0|0,1:0|0:0,0:0:0:0:
408,296,25405,2,0,P|424:336|424:372,1,67.5000025749208,8|0,0:1|0:0,0:0:0:0:
336,232,25605,6,0,B|332:192|332:192|360:104,1,121.499996292114,2|0,0:0|0:0,0:0:0:0:
392,16,25805,5,0,1:0:0:0:
440,112,25905,2,0,B|356:115|356:115|288:64,1,161.999995056153,2|0,0:0|0:0,0:0:0:0:
492,196,26205,2,0,L|388:200,1,80.9999975280763,0|0,1:0|0:0,0:0:0:0:
212,71,26405,2,0,L|316:67,1,80.9999975280763,2|0,0:0|0:0,0:0:0:0:
446,279,26605,22,0,B|392:281|392:281|346:260|346:260|281:262,1,161.999995056153,4|0,1:2|0:0,0:0:0:0:
204,264,27005,1,8,0:1:0:0:
204,264,27205,5,2,0:0:0:0:
288,261,27305,1,2,0:0:0:0:
244,168,27405,6,0,L|180:168,1,53.9999983520508,0|0,1:0|0:0,0:0:0:0:
84,172,27605,1,2,0:0:0:0:
86,151,27705,1,2,0:0:0:0:
88,131,27805,5,8,0:1:0:0:
84,172,27905,1,2,0:0:0:0:
79,212,28005,1,2,0:0:0:0:
75,253,28105,1,2,0:0:0:0:
70,293,28205,6,0,B|152:280|152:280|240:320,1,161.999995056153,0|0,1:0|0:0,0:0:0:0:
308,344,28605,2,0,L|311:290,1,53.9999983520508,8|0,0:1|0:0,0:0:0:0:
400,256,28805,22,0,L|397:310,1,53.9999983520508,2|0,0:0|0:0,0:0:0:0:
424,244,28905,2,0,L|421:298,1,53.9999983520508,2|0,0:0|0:0,0:0:0:0:
316,180,29005,5,0,1:0:0:0:
316,180,29205,1,0,0:0:0:0:
320,88,29305,1,2,0:0:0:0:
188,124,29405,6,0,L|272:128,1,53.9999983520508,8|0,0:1|0:0,0:0:0:0:
417,176,29605,2,0,L|315:180,1,101.250003862381,2|0,0:1|0:0,0:0:0:0:
156,248,29805,6,0,L|273:252,1,107.999996704102,0|0,1:0|0:0,0:0:0:0:
72,244,30205,1,8,0:1:0:0:
264,252,30405,1,2,0:0:0:0:
340,256,30505,1,2,0:0:0:0:
416,260,30605,5,0,1:0:0:0:
417,240,30705,1,0,0:0:0:0:
418,220,30805,1,0,0:0:0:0:
419,200,30905,1,2,0:0:0:0:
420,180,31005,2,0,L|423:102,1,53.9999983520508,8|0,0:1|0:0,0:0:0:0:
343,178,31205,5,0,3:0:0:0:
492,268,31305,1,0,3:0:0:0:
336,344,31405,6,0,B|212:340|212:340|240:315,1,161.999995056153,0|0,1:0|0:0,0:0:0:0:
304,256,31805,2,0,L|392:260,1,53.9999983520508,8|0,0:1|0:0,0:0:0:0:
252,188,32005,21,2,0:0:0:0:
240,314,32105,1,2,0:0:0:0:
168,240,32205,5,0,1:0:0:0:
164,216,32305,1,0,0:0:0:0:
160,192,32405,1,0,0:0:0:0:
156,172,32505,1,2,0:0:0:0:
152,148,32605,2,0,L|140:80,1,53.9999983520508,8|0,0:1|0:0,0:0:0:0:
248,40,32805,70,0,L|236:108,1,53.9999983520508,2|0,0:0|0:0,0:0:0:0:
324,24,32905,2,0,L|312:92,1,53.9999983520508,2|0,0:0|0:0,0:0:0:0:
288,212,33005,6,0,L|420:204,1,107.999996704102,0|0,1:0|0:0,0:0:0:0:
206,219,33405,1,8,0:1:0:0:
476,200,33605,1,2,0:0:0:0:
395,205,33705,1,2,0:0:0:0:
312,212,33805,2,0,L|244:216,1,53.9999983520508,0|0,1:0|0:0,0:0:0:0:
59,239,34005,5,2,0:0:0:0:
80,274,34105,1,2,0:0:0:0:
114,298,34205,5,10,0:1:0:0:
59,239,34305,1,2,0:1:0:0:
95,167,34405,1,2,0:1:0:0:
177,182,34505,1,2,0:1:0:0:
186,262,34605,5,2,1:0:0:0:
152,104,34805,1,0,0:0:0:0:
284,216,35005,1,8,0:1:0:0:
300,32,35205,1,0,0:0:0:0:
299,48,35305,1,0,0:0:0:0:
297,64,35405,6,0,L|369:56,1,53.9999983520508,0|0,1:0|0:0,0:0:0:0:
287,184,35605,1,0,0:0:0:0:
286,200,35705,1,0,0:0:0:0:
284,216,35805,2,0,L|356:208,1,53.9999983520508,8|0,1:0|0:0,0:0:0:0:
484,132,36005,2,0,B|448:136|448:136|420:128|420:128|368:132,1,101.250003862381,2|0,0:0|0:0,0:0:0:0:
212,140,36205,5,2,1:2:0:0:
128,164,36305,1,2,0:0:0:0:
48,128,36405,1,2,0:0:0:0:
212,140,36605,1,8,0:1:0:0:
48,128,36805,21,0,0:0:0:0:
132,100,36905,1,0,0:0:0:0:
192,224,37005,6,0,L|200:296,1,67.5000025749208,2|0,1:2|0:0,0:0:0:0:
296,180,37205,2,0,L|303:112,1,67.5000025749208,2|0,0:0|0:0,0:0:0:0:
100,216,37405,2,0,L|116:356,1,135.000005149842,8|0,0:1|0:0,0:0:0:0:
288,264,37705,1,0,0:0:0:0:
211,139,37805,6,0,L|227:5,1,135.000005149842,2|0,1:2|0:0,0:0:0:0:
100,216,38105,2,0,L|115:81,1,135.000005149842,2|0,0:0|0:0,0:0:0:0:
198,232,38405,5,2,0:0:0:0:
211,139,38505,1,2,0:0:0:0:
100,216,38605,2,0,L|108:288,1,67.5000025749208,0|0,1:0|0:0,0:0:0:0:
308,164,38805,2,0,L|300:96,1,67.5000025749208
48,92,39005,5,2,0:0:0:0:
140,76,39105,1,2,0:0:0:0:
211,139,39205,1,2,0:0:0:0:
198,232,39305,1,2,0:0:0:0:
72,316,39405,6,0,B|128:312|128:312|188:336|188:336,1,107.999996704102,4|0,1:2|0:0,0:0:0:0:
288,360,39705,2,0,L|280:252,1,107.999996704102,2|0,0:0|0:0,0:0:0:0:
372,192,40005,6,0,P|375:218|385:243,1,53.9999983520508,2|0,0:0|0:0,0:0:0:0:
384,180,40105,2,0,P|400:201|421:217,1,53.9999983520508,2|0,0:0|0:0,0:0:0:0:
416,92,40205,6,0,L|276:88,1,135.000005149842,0|0,1:0|0:0,0:0:0:0:
239,165,40505,86,2,B|271:173|271:173|305:169,1,67.5000025749208,2|0,0:0|0:0,1:0:0:0:
152,193,40605,22,0,P|184:188|220:192,1,67.5000025749208,8|0,1:0|0:0,0:0:0:0:
56,144,40805,2,0,B|56:132|63:118|63:118|75:137|67:171|67:171|60:205|75:243,1,135,2|0,0:0|0:0,0:0:0:0:
104,300,41005,6,0,B|216:296,1,107.999996704102,0|0,1:0|0:0,0:0:0:0:
320,340,41305,2,0,B|432:336,1,107.999996704102,2|0,0:0|0:0,0:0:0:0:
364,224,41605,54,0,L|361:171,1,53.9999983520508,2|0,0:0|0:0,0:0:0:0:
376,204,41705,2,0,L|373:151,1,53.9999983520508,2|0,0:0|0:0,0:0:0:0:
296,92,41805,54,0,L|196:80,1,80.9999975280763,0|0,1:0|0:0,0:0:0:0:
135,111,42005,6,2,L|328:87,1,161.999995056153,2|0,0:0|0:0,0:1:0:0:
64,56,42205,70,0,B|48:96|48:96|60:187,1,135
73,285,42405,22,0,B|45:225|45:225|63:55,1,236.250002253056,2|0,0:0|0:0,0:0:0:0:
215,82,42605,86,0,B|328:96|328:96,1,107.999996704102,0|0,1:0|0:0,0:0:0:0:
280,176,42905,2,0,B|248:220|248:220|232:164,1,107.999996704102,2|0,0:0|0:0,0:0:0:0:
324,256,43205,38,0,L|388:268,1,53.9999983520508,2|0,0:0|0:0,0:0:0:0:
332,276,43305,2,0,L|396:288,1,53.9999983520508,2|0,0:0|0:0,0:0:0:0:
272,344,43405,6,0,B|244:324|232:292|232:292|204:312|160:316,1,135.000005149842,0|0,1:0|0:0,0:0:0:0:
85,297,43705,86,2,B|61:271|61:271|41:229,1,67.5000025749208,2|0,0:0|0:0,0:1:0:0:
45,175,43805,22,0,P|41:208|47:241,1,67.5000025749208,8|0,1:0|0:0,0:0:0:0:
168,315,44005,2,0,P|224:296|264:248,1,108,2|0,0:0|0:0,0:0:0:0:
159,171,44205,6,2,B|213:174|217:253|159:272|100:257|96:171|159:171|159:171|217:174|217:253|159:272|100:257|96:171|159:171|159:171|217:174|217:253|159:272|100:257|96:171|159:171|159:171|217:174|217:253|159:275|100:257|96:171|159:171|159:171,1,900,0|0,1:0|0:0,1:0:0:0:
248,116,44805,54,0,L|256:56,1,53.9999983520508,2|0,0:0|0:0,0:0:0:0:
260,128,44905,2,0,L|268:68,1,53.9999983520508,2|0,0:0|0:0,0:0:0:0:
332,164,45005,6,0,L|404:152,1,67.5000025749208,0|0,1:0|0:0,0:0:0:0:
168,80,45205,2,0,L|96:68,1,67.5000025749208
244,128,45405,6,0,L|252:236,1,101.250003862381,10|0,0:0|0:0,0:0:0:0:
247,282,45805,6,0,L|251:228,1,53.9999983520508,0|0,1:0|0:0,0:0:0:0:
148,176,46005,2,0,B|111:192|111:192|148:208,1,80.9999975280763,2|0,0:0|0:0,0:0:0:0:
266,95,46205,6,0,L|261:153,1,58.4999973220826,8|0,1:0|0:0,0:0:0:0:
364,216,46405,2,0,B|401:193|401:193|364:168,1,87.749995983124,2|0,0:0|0:0,0:0:0:0:
255,291,46605,6,0,L|250:228,1,62.9999980773926,0|0,1:0|0:0,0:0:0:0:
144,160,46805,2,0,B|110:191|110:191|146:223,1,94.499997116089,2|0,0:0|0:0,0:0:0:0:
255,86,47005,6,0,L|260:153,1,67.5000025749208,8|0,1:0|0:0,0:0:0:0:
369,229,47205,2,0,B|403:192|403:192|369:154,1,101.250003862381,2|0,0:0|0:0,0:0:0:0:
255,291,47405,22,0,L|330:304,1,72,0|0,1:0|0:0,0:0:0:0:
144,148,47605,2,0,B|113:192|113:192|144:236,1,108,2|0,0:0|0:0,0:0:0:0:
255,86,47805,6,0,L|180:73,1,76.5000014591217,8|0,1:0|0:0,0:0:0:0:
368,240,48005,2,0,B|399:192|399:192|368:144,1,114.750002188683,2|0,0:0|0:0,0:0:0:0:
255,86,48205,6,0,L|339:71,1,80.9999975280763,0|0,1:0|0:0,0:0:0:0:
144,140,48405,2,0,B|112:192|112:192|144:244,1,121.499996292114,2|0,0:0|0:0,0:0:0:0:
255,291,48605,6,0,L|159:307,1,85.4999977169037,8|0,1:0|0:0,0:0:0:0:
368,248,48805,2,0,B|400:192|400:192|368:136,1,128.249996575356,2|0,0:0|0:0,0:0:0:0:
255,86,49005,6,0,L|255:182,1,90,0|0,1:0|0:0,0:0:0:0:
255,311,49205,2,0,L|255:175,1,135,2|0,0:0|0:0,0:0:0:0:
302,94,49405,6,0,L|255:176,1,94.499997116089,8|0,1:0|0:0,0:0:0:0:
184,298,49605,2,0,L|255:176,1,141.749995674133,2|0,0:0|0:0,0:0:0:0:
340,125,49805,22,0,L|255:175,1,99.0000030212403,0|0,1:0|0:0,0:0:0:0:
127,250,50005,2,0,L|255:175,1,148.50000453186,2|0,0:0|0:0,0:0:0:0:
358,175,50205,6,0,L|255:175,1,103.500001974106,8|0,1:0|0:0,0:0:0:0:
99,175,50405,2,0,L|255:175,1,155.250002961159,2|0,0:0|0:0,0:0:0:0:
496,124,50605,6,0,P|508:160|500:228,1,107.999996704102,0|0,1:0|0:0,0:0:0:0:
255,175,50805,2,0,L|417:175,1,161.999995056153,2|0,0:0|0:0,0:0:0:0:
259,283,51005,6,0,P|245:229|255:175,1,112.5,8|0,1:0|0:0,0:0:0:0:
499,228,51205,2,0,L|327:228,1,168.75,2|0,0:0|0:0,0:0:0:0:
494,341,51405,6,0,P|507:301|498:228,1,116.999994644165,0|0,1:0|0:0,0:0:0:0:
259,283,51605,2,0,L|438:283,1,175.499991966248,2|0,0:0|0:0,0:0:0:0:
220,364,51805,22,0,L|156:364,1,60.7500002317429,2|0,0:0|0:0,0:0:0:0:
208,344,51905,2,0,L|144:344,1,60.7500002317429,2|0,0:0|0:0,0:0:0:0:
197,328,52005,2,0,L|133:328,1,60.7500002317429,2|0,0:0|0:0,0:0:0:0:
255,175,52205,6,0,L|408:172,1,135.000005149842,0|0,1:0|0:0,0:0:0:0:
476,169,52505,1,0,0:0:0:0:
424,252,52605,2,0,L|356:253,1,67.5000025749208,8|0,0:1|0:0,0:0:0:0:
232,80,52805,86,0,L|299:78,1,67.5000025749208,2|0,0:0|0:0,0:0:0:0:
219,93,52905,2,0,L|286:91,1,67.5000025749208,2|0,0:0|0:0,0:0:0:0:
255,175,53005,21,0,1:0:0:0:
156,184,53105,1,2,0:1:0:0:
56,192,53205,2,0,B|40:224|40:224|48:320,1,101.250003862381
112,324,53405,6,0,L|56:320,1,45,0|0,0:1|0:0,0:0:0:0:
220,336,53605,2,0,L|120:344,1,101.250003862381,2|0,0:0|0:0,0:0:0:0:
312,368,53805,6,0,L|304:212,1,135.000005149842,0|0,1:0|0:0,0:0:0:0:
352,160,54105,1,0,0:0:0:0:
420,216,54205,2,0,L|460:220,2,33.7500012874604,10|0|0,0:1|0:0|0:0,0:0:0:0:
352,160,54405,1,0,0:0:0:0:
305,233,54505,1,0,0:0:0:0:
224,188,54605,6,0,P|216:160|220:104,1,67.5000025749208,2|0,1:2|0:0,0:0:0:0:
184,276,54805,2,2,P|184:309|175:342,1,67.5000025749208,2|0,0:1|0:0,1:0:0:0:
0,208,55005,2,0,L|148:196,1,135.000005149842,10|0,0:0|0:0,0:0:0:0:
332,288,55405,6,0,L|424:280,2,90.0000034332277,2|0|2,1:2|0:0|0:2,0:0:0:0:
248,336,55805,2,0,P|216:328|160:340,1,67.5000025749208,8|0,0:1|0:0,0:0:0:0:
136,224,56005,6,0,P|169:229|197:246,1,67.5000025749208,2|0,0:0|0:0,0:0:0:0:
123,276,56105,2,0,P|152:259|185:254,1,67.5000025749208,2|0,0:0|0:0,0:0:0:0:
68,352,56205,5,0,1:0:0:0:
28,268,56305,1,2,0:1:0:0:
64,180,56405,2,0,B|72:128|72:128|60:72,1,101.250003862381
123,27,56605,6,0,L|180:24,1,45,8|0,0:1|0:0,0:0:0:0:
64,180,56805,2,0,B|54:128|54:128|64:71,1,101.250003862381,2|0,0:0|0:0,0:0:0:0:
167,24,57005,6,0,L|259:19,1,67.5000025749208,0|0,1:0|0:0,0:0:0:0:
308,132,57205,2,0,L|215:127,1,67.5000025749208,2|0,1:2|0:0,0:0:0:0:
152,208,57405,6,0,L|157:258,3,33.7500012874604,2|0|0|0,1:2|0:0|0:0|0:0,0:0:0:0:
239,252,57605,2,0,L|235:285,3,33.7500012874604,2|0|0|0,0:0|0:0|0:0|0:0,0:0:0:0:
312,328,57805,6,0,B|352:340|352:340|456:328,1,135.000005149842,0|0,1:0|0:0,0:0:0:0:
360,260,58105,1,0,0:0:0:0:
239,252,58205,2,0,B|227:292|227:292|239:396,1,135.000005149842,8|0,1:0|1:0,0:0:0:0:
304,192,58605,6,0,L|296:48,1,135.000005149842,4|0,1:2|0:0,0:0:0:0:
224,16,58905,1,0,0:0:0:0:
164,80,59005,2,0,P|140:88|92:76,1,67.5000025749208,8|0,0:1|0:0,0:0:0:0:
176,216,59205,2,0,P|181:191|215:155,1,67.5000025749208,2|0,0:0|0:0,0:0:0:0:
76,176,59405,21,0,1:0:0:0:
76,176,59505,2,0,L|88:316,1,135.000005149842
164,340,59805,1,8,0:1:0:0:
0,320,59905,5,2,0:1:0:0:
164,340,60005,2,0,L|256:332,1,67.5000025749208
484,272,60205,5,0,1:0:0:0:
416,266,60305,1,0,0:0:0:0:
344,256,60405,2,0,L|252:248,1,67.5000025749208,2|0,0:0|0:0,0:0:0:0:
164,248,60605,6,0,L|160:196,3,33.7500012874604,10|0|0|0,0:0|0:0|0:0|0:0,0:0:0:0:
157,147,60805,2,0,L|164:248,1,101.250003862381,2|0,0:2|0:0,0:0:0:0:
276,250,61005,6,0,L|272:306,3,33.7500012874604,2|0|0|0,1:2|0:0|0:0|0:0,0:0:0:0:
270,351,61205,2,0,L|276:249,1,101.250003862381
352,164,61405,6,0,L|428:168,1,67.5000025749208,10|0,0:0|0:0,0:0:0:0:
488,160,61605,2,0,L|389:154,1,80.9999975280763,2|0,0:0|0:0,0:0:0:0:
188,192,61805,22,0,L|196:272,1,72,0|0,1:0|0:0,0:0:0:0:
270,351,62005,2,0,L|278:202,1,128.249996575356,2|0,0:0|0:0,0:0:0:0:
172,180,62205,6,0,L|182:282,1,76.5000014591217,8|0,0:0|0:0,0:0:0:0:
284,364,62405,2,0,L|291:229,1,135,2|0,0:0|0:0,0:0:0:0:
156,168,62605,6,0,L|165:262,1,80.9999975280763,0|0,1:0|0:0,0:0:0:0:
296,376,62805,2,0,L|304:229,1,141.749995674133,2|0,0:1|0:0,0:0:0:0:
140,160,63005,6,0,L|149:254,1,85.4999977169037,8|0,1:0|0:0,0:0:0:0:
308,384,63205,2,0,L|318:204,1,148.50000453186,2|0,0:0|0:0,0:0:0:0:
184,76,63405,6,0,L|72:60,1,90,0|0,1:0|0:0,0:0:0:0:
316,236,63605,2,0,L|485:211,1,155.250002961159,2|0,0:0|0:0,0:0:0:0:
421,62,63805,6,0,L|328:76,1,94.499997116089,8|0,0:1|0:0,0:0:0:0:
192,236,64005,2,0,L|22:211,1,161.999995056153,2|0,0:0|0:0,0:0:0:0:
256,80,64205,22,0,B|256:184,1,101.250003862381,2|0,0:0|0:0,0:0:0:0:
256,181,65005,6,0,B|304:177|304:177|340:189|340:189|392:164|456:184,1,202.500007724762,0|0,1:0|0:0,0:0:0:0:
368,256,65405,6,0,P|400:248|448:260,1,67.5
453,183,65605,54,0,L|457:123,1,45,2|0,0:0|0:0,0:0:0:0:
384,156,65705,2,0,L|388:96,1,45,2|0,0:0|0:0,0:0:0:0:
264,104,65805,54,0,L|260:184,1,67.5000025749208,8|0,0:1|0:0,0:0:0:0:
184,216,66005,1,0,0:0:0:0:
104,176,66105,1,0,0:0:0:0:
189,333,66205,6,2,L|184:216,1,118.125004506111,2|0,0:0|0:0,0:0:0:0:
104,176,66605,5,0,1:0:0:0:
184,128,66705,1,0,0:0:0:0:
260,171,66805,1,0,0:0:0:0:
256,268,66905,1,0,0:0:0:0:
184,216,67005,21,0,0:0:0:0:
144,196,67105,1,0,0:0:0:0:
104,176,67205,5,0,1:0:0:0:
184,128,67305,1,0,1:0:0:0:
260,171,67405,6,0,L|336:164,1,67.5000025749208,8|0,0:1|0:0,0:0:0:0:
168,300,67605,2,0,L|92:293,1,67.5000025749208
344,256,67805,6,0,L|506:241,1,157.5,2|0,1:2|0:0,0:0:0:0:
327,164,68205,6,0,L|243:156,1,67.5000025749208,0|0,1:0|0:0,0:0:0:0:
164,148,68405,1,2,0:0:0:0:
168,176,68505,1,0,0:0:0:0:
12,280,68605,6,0,L|96:272,1,67.5000025749208
175,264,68805,6,0,L|235:258,1,45,2|0,0:0|0:0,1:0:0:0:
171,292,68905,2,0,L|231:286,1,45,2|0,0:0|0:0,1:0:0:0:
312,248,69005,6,0,L|320:332,1,67.5000025749208,8|0,0:1|0:0,0:0:0:0:
412,240,69205,86,0,L|472:234,1,45,2|0,0:0|0:0,1:0:0:0:
408,268,69305,2,0,L|468:262,1,45,2|0,0:0|0:0,1:0:0:0:
312,248,69405,22,0,B|306:183|306:183|322:133|322:133|317:64,1,180,2|0,0:1|0:0,0:0:0:0:
233,71,69705,2,0,L|238:123,1,38.2500007295609,0|0,3:0|0:0,0:0:0:0:
207,60,69805,6,0,B|165:77|165:77|93:65,1,101.250003862381,0|0,1:0|0:0,0:0:0:0:
43,52,70005,6,0,B|85:35|85:35|207:60,1,168.750006437302,2|0,0:0|0:0,0:0:0:0:
205,59,70405,38,0,L|210:104,1,45,2|0,0:0|0:0,0:0:0:0:
233,71,70505,2,0,L|238:123,1,45,2|0,0:0|0:0,0:0:0:0:
321,88,70605,70,0,L|329:179,1,67.5000025749208,8|0,0:1|0:0,0:0:0:0:
404,188,70805,1,0,0:0:0:0:
476,140,70905,1,2,0:0:0:0:
333,236,71005,6,0,L|338:303,1,67.5000025749208,8|0,0:1|0:0,0:0:0:0:
344,370,71205,22,0,L|333:236,1,135,2|0,0:1|0:0,0:0:0:0:
320,87,71405,6,0,L|326:155,1,67.5000025749208,0|0,1:0|0:0,0:0:0:0:
333,235,71605,6,0,L|320:86,1,148.50000453186,2|0,0:0|0:0,0:0:0:0:
291,7,71805,22,0,P|314:46|327:2,1,114.750002188683
203,47,72005,22,0,L|147:40,1,45,2|0,0:0|0:0,0:0:0:0:
208,72,72105,2,0,L|152:65,1,45,2|0,0:0|0:0,0:0:0:0:
68,106,72205,86,0,P|160:179|208:72,1,270,8|0,0:1|0:0,0:0:0:0:
326,153,72605,22,2,P|162:285|73:94,1,472.500018024445,0|0,0:0|0:0,0:1:0:0:
158,41,73005,5,0,1:0:0:0:
235,40,73105,1,0,0:0:0:0:
312,40,73205,1,2,0:0:0:0:
389,40,73305,1,0,0:0:0:0:
466,40,73405,6,0,B|486:103|486:103|467:176,1,135.000005149842,2|0,0:0|0:0,0:0:0:0:
452,264,73605,2,0,B|437:217|437:217|451:162,1,101.250003862381
472,288,73805,6,0,L|344:273,1,118.125004506111,8|0,0:1|0:0,0:0:0:0:
237,314,74205,2,0,L|483:286,1,236.250009012223,2|0,0:0|0:0,0:0:0:0:
468,168,74605,6,0,P|376:184|336:72,1,202.500007724762,2|0,1:2|0:0,0:0:0:0:
244,120,75005,2,0,P|244:86|255:54,1,67.5000025749208,2|0,0:0|0:0,0:0:0:0:
380,32,75205,1,0,0:0:0:0:
409,110,75305,1,0,0:0:0:0:
384,196,75405,38,0,P|384:240|412:228,1,90.0000034332277,2|0,0:1|0:0,0:0:0:0:
300,264,75538,2,0,P|300:308|272:296,1,90.0000034332277,2|0,0:1|0:0,0:0:0:0:
396,316,75671,2,0,P|396:360|424:348,1,90.0000034332277,2|0,0:1|0:1,0:0:0:0:
304,176,75805,70,0,L|244:184,1,45.0000017166138,2|0,0:0|0:0,0:0:0:0:
411,228,75938,2,0,L|471:236,1,45.0000017166138,2|0,0:0|0:0,0:0:0:0:
272,296,76071,2,0,L|212:304,1,45.0000017166138,2|0,0:0|0:0,0:0:0:0:
423,348,76205,22,0,L|318:361,1,101.250003862381,0|0,1:0|0:0,0:0:0:0:
227,301,76405,2,0,B|166:308|166:308|111:288|111:288|29:298,1,180,2|0,0:0|0:0,0:0:0:0:
51,296,76805,86,0,L|56:348,1,45,2|0,0:0|0:0,0:0:0:0:
124,292,76905,2,0,L|128:343,1,45,2|0,0:0|0:0,0:0:0:0:
227,301,77005,22,0,L|235:211,1,67.5000025749208,8|0,0:1|0:0,0:0:0:0:
324,200,77205,1,0,0:0:0:0:
364,288,77305,1,2,0:0:0:0:
227,301,77405,6,0,L|235:211,1,67.5000025749208,8|0,0:1|0:0,0:0:0:0:
245,99,77605,6,0,L|229:268,1,135.000005149842,2|0,0:1|0:0,0:0:0:0:
220,376,77805,5,4,1:2:0:0:
184,372,77905,1,0,0:0:0:0:
148,368,78005,1,0,0:0:0:0:
364,288,78205,1,8,0:0:0:0:
148,368,78405,5,2,0:0:0:0:
184,364,78505,1,2,0:0:0:0:
220,360,78605,1,0,1:0:0:0:
256,356,78705,1,0,0:0:0:0:
292,352,78805,53,0,0:0:0:0:
220,344,78905,1,0,0:0:0:0:
148,336,79005,2,0,L|144:272,1,53.9999983520508,8|0,0:0|0:0,0:0:0:0:
272,216,79205,2,0,L|268:269,1,53.9999983520508
296,133,79405,5,0,1:0:0:0:
224,141,79505,1,0,0:0:0:0:
152,149,79605,38,0,L|148:213,1,53.9999983520508,2|0,0:0|0:0,0:0:0:0:
76,160,79705,2,0,L|72:224,1,53.9999983520508,2|0,0:0|0:0,0:0:0:0:
144,282,79805,70,0,L|140:346,1,53.9999983520508,8|0,0:0|0:0,0:0:0:0:
64,304,80005,1,0,0:0:0:0:
228,260,80105,6,0,L|220:376,1,107.999996704102,2|0,0:0|0:0,0:0:0:0:
305,210,80405,6,0,P|364:220|312:264,1,161.999995056153
312,264,80605,6,0,L|305:210,1,53.9999983520508,0|2,1:0|0:0,0:0:0:0:
224,328,80805,2,0,L|230:240,1,67.5000025749208,0|2,0:0|0:0,0:0:0:0:
156,128,81005,6,0,L|161:203,1,76.5000014591217,0|0,1:0|0:0,0:0:0:0:
100,252,81205,1,2,0:0:0:0:
28,216,81305,1,0,0:0:0:0:
156,128,81405,2,0,L|276:132,1,114.750002188683,8|0,0:0|0:0,0:0:0:0:
348,132,81605,1,0,0:0:0:0:
368,312,81705,6,0,P|344:284|320:204,1,114.750002188683,2|0,0:0|0:0,0:0:0:0:
348,132,81905,1,0,0:0:0:0:
356,336,82005,6,0,P|334:306|317:224,1,114.750002188683,2|0,0:0|0:0,0:0:0:0:
348,132,82205,1,8,0:0:0:0:
341,355,82305,6,0,P|322:323|325:199,1,153.000002918243,2|0,0:0|0:0,0:0:0:0:
408,72,82605,6,0,L|452:68,3,38.2500007295609,2|0|0|0,1:2|0:0|0:0|0:0,0:0:0:0:
348,132,82805,2,0,L|304:128,3,38.2500007295609,2|0|0|0,0:0|0:0|0:0|0:0,0:0:0:0:
240,84,83005,21,10,0:0:0:0:
176,128,83105,1,0,0:0:0:0:
98,116,83205,1,0,0:0:0:0:
60,48,83305,1,0,0:0:0:0:
123,100,83405,5,2,1:2:0:0:
145,165,83505,1,0,0:0:0:0:
117,229,83605,1,0,0:0:0:0:
49,246,83705,1,0,0:0:0:0:
107,201,83805,6,0,L|189:193,1,76.5000014591217,10|0,0:0|0:0,0:0:0:0:
336,224,84005,2,2,L|418:216,2,51.0000009727478
260,268,84205,5,0,1:0:0:0:
256,188,84305,1,0,0:0:0:0:
252,108,84405,2,0,L|249:43,1,53.9999983520508
384,165,84605,2,0,L|387:230,1,53.9999983520508,8|0,0:0|0:0,0:0:0:0:
262,321,84805,38,0,L|259:256,1,53.9999983520508,2|0,0:0|0:0,0:0:0:0:
188,304,84905,2,0,L|185:239,1,53.9999983520508,2|0,0:0|0:0,0:0:0:0:
152,160,85005,69,0,1:0:0:0:
77,204,85105,1,0,0:0:0:0:
0,164,85205,2,0,L|12:72,1,80.9999975280763
82,33,85405,6,0,P|110:33|142:25,1,53.9999983520508,8|0,0:0|0:0,0:0:0:0:
215,0,85605,1,0,0:0:0:0:
285,48,85705,1,0,0:0:0:0:
236,176,85805,22,0,L|228:108,1,53.9999983520508,0|0,1:0|0:0,0:0:0:0:
360,144,86005,86,0,L|353:197,1,53.9999983520508,2|0,0:0|0:0,0:0:0:0:
348,228,86105,2,0,L|341:281,1,53.9999983520508,2|0,0:0|0:0,0:0:0:0:
242,229,86205,22,0,L|234:161,1,53.9999983520508,0|0,1:0|0:0,0:0:0:0:
444,196,86405,70,0,L|437:249,1,53.9999983520508,2|0,0:0|0:0,0:0:0:0:
432,276,86505,2,0,L|425:329,1,53.9999983520508,2|0,0:0|0:0,0:0:0:0:
248,282,86605,54,0,L|240:214,1,53.9999983520508,0|0,1:0|0:0,0:0:0:0:
132,156,86805,38,0,L|112:324,1,161.999995056153,2|0,0:0|0:0,0:0:0:0:
254,335,87005,70,0,L|246:267,1,53.9999983520508,8|0,0:0|0:0,0:0:0:0:
48,120,87205,22,0,L|28:288,1,161.999995056153,2|0,0:0|0:0,0:0:0:0:
247,281,87405,6,0,L|239:213,1,53.9999983520508,0|0,1:0|0:0,0:0:0:0:
231,148,87605,1,2,0:0:0:0:
324,240,87705,2,0,L|316:172,1,53.9999983520508,0|8,0:0|0:0,0:0:0:0:
308,107,87905,1,2,0:0:0:0:
400,196,88005,2,0,L|392:128,1,53.9999983520508,0|2,0:0|0:0,0:0:0:0:
486,219,88205,5,2,1:2:0:0:
460,265,88305,1,0,0:0:0:0:
412,288,88405,1,2,0:0:0:0:
360,278,88505,1,2,0:0:0:0:
324,240,88605,5,10,0:0:0:0:
285,310,88705,1,0,0:0:0:0:
212,345,88805,1,2,0:0:0:0:
133,331,88905,1,2,0:0:0:0:
78,272,89005,6,0,B|61:197|61:197|74:115,1,153.000002918243,2|0,1:2|0:0,0:0:0:0:
144,56,89305,2,0,L|328:64,1,153.000002918243,2|0,1:2|0:0,0:0:0:0:
376,16,89605,1,2,1:2:0:0:
436,120,89705,1,2,0:2:0:0:
336,196,89805,54,0,P|288:224|320:172,1,161.999995056153,2|0,1:0|0:0,0:0:0:0:
320,248,90005,6,0,P|260:224|292:144,1,161.999995056153,2|0,1:0|0:0,0:0:0:0:
416,248,90205,6,0,P|376:336|316:348,1,161.999995056153,2|0,1:2|0:0,0:0:0:0:
200,320,90405,54,0,L|196:256,1,53.9999983520508,2|0,0:0|0:0,0:0:0:0:
128,312,90505,2,0,L|124:248,1,53.9999983520508,2|0,0:0|0:0,0:0:0:0:
52,303,90605,6,0,L|45:151,1,135.000005149842,2|0,1:2|0:0,0:0:0:0:
104,112,90905,2,0,P|136:120|188:116,1,67.5000025749208,2|8,0:0|0:0,0:0:0:0:
420,64,91205,6,0,P|364:56|292:88,1,135.000005149842,2|0,0:0|1:0,0:0:0:0:
256,172,91505,2,0,L|268:320,1,135.000005149842,2|0,0:0|0:0,0:0:0:0:
212,376,91805,1,10,0:0:0:0:
356,224,92005,1,0,0:0:0:0:
170,119,92205,6,0,P|114:103|30:127,1,135.000005149842,2|0,1:2|0:0,0:0:0:0:
72,180,92505,2,0,P|107:172|153:186,1,67.5000025749208,2|8,0:0|0:0,0:0:0:0:
116,376,92805,6,0,B|96:328|96:328|108:240,1,135.000005149842,2|0,0:0|1:0,0:0:0:0:
268,172,93105,2,0,B|288:220|288:220|276:308,1,135.000005149842,2|0,0:0|0:0,0:0:0:0:
196,236,93405,1,10,0:0:0:0:
384,148,93605,1,2,0:0:0:0:
212,28,93805,6,0,L|60:40,1,135.000005149842,2|0,1:2|0:0,0:0:0:0:
32,100,94105,2,0,P|24:136|28:180,1,67.5000025749208,2|8,0:0|0:0,0:0:0:0:
120,280,94405,6,0,L|108:128,1,135.000005149842,2|0,0:0|1:0,0:0:0:0:
260,244,94705,2,0,L|249:378,1,135.000005149842,2|0,0:0|0:0,0:0:0:0:
204,160,95005,2,0,P|268:148|344:184,1,135.000005149842,10|0,0:0|0:0,0:0:0:0:
472,336,95405,22,0,P|408:348|332:312,1,135.000005149842,2|0,1:2|0:0,0:0:0:0:
324,239,95705,2,0,L|332:167,1,67.5000025749208,2|8,0:0|0:0,0:0:0:0:
200,200,96005,2,0,L|219:363,1,135.000005149842,2|0,0:0|1:0,0:0:0:0:
140,372,96305,5,0,0:0:0:0:
91,383,96405,1,2,0:0:0:0:
48,359,96505,1,0,0:0:0:0:
36,312,96605,1,10,0:0:0:0:
60,268,96705,1,0,0:0:0:0:
107,255,96805,1,2,0:0:0:0:
150,278,96905,1,0,0:0:0:0:
101,320,97005,6,0,L|88:176,1,135.000005149842,2|0,1:2|0:0,0:0:0:0:
148,140,97305,2,0,P|176:152|220:152,1,67.5000025749208,2|8,0:0|0:0,0:0:0:0:
208,312,97605,6,0,P|276:304|336:252,1,135.000005149842,2|0,0:0|1:0,0:0:0:0:
360,196,97905,2,0,L|368:336,1,135.000005149842,2|0,0:0|0:0,0:0:0:0:
432,376,98205,1,10,0:0:0:0:
244,232,98405,1,0,0:0:0:0:
428,92,98605,6,0,P|364:68|284:92,1,135.000005149842,2|0,1:2|0:0,0:0:0:0:
228,40,98905,2,0,P|200:56|152:56,1,67.5000025749208,2|8,0:0|0:0,0:0:0:0:
40,204,99205,6,0,P|104:180|184:204,1,135.000005149842,2|0,0:0|1:0,0:0:0:0:
244,232,99505,2,0,P|309:245|371:221,1,135.000005149842,2|0,0:0|0:0,0:0:0:0:
446,154,99805,21,10,0:0:0:0:
383,160,99905,1,2,0:0:0:0:
371,220,100005,1,2,0:0:0:0:
425,250,100105,1,0,0:0:0:0:
470,208,100205,6,0,L|475:54,1,135.000005149842,2|0,1:2|0:0,0:0:0:0:
408,40,100505,2,0,P|376:48|340:48,1,67.5000025749208,2|8,0:0|0:0,0:0:0:0:
88,96,100805,6,0,P|156:92|232:120,1,135.000005149842,2|0,0:0|1:0,0:0:0:0:
268,176,101105,2,0,L|263:310,1,135.000005149842,2|0,0:0|0:0,0:0:0:0:
324,360,101405,2,0,P|392:364|468:336,1,135.000005149842,10|0,0:0|0:0,0:0:0:0:
268,176,101805,6,0,L|263:310,1,135.000005149842,2|0,1:2|0:0,0:0:0:0:
324,360,102105,2,0,P|392:364|468:336,1,135.000005149842,2|0,0:0|0:0,0:0:0:0:
218,112,102405,2,0,P|154:91|88:96,1,135.000005149842,2|0,0:0|0:0,0:0:0:0:
0,204,102705,5,0,0:0:0:0:
4,184,102805,1,2,0:0:0:0:
8,164,102905,1,2,0:0:0:0:
12,144,103005,5,2,1:2:0:0:
37,177,103105,1,0,0:0:0:0:
49,217,103205,1,0,0:0:0:0:
45,259,103305,1,0,0:0:0:0:
26,296,103405,21,2,1:0:0:0:
77,254,103505,1,0,0:1:0:0:
144,248,103605,1,2,0:1:0:0:
202,281,103705,1,0,0:0:0:0:
232,340,103805,2,0,L|336:336,1,90,8|0,0:1|0:0,0:0:0:0:
460,268,104005,6,0,B|392:272|392:272|348:256|348:256|264:260,1,180,2|0,0:1|1:0,0:0:0:0:
472,188,104305,2,0,B|404:192|404:192|360:176|360:176|276:180,1,180,2|0,0:1|0:0,0:0:0:0:
144,184,104605,5,10,0:0:0:0:
66,158,104705,1,0,0:1:0:0:
66,77,104805,1,2,0:1:0:0:
144,52,104905,1,0,0:0:0:0:
191,118,105005,5,2,1:1:0:0:
144,184,105105,1,0,0:0:0:0:
168,261,105205,1,2,0:1:0:0:
243,292,105305,1,0,0:0:0:0:
313,252,105405,1,8,0:0:0:0:
325,172,105505,1,0,0:0:0:0:
273,113,105605,2,0,L|280:20,1,90,2|0,0:1|0:0,0:0:0:0:
392,224,105805,6,0,L|398:313,1,90,0|0,1:0|0:0,0:0:0:0:
236,196,106005,2,0,P|192:192|140:208,1,90,2|0,0:1|0:0,0:0:0:0:
243,292,106205,1,8,0:0:0:0:
313,252,106305,1,0,0:0:0:0:
325,172,106405,1,2,0:1:0:0:
273,113,106505,1,0,0:0:0:0:
196,112,106605,5,0,1:0:0:0:
256,160,106705,1,2,0:1:0:0:
332,156,106805,1,0,0:0:0:0:
386,102,106905,1,0,0:0:0:0:
397,26,107005,2,0,L|493:18,1,90,8|0,0:0|0:0,0:0:0:0:
486,188,107205,22,0,P|442:208|326:144,1,180,2|0,0:1|1:0,0:0:0:0:
252,24,107505,2,0,P|291:52|293:184,1,180,2|0,0:1|0:0,0:0:0:0:
272,272,107805,6,0,P|288:228|321:199,1,90,8|2,0:0|0:1,0:0:0:0:
400,308,108005,2,0,P|383:351|350:380,1,90,2|0,0:1|0:0,0:0:0:0:
223,376,108205,5,0,1:0:0:0:
180,316,108305,1,0,0:0:0:0:
191,243,108405,1,2,0:1:0:0:
248,198,108505,1,0,0:0:0:0:
320,200,108605,5,8,0:0:0:0:
248,232,108705,1,0,0:0:0:0:
176,200,108805,2,0,L|168:108,1,90,2|0,0:1|0:0,0:0:0:0:
240,32,109005,5,0,1:0:0:0:
313,13,109105,1,0,0:0:0:0:
384,40,109205,1,2,0:1:0:0:
425,104,109305,1,0,0:0:0:0:
421,180,109405,5,8,0:0:0:0:
400,102,109505,1,0,0:0:0:0:
450,35,109605,2,0,L|494:31,2,45,2|0|0,0:1|0:0|0:0,0:0:0:0:
300,116,109805,21,0,1:0:0:0:
235,146,109905,1,0,0:0:0:0:
164,132,110005,1,2,0:1:0:0:
116,79,110105,1,0,0:0:0:0:
108,8,110205,2,0,L|208:16,1,90,8|0,0:0|0:0,0:0:0:0:
300,116,110405,6,0,P|320:200|260:272,1,180,2|0,0:1|1:0,0:0:0:0:
108,280,110705,2,0,L|304:288,1,180,2|0,0:1|0:0,0:0:0:0:
340,384,111005,5,10,0:1:0:0:
387,337,111105,1,0,0:0:0:0:
398,272,111205,1,2,0:1:0:0:
367,213,111305,1,0,0:0:0:0:
307,184,111405,5,0,1:0:0:0:
368,229,111505,1,0,0:0:0:0:
444,217,111605,1,2,0:1:0:0:
487,154,111705,1,0,0:0:0:0:
473,79,111805,2,0,L|372:68,1,90,8|0,0:0|0:0,0:0:0:0:
251,52,112005,5,0,0:0:0:0:
177,76,112105,1,0,0:0:0:0:
104,52,112205,5,2,1:1:0:0:
179,65,112305,1,0,0:0:0:0:
223,128,112405,1,2,0:1:0:0:
211,204,112505,1,0,0:0:0:0:
149,249,112605,2,0,L|55:239,1,90,10|0,0:1|0:0,0:0:0:0:
226,345,112805,2,0,L|320:334,1,90,0|0,0:1|0:0,0:0:0:0:
453,377,113005,21,0,1:0:0:0:
505,319,113105,1,2,0:1:0:0:
512,242,113205,1,0,0:0:0:0:
491,170,113305,1,0,0:0:0:0:
429,123,113405,2,0,L|320:132,1,90,8|0,0:0|0:0,0:0:0:0:
264,248,113605,2,0,L|373:256,1,90,2|0,0:1|0:0,0:0:0:0:
168,128,113805,5,0,1:0:0:0:
115,185,113905,1,2,0:1:0:0:
101,262,114005,1,0,0:0:0:0:
129,334,114105,1,0,0:0:0:0:
191,381,114205,2,0,L|300:372,1,90,8|0,0:0|0:0,0:0:0:0:
353,255,114405,2,0,L|264:248,1,90,2|0,0:1|0:0,0:0:0:0:
453,377,114605,5,0,1:0:0:0:
505,319,114705,1,0,0:0:0:0:
512,242,114805,1,2,0:1:0:0:
491,170,114905,1,0,0:0:0:0:
429,123,115005,5,8,0:0:0:0:
376,185,115105,1,0,0:0:0:0:
298,207,115205,1,2,0:1:0:0:
220,182,115305,1,0,0:0:0:0:
169,119,115405,5,0,1:0:0:0:
244,163,115505,1,0,0:0:0:0:
270,247,115605,1,2,0:1:0:0:
232,327,115705,1,0,0:0:0:0:
151,360,115805,5,8,0:0:0:0:
233,302,115905,1,0,0:0:0:0:
332,286,116005,1,2,0:1:0:0:
429,313,116105,1,0,0:0:0:0:
504,379,116205,5,4,1:2:0:0:
