osu file format v14

[General]
AudioFilename: audio.mp3
AudioLeadIn: 0
PreviewTime: 44813
Countdown: 0
SampleSet: Soft
StackLeniency: 0.5
Mode: 0
LetterboxInBreaks: 0
WidescreenStoryboard: 0

[Editor]
Bookmarks: 9001,14251,15001,39001,45001,51001,57001,66001,68251,69001,93001,105001
DistanceSpacing: 1
BeatDivisor: 4
GridSize: 8
TimelineZoom: 4.299998

[Metadata]
Title:Endorphin
TitleUnicode:エンドルフィン
Artist:U1 overground
ArtistUnicode:U1 overground
Creator:Yooh
Version:BEGINNER
Source:DanceDanceRevolution (2014)
Tags:U1-ASAMi Yuichi Asami electronic dubstep ddr piroshki dtm9 nowa kalindraz
BeatmapID:2221932
BeatmapSetID:1043723

[Difficulty]
HPDrainRate:2
CircleSize:2.5
OverallDifficulty:2
ApproachRate:4
SliderMultiplier:0.899999999999998
SliderTickRate:1

[Events]
//Background and Video events
0,0,"rE3dZt.jpg",0,0
//Break Periods
2,39201,43681
//Storyboard Layer 0 (Background)
//Storyboard Layer 1 (Fail)
//Storyboard Layer 2 (Pass)
//Storyboard Layer 3 (Foreground)
//Storyboard Layer 4 (Overlay)
//Storyboard Sound Samples

[TimingPoints]
3001,375,4,2,1,80,1,0

[Colours]
Combo1 : 253,162,100
Combo2 : 79,159,219
Combo3 : 205,78,205
Combo4 : 252,140,184

[HitObjects]
134,335,3001,6,0,B|164:322|164:322|244:332|244:332|273:352|273:352|361:362|361:362|395:342,1,269.999999999999
476,319,4501,1,2,0:0:0:0:
487,230,4876,2,0,B|466:203|434:199|434:199|307:183,1,180,2|2,0:0|0:0,0:0:0:0:
229,205,6001,6,0,L|216:101,1,89.9999999999998,8|0,0:0|0:0,0:0:0:0:
137,74,6751,2,0,P|165:40|207:25,1,89.9999999999998,4|0,0:0|0:0,0:0:0:0:
297,20,7501,2,0,B|424:35|424:35|495:44|484:131|421:123|421:123|413:122,1,269.999999999999,10|6,0:0|0:0,0:0:0:0:
340,115,9001,6,0,B|363:305,1,180,8|8,0:0|0:0,0:0:0:0:
371,383,10126,1,6,0:0:0:0:
282,368,10501,2,0,P|237:347|201:300,1,89.9999999999998,8|6,0:0|0:0,0:0:0:0:
154,247,11251,2,0,L|142:151,1,89.9999999999998,8|6,0:0|0:0,0:0:0:0:
217,107,12001,6,0,B|243:86|283:90|283:90|394:104,1,180,8|8,0:0|0:0,0:0:0:0:
481,119,13126,2,0,L|493:23,2,89.9999999999998,6|10|12,0:0|0:0|0:0,0:0:0:0:
402,378,15001,5,8,0:0:0:0:
329,327,15376,2,0,B|226:340|226:340|179:346|159:316,1,180,6|4,0:0|0:0,0:0:0:0:
117,236,16501,2,0,L|22:223,1,89.9999999999998,8|4,0:0|0:0,0:0:0:0:
44,136,17251,2,0,L|144:150,1,89.9999999999998,8|4,0:0|0:0,0:0:0:0:
223,161,18001,5,8,0:0:0:0:
299,211,18376,2,0,B|320:185|316:153|316:153|301:26,1,180,6|4,0:0|0:0,0:0:0:0:
392,26,19501,2,0,L|404:122,1,89.9999999999998,10|4,0:0|0:0,0:0:0:0:
486,152,20251,2,0,L|475:248,1,89.9999999999998,8|4,0:0|0:0,0:0:0:0:
419,312,21001,6,0,P|458:328|508:326,2,89.9999999999998,8|4|8,0:0|0:0|0:0,0:0:0:0:
341,268,22126,1,4,0:0:0:0:
248,278,22501,2,0,L|148:289,1,89.9999999999998,10|4,0:0|0:0,0:0:0:0:
88,343,23251,2,0,P|71:295|78:245,1,89.9999999999998,8|4,0:0|0:0,0:0:0:0:
142,199,24001,5,8,0:0:0:0:
132,110,24376,1,4,0:0:0:0:
214,73,24751,2,0,B|262:68|262:68|294:64|306:30,1,89.9999999999998,8|4,0:0|0:0,0:0:0:0:
383,20,25501,2,0,B|431:26|431:26|463:30|475:64,1,89.9999999999998,10|4,0:0|0:0,0:0:0:0:
486,135,26251,5,8,0:0:0:0:
497,224,26626,1,4,0:0:0:0:
449,300,27001,5,8,0:0:0:0:
375,351,27376,2,0,B|355:325|359:293|359:293|362:263|362:263|371:242|371:242|380:166,1,180,6|4,0:0|0:0,0:0:0:0:
336,98,28501,2,0,P|304:125|290:173,1,89.9999999999998,8|4,0:0|0:0,0:0:0:0:
272,258,29251,2,0,L|260:362,1,89.9999999999998,8|4,0:0|0:0,0:0:0:0:
174,370,30001,6,0,B|61:357|61:357|22:353|2:318,1,180,8|8,0:0|0:0,0:0:0:0:
16,235,31126,1,4,0:0:0:0:
26,145,31501,2,0,L|39:42,2,89.9999999999998,10|4|8,0:0|0:0|0:0,0:0:0:0:
116,156,32626,2,0,L|126:68,1,89.9999999999998,4|8,0:0|0:0,0:0:0:0:
205,24,33376,6,0,L|394:47,1,180,6|4,0:0|0:0,0:0:0:0:
472,59,34501,1,0,0:0:0:0:
488,148,34876,2,0,L|500:244,1,89.9999999999998,6|8,0:0|0:0,0:0:0:0:
459,318,35626,1,4,0:0:0:0:
369,328,36001,6,0,B|361:278|406:243|406:243|394:142,1,180,8|8,0:0|0:0,0:0:0:0:
314,127,37126,1,4,0:0:0:0:
242,180,37501,2,0,B|192:187|192:187|183:185|183:185|119:193|119:193|87:197|62:178,1,180,8|8,0:0|0:0,0:0:0:0:
54,91,38626,2,0,B|68:74|90:71|90:71|137:65,1,89.9999999999998,4|2,0:0|0:0,0:0:0:0:
11,16,45001,5,8,0:0:0:0:
87,65,45376,2,0,B|80:128|80:128|69:151|69:151|63:199|63:199|59:230|89:250,1,180,6|4,0:0|0:0,0:0:0:0:
165,248,46501,2,0,B|154:343,1,89.9999999999998,8|4,0:0|0:0,0:0:0:0:
243,351,47251,2,0,B|255:255,1,89.9999999999998,8|4,0:0|0:0,0:0:0:0:
344,271,48001,6,0,B|384:275|384:275|448:283|458:196|395:188|395:188|387:187,1,180,8|8,0:0|0:0,0:0:0:0:
311,179,49126,1,4,0:0:0:0:
222,168,49501,2,0,L|127:156,1,89.9999999999998,8|4,0:0|0:0,0:0:0:0:
48,189,50251,2,0,P|45:145|69:94,1,89.9999999999998,8|4,0:0|0:0,0:0:0:0:
126,39,51001,5,8,0:0:0:0:
215,50,51376,2,0,L|310:61,1,89.9999999999998,4|8,0:0|0:0,0:0:0:0:
385,20,52126,1,4,0:0:0:0:
475,32,52501,6,0,B|470:82|418:105|418:105|405:206,1,180,8|8,0:0|0:0,0:0:0:0:
399,276,53626,1,4,0:0:0:0:
347,351,54001,2,0,P|389:365|448:354,2,89.9999999999998,8|8|0,0:0|0:0|0:0,0:0:0:0:
270,305,55126,1,4,0:0:0:0:
184,329,55501,2,0,P|139:333|85:307,1,89.9999999999998,8|4,0:0|0:0,0:0:0:0:
25,265,56251,2,0,L|36:169,1,89.9999999999998,8|4,0:0|0:0,0:0:0:0:
50,86,57001,6,0,B|139:101|139:101|226:77|226:77|273:91|295:129|295:129|341:103|353:63|353:63|444:52|444:52|455:150,1,539.999999999999,8|8,0:0|0:0,0:0:0:0:
465,229,59626,1,0,0:0:0:0:
476,318,60001,6,0,B|456:347|416:342|416:342|297:328,1,180,8|8,0:0|0:0,0:0:0:0:
221,359,61125,1,8,0:0:0:0:
132,370,61500,2,0,B|123:298|123:298|126:260|126:260|117:179,1,180,8|8,0:0|0:0,0:0:0:0:
173,119,62626,1,8,0:0:0:0:
242,61,63001,6,0,L|345:48,1,89.9999999999998,8|8,0:0|0:0,0:0:0:0:
403,104,63751,2,0,L|506:116,1,89.9999999999998,8|8,0:0|0:0,0:0:0:0:
483,205,64501,2,0,L|304:185,1,180,8|8,0:0|0:0,0:0:0:0:
228,234,65626,1,0,0:0:0:0:
157,289,66001,6,0,P|148:328|164:377,1,89.9999999999998,8|8,0:0|0:0,0:0:0:0:
239,325,66751,2,0,L|328:338,1,89.9999999999998,8|8,0:0|0:0,0:0:0:0:
409,377,67501,5,4,0:0:0:0:
420,287,67876,1,4,0:0:0:0:
431,198,68251,1,14,0:0:0:0:
512,37,69001,5,8,0:0:0:0:
422,28,69376,2,0,L|318:15,1,89.9999999999998,2|6,0:0|0:0,0:0:0:0:
263,72,70126,1,2,0:0:0:0:
191,17,70501,2,0,B|174:36|174:36|166:100,1,89.9999999999998,8|0,0:0|0:0,0:0:0:0:
231,161,71251,2,0,B|238:224|238:224|225:250,1,89.9999999999998,4|0,0:0|0:0,0:0:0:0:
138,236,72001,5,8,0:0:0:0:
89,312,72376,2,0,L|-6:300,2,89.9999999999998,2|6|0,0:0|0:0|0:0,0:0:0:0:
164,361,73501,2,0,L|260:372,1,89.9999999999998,10|0,0:0|0:0,0:0:0:0:
335,334,74251,1,4,0:0:0:0:
511,371,75001,5,8,0:0:0:0:
490,283,75376,2,0,B|507:140|507:140|486:90,1,180,2|0,0:0|0:0,0:0:0:0:
417,155,76501,2,0,L|321:143,1,89.9999999999998,8|0,0:0|0:0,0:0:0:0:
264,80,77251,2,0,B|240:110|240:110|235:166,1,89.9999999999998,4|0,0:0|0:0,0:0:0:0:
296,227,78001,5,8,0:0:0:0:
286,317,78376,2,0,L|190:305,1,89.9999999999998,2|4,0:0|0:0,0:0:0:0:
113,338,79126,1,0,0:0:0:0:
41,284,79501,2,0,B|49:215|49:215|62:181|62:181|73:94,1,180,10|4,0:0|0:0,0:0:0:0:
225,14,81001,6,0,B|238:31|238:31|302:39|302:39|319:33|319:33|398:43,1,180,10|4,0:0|0:0,0:0:0:0:
484,51,82126,1,0,0:0:0:0:
474,141,82501,6,0,L|461:238,1,89.9999999999998,8|0,0:0|0:0,0:0:0:0:
509,306,83251,2,0,B|474:322|474:322|418:313,1,89.9999999999998,4|0,0:0|0:0,0:0:0:0:
334,328,84001,5,8,0:0:0:0:
245,340,84376,1,8,0:0:0:0:
156,351,84751,1,8,0:0:0:0:
67,361,85126,2,0,B|30:331|30:331|14:287,1,89.9999999999998,10|10,0:0|0:0,0:0:0:0:
29,201,85876,2,0,L|51:17,1,180,2|2,0:0|0:0,0:0:0:0:
140,29,87001,5,8,0:0:0:0:
129,119,87376,2,0,L|119:208,1,89.9999999999998,2|6,0:0|0:0,0:0:0:0:
187,267,88126,1,0,0:0:0:0:
277,255,88501,2,0,B|340:247|340:247|367:259,1,89.9999999999998,8|0,0:0|0:0,0:0:0:0:
375,348,89251,2,0,B|436:355|436:355|468:342,1,89.9999999999998,4|0,0:0|0:0,0:0:0:0:
472,254,90001,5,8,0:0:0:0:
483,165,90376,2,0,B|411:173|411:173|384:152|384:152|297:163,1,180,2|2,0:0|0:0,0:0:0:0:
226,133,91501,2,0,L|214:43,2,89.9999999999998,10|2|4,0:0|0:0|0:0,0:0:0:0:
157,191,92626,1,0,0:0:0:0:
67,201,93001,6,0,P|123:275|206:268,1,180,8|8,0:0|0:0,0:0:0:0:
292,280,94126,1,4,0:0:0:0:
318,366,94501,2,0,P|342:355|379:304,1,89.9999999999998,8|4,0:0|0:0,0:0:0:0:
467,327,95251,2,0,P|470:299|445:241,1,89.9999999999998,8|4,0:0|0:0,0:0:0:0:
392,171,96001,6,0,B|320:179|320:179|290:199|290:199|219:208,1,180,8|8,0:0|0:0,0:0:0:0:
129,219,97126,1,4,0:0:0:0:
66,283,97501,2,0,B|39:262|35:230|35:230|19:102,1,180,8|8,0:0|0:0,0:0:0:0:
10,23,98626,1,4,0:0:0:0:
96,49,99001,6,0,L|191:37,1,89.9999999999998,8|8,0:0|0:0,0:0:0:0:
274,27,99751,2,0,P|287:69|279:113,1,89.9999999999998,8|8,0:0|0:0,0:0:0:0:
190,124,100501,2,0,L|200:213,1,89.9999999999998,8|8,0:0|0:0,0:0:0:0:
211,302,101251,2,0,P|253:315|297:307,1,89.9999999999998,8|8,0:0|0:0,0:0:0:0:
256,192,102001,12,14,104813,0:0:0:0:
