osu file format v14

[General]
AudioFilename: audio.mp3
AudioLeadIn: 0
PreviewTime: 52544
Countdown: 0
SampleSet: None
StackLeniency: 0.7
Mode: 3
LetterboxInBreaks: 0
SpecialStyle: 0
WidescreenStoryboard: 1

[Editor]
Bookmarks: 48119,50969
DistanceSpacing: 0.9
BeatDivisor: 6
GridSize: 4
TimelineZoom: 2.000007

[Metadata]
Title:Dopamine
TitleUnicode:ドーパミン
Artist:U1 overground
ArtistUnicode:U1 overground
Creator:juankristal
Version:Anxiety
Source:jubeat saucer fulfill
Tags:DanceDanceRevolution DDR Dance Revolution plus SOUND VOLTEX III GRAVITY WARS SDVX yuichi asami POLICY BREAK Kaitou BisCo no yokokujou!! 怪盗BisCoの予告状!! neurotransmitter
BeatmapID:2054230
BeatmapSetID:695124

[Difficulty]
HPDrainRate:6
CircleSize:4
OverallDifficulty:7.6
ApproachRate:9.5
SliderMultiplier:1.9
SliderTickRate:1

[Events]
//Background and Video events
0,0,"6947991_p0.jpg",0,0
//Break Periods
//Storyboard Layer 0 (Background)
//Storyboard Layer 1 (Fail)
//Storyboard Layer 2 (Pass)
//Storyboard Layer 3 (Foreground)
//Storyboard Sound Samples

[TimingPoints]
1019,300,4,1,0,65,1,0
20219,-100,4,1,0,65,0,1
39419,-100,4,1,0,50,0,0
53819,-100,4,1,0,65,0,1
73019,-100,4,1,0,65,0,0
80219,-100,4,1,0,65,0,1
87419,-100,4,1,0,50,0,0
106619,-100,4,1,0,65,0,1
116219,-100,4,1,0,50,0,0

[Colours]
Combo1 : 0,255,255
Combo2 : 128,255,0

[HitObjects]
448,192,1019,128,0,1319:0:0:0:0:
64,192,1019,128,0,1169:0:0:0:0:
192,192,1094,128,0,1169:0:0:0:0:
320,192,1169,128,0,1319:0:0:0:0:
64,192,1244,128,0,1319:0:0:0:0:
192,192,1319,128,0,1469:0:0:0:0:
448,192,1394,128,0,1469:0:0:0:0:
64,192,1469,128,0,1619:0:0:0:0:
320,192,1544,128,0,1619:0:0:0:0:
448,192,1619,128,0,1919:0:0:0:0:
192,192,1619,1,0,0:0:0:0:
64,192,1694,128,0,1769:0:0:0:0:
192,192,1769,128,0,1844:0:0:0:0:
320,192,1844,128,0,1919:0:0:0:0:
192,192,1919,128,0,2069:0:0:0:0:
64,192,1919,1,0,0:0:0:0:
448,192,1994,128,0,2069:0:0:0:0:
64,192,2069,128,0,2219:0:0:0:0:
320,192,2069,1,0,0:0:0:0:
448,192,2144,128,0,2219:0:0:0:0:
192,192,2219,128,0,2294:0:0:0:0:
320,192,2219,128,0,2369:0:0:0:0:
192,192,2369,128,0,2669:0:0:0:0:
448,192,2369,128,0,2444:0:0:0:0:
64,192,2444,128,0,2519:0:0:0:0:
448,192,2519,128,0,2744:0:0:0:0:
320,192,2519,128,0,2594:0:0:0:0:
64,192,2669,128,0,2819:0:0:0:0:
320,192,2744,128,0,2819:0:0:0:0:
192,192,2819,128,0,3044:0:0:0:0:
448,192,2819,128,0,2969:0:0:0:0:
320,192,2969,128,0,3119:0:0:0:0:
448,192,3044,128,0,3119:0:0:0:0:
192,192,3119,128,0,3269:0:0:0:0:
64,192,3119,128,0,3344:0:0:0:0:
320,192,3269,128,0,3419:0:0:0:0:
64,192,3419,128,0,3794:0:0:0:0:
448,192,3419,128,0,3719:0:0:0:0:
192,192,3419,1,0,0:0:0:0:
320,192,3494,128,0,3644:0:0:0:0:
192,192,3569,128,0,3719:0:0:0:0:
320,192,3719,128,0,3794:0:0:0:0:
192,192,3794,1,0,0:0:0:0:
320,192,3869,128,0,4169:0:0:0:0:
448,192,3869,128,0,4319:0:0:0:0:
192,192,3944,128,0,4094:0:0:0:0:
64,192,4019,128,0,4169:0:0:0:0:
192,192,4169,128,0,4244:0:0:0:0:
320,192,4244,1,0,0:0:0:0:
64,192,4319,128,0,4619:0:0:0:0:
192,192,4319,128,0,4544:0:0:0:0:
320,192,4394,128,0,4544:0:0:0:0:
448,192,4469,128,0,4619:0:0:0:0:
320,192,4619,128,0,4769:0:0:0:0:
64,192,4694,128,0,4769:0:0:0:0:
192,192,4769,128,0,4844:0:0:0:0:
448,192,4769,128,0,4919:0:0:0:0:
192,192,4919,128,0,5144:0:0:0:0:
320,192,4919,128,0,5069:0:0:0:0:
64,192,4994,128,0,5219:0:0:0:0:
448,192,5069,128,0,5219:0:0:0:0:
192,192,5219,128,0,5369:0:0:0:0:
320,192,5219,128,0,5519:0:0:0:0:
64,192,5294,128,0,5369:0:0:0:0:
448,192,5369,128,0,5519:0:0:0:0:
192,192,5519,128,0,5744:0:0:0:0:
64,192,5519,128,0,5819:0:0:0:0:
448,192,5594,1,0,0:0:0:0:
320,192,5669,1,0,0:0:0:0:
320,192,5819,128,0,6194:0:0:0:0:
448,192,5819,128,0,6044:0:0:0:0:
192,192,5819,128,0,5969:0:0:0:0:
64,192,5969,128,0,6044:0:0:0:0:
192,192,6044,128,0,6119:0:0:0:0:
448,192,6119,128,0,6194:0:0:0:0:
64,192,6194,128,0,6344:0:0:0:0:
320,192,6269,128,0,6569:0:0:0:0:
448,192,6269,128,0,6494:0:0:0:0:
192,192,6269,128,0,6419:0:0:0:0:
64,192,6419,128,0,6644:0:0:0:0:
192,192,6494,128,0,6569:0:0:0:0:
448,192,6569,128,0,6644:0:0:0:0:
192,192,6644,128,0,6719:0:0:0:0:
320,192,6719,128,0,6794:0:0:0:0:
448,192,6719,128,0,6944:0:0:0:0:
64,192,6794,128,0,6869:0:0:0:0:
320,192,6869,128,0,7019:0:0:0:0:
64,192,6944,128,0,7019:0:0:0:0:
192,192,7019,128,0,7094:0:0:0:0:
320,192,7094,128,0,7319:0:0:0:0:
448,192,7169,128,0,7244:0:0:0:0:
64,192,7169,128,0,7319:0:0:0:0:
448,192,7319,128,0,7469:0:0:0:0:
192,192,7319,128,0,7619:0:0:0:0:
320,192,7394,128,0,7469:0:0:0:0:
64,192,7469,128,0,7544:0:0:0:0:
320,192,7544,128,0,7619:0:0:0:0:
448,192,7619,128,0,7844:0:0:0:0:
64,192,7619,128,0,7769:0:0:0:0:
192,192,7694,128,0,7844:0:0:0:0:
320,192,7769,128,0,7919:0:0:0:0:
448,192,7919,128,0,8144:0:0:0:0:
64,192,7919,128,0,8144:0:0:0:0:
320,192,7994,128,0,8144:0:0:0:0:
192,192,8069,128,0,8219:0:0:0:0:
448,192,8219,128,0,8819:0:0:0:0:
64,192,8219,128,0,8294:0:0:0:0:
192,192,8294,128,0,8369:0:0:0:0:
64,192,8369,128,0,8519:0:0:0:0:
320,192,8369,128,0,8594:0:0:0:0:
192,192,8444,128,0,8519:0:0:0:0:
64,192,8594,128,0,8669:0:0:0:0:
320,192,8669,128,0,8744:0:0:0:0:
192,192,8669,128,0,8744:0:0:0:0:
64,192,8744,128,0,8819:0:0:0:0:
320,192,8819,128,0,9044:0:0:0:0:
192,192,8819,128,0,8969:0:0:0:0:
448,192,8894,128,0,9044:0:0:0:0:
64,192,8969,128,0,9044:0:0:0:0:
192,192,9044,128,0,9119:0:0:0:0:
320,192,9119,128,0,9269:0:0:0:0:
64,192,9119,128,0,9344:0:0:0:0:
192,192,9194,128,0,9344:0:0:0:0:
320,192,9344,128,0,9419:0:0:0:0:
448,192,9419,128,0,9494:0:0:0:0:
192,192,9419,128,0,9644:0:0:0:0:
64,192,9494,128,0,9569:0:0:0:0:
448,192,9569,128,0,9719:0:0:0:0:
320,192,9569,128,0,9719:0:0:0:0:
64,192,9644,128,0,9719:0:0:0:0:
192,192,9719,128,0,9869:0:0:0:0:
320,192,9794,128,0,9869:0:0:0:0:
448,192,9869,128,0,9944:0:0:0:0:
64,192,9869,128,0,10019:0:0:0:0:
320,192,9944,128,0,10019:0:0:0:0:
448,192,10019,128,0,10619:0:0:0:0:
192,192,10019,128,0,10094:0:0:0:0:
64,192,10094,128,0,10169:0:0:0:0:
320,192,10169,128,0,10244:0:0:0:0:
192,192,10169,128,0,10244:0:0:0:0:
64,192,10244,128,0,10319:0:0:0:0:
192,192,10319,128,0,10544:0:0:0:0:
320,192,10319,128,0,10394:0:0:0:0:
64,192,10394,128,0,10469:0:0:0:0:
320,192,10469,128,0,10619:0:0:0:0:
64,192,10544,128,0,10619:0:0:0:0:
192,192,10619,128,0,13919:0:0:0:0:
448,192,10769,128,0,10844:0:0:0:0:
320,192,10844,1,0,0:0:0:0:
64,192,10919,128,0,11069:0:0:0:0:
448,192,10919,1,0,0:0:0:0:
448,192,11069,128,0,11144:0:0:0:0:
64,192,11144,1,0,0:0:0:0:
448,192,11219,128,0,11369:0:0:0:0:
320,192,11219,1,0,0:0:0:0:
64,192,11369,1,0,0:0:0:0:
448,192,11444,1,0,0:0:0:0:
64,192,11519,128,0,11744:0:0:0:0:
320,192,11519,1,0,0:0:0:0:
320,192,11669,1,0,0:0:0:0:
448,192,11744,1,0,0:0:0:0:
320,192,11819,128,0,11894:0:0:0:0:
64,192,11819,1,0,0:0:0:0:
448,192,11969,1,0,0:0:0:0:
320,192,12044,128,0,12119:0:0:0:0:
64,192,12119,1,0,0:0:0:0:
448,192,12119,1,0,0:0:0:0:
320,192,12269,128,0,12344:0:0:0:0:
448,192,12269,128,0,12344:0:0:0:0:
64,192,12344,1,0,0:0:0:0:
320,192,12419,128,0,12569:0:0:0:0:
448,192,12419,128,0,12494:0:0:0:0:
448,192,12569,128,0,12719:0:0:0:0:
64,192,12569,1,0,0:0:0:0:
320,192,12644,1,0,0:0:0:0:
64,192,12719,128,0,12869:0:0:0:0:
448,192,12794,1,0,0:0:0:0:
320,192,12869,128,0,13019:0:0:0:0:
448,192,13019,128,0,13844:0:0:0:0:
64,192,13019,128,0,13094:0:0:0:0:
64,192,13169,1,0,0:0:0:0:
320,192,13244,128,0,13319:0:0:0:0:
64,192,13319,1,0,0:0:0:0:
320,192,13469,128,0,13544:0:0:0:0:
64,192,13544,1,0,0:0:0:0:
320,192,13619,128,0,13769:0:0:0:0:
64,192,13769,1,0,0:0:0:0:
320,192,13844,1,0,0:0:0:0:
64,192,13919,128,0,14219:0:0:0:0:
448,192,13919,128,0,14069:0:0:0:0:
320,192,14069,128,0,14144:0:0:0:0:
448,192,14144,128,0,14219:0:0:0:0:
192,192,14219,128,0,14519:0:0:0:0:
320,192,14219,128,0,14369:0:0:0:0:
64,192,14369,128,0,14444:0:0:0:0:
320,192,14444,128,0,14519:0:0:0:0:
448,192,14519,128,0,14669:0:0:0:0:
64,192,14519,128,0,14669:0:0:0:0:
192,192,14669,128,0,14869:0:0:0:0:
320,192,14669,128,0,14819:0:0:0:0:
64,192,14744,128,0,14894:0:0:0:0:
448,192,14819,128,0,14969:0:0:0:0:
320,192,14869,128,0,14969:0:0:0:0:
192,192,14919,128,0,15019:0:0:0:0:
64,192,14969,128,0,15044:0:0:0:0:
448,192,15044,128,0,15119:0:0:0:0:
320,192,15044,128,0,15119:0:0:0:0:
64,192,15119,128,0,15194:0:0:0:0:
192,192,15119,128,0,15194:0:0:0:0:
448,192,15194,128,0,15269:0:0:0:0:
320,192,15194,128,0,15269:0:0:0:0:
64,192,15269,128,0,15344:0:0:0:0:
192,192,15269,128,0,15344:0:0:0:0:
320,192,15344,128,0,15419:0:0:0:0:
448,192,15419,128,0,17069:0:0:0:0:
64,192,15419,128,0,15719:0:0:0:0:
320,192,15569,1,0,0:0:0:0:
192,192,15644,1,0,0:0:0:0:
320,192,15719,1,0,0:0:0:0:
64,192,15869,128,0,15944:0:0:0:0:
320,192,15944,1,0,0:0:0:0:
64,192,16019,128,0,16169:0:0:0:0:
192,192,16019,1,0,0:0:0:0:
320,192,16169,1,0,0:0:0:0:
192,192,16244,1,0,0:0:0:0:
320,192,16319,128,0,16469:0:0:0:0:
64,192,16319,128,0,16619:0:0:0:0:
192,192,16469,1,0,0:0:0:0:
320,192,16544,1,0,0:0:0:0:
192,192,16619,128,0,16694:0:0:0:0:
64,192,16769,128,0,16919:0:0:0:0:
320,192,16844,128,0,16994:0:0:0:0:
192,192,16919,128,0,16994:0:0:0:0:
64,192,17069,128,0,17144:0:0:0:0:
320,192,17069,128,0,17219:0:0:0:0:
448,192,17219,128,0,17294:0:0:0:0:
64,192,17219,128,0,17369:0:0:0:0:
192,192,17369,128,0,17519:0:0:0:0:
320,192,17369,128,0,17444:0:0:0:0:
448,192,17519,128,0,17669:0:0:0:0:
64,192,17519,128,0,17669:0:0:0:0:
192,192,17594,128,0,17669:0:0:0:0:
320,192,17669,128,0,17819:0:0:0:0:
448,192,17744,128,0,17819:0:0:0:0:
64,192,17819,128,0,17969:0:0:0:0:
192,192,17819,128,0,17894:0:0:0:0:
192,192,17969,128,0,18119:0:0:0:0:
448,192,17969,128,0,18194:0:0:0:0:
320,192,18044,1,0,0:0:0:0:
64,192,18119,128,0,18419:0:0:0:0:
448,192,18269,128,0,18344:0:0:0:0:
320,192,18344,1,0,0:0:0:0:
448,192,18419,128,0,18719:0:0:0:0:
192,192,18419,128,0,18569:0:0:0:0:
320,192,18569,128,0,18719:0:0:0:0:
192,192,18644,128,0,18719:0:0:0:0:
64,192,18719,128,0,18869:0:0:0:0:
448,192,18794,128,0,18944:0:0:0:0:
192,192,18869,128,0,19019:0:0:0:0:
320,192,18944,1,0,0:0:0:0:
448,192,19019,128,0,19419:0:0:0:0:
64,192,19019,128,0,19219:0:0:0:0:
192,192,19119,128,0,19219:0:0:0:0:
320,192,19219,128,0,19319:0:0:0:0:
192,192,19319,128,0,19619:0:0:0:0:
64,192,19319,128,0,19519:0:0:0:0:
320,192,19419,128,0,19519:0:0:0:0:
448,192,19519,128,0,19819:0:0:0:0:
320,192,19619,128,0,19819:0:0:0:0:
64,192,19619,128,0,19719:0:0:0:0:
192,192,19719,128,0,19919:0:0:0:0:
64,192,19819,128,0,20119:0:0:0:0:
448,192,19919,128,0,20119:0:0:0:0:
320,192,19919,128,0,20019:0:0:0:0:
192,192,20019,128,0,20119:0:0:0:0:
320,192,20119,128,0,20219:0:0:0:0:
64,192,20219,128,0,20294:0:0:0:0:
192,192,20219,128,0,20444:0:0:0:0:
448,192,20219,128,0,20369:0:0:0:0:
320,192,20369,128,0,20519:0:0:0:0:
64,192,20444,128,0,20519:0:0:0:0:
192,192,20519,128,0,20594:0:0:0:0:
448,192,20519,1,0,0:0:0:0:
64,192,20594,128,0,20669:0:0:0:0:
448,192,20669,128,0,20744:0:0:0:0:
192,192,20669,128,0,20819:0:0:0:0:
320,192,20744,128,0,20819:0:0:0:0:
448,192,20819,128,0,20894:0:0:0:0:
64,192,20819,1,0,0:0:0:0:
192,192,20894,128,0,21044:0:0:0:0:
320,192,20969,128,0,21119:0:0:0:0:
64,192,20969,128,0,21044:0:0:0:0:
192,192,21119,128,0,21194:0:0:0:0:
448,192,21119,128,0,21269:0:0:0:0:
320,192,21194,128,0,21269:0:0:0:0:
64,192,21194,128,0,21419:0:0:0:0:
192,192,21269,128,0,21344:0:0:0:0:
320,192,21344,128,0,21419:0:0:0:0:
448,192,21344,128,0,21419:0:0:0:0:
192,192,21419,128,0,21519:0:0:0:0:
448,192,21469,128,0,21569:0:0:0:0:
320,192,21519,128,0,21569:0:0:0:0:
64,192,21569,128,0,21869:0:0:0:0:
192,192,21619,128,0,21719:0:0:0:0:
448,192,21669,128,0,21719:0:0:0:0:
320,192,21719,128,0,21794:0:0:0:0:
192,192,21794,128,0,21831:0:0:0:0:
448,192,21869,128,0,21981:0:0:0:0:
320,192,21869,128,0,22019:0:0:0:0:
448,192,22019,128,0,22169:0:0:0:0:
64,192,22019,128,0,22319:0:0:0:0:
192,192,22169,128,0,22319:0:0:0:0:
320,192,22244,128,0,22394:0:0:0:0:
448,192,22319,128,0,22469:0:0:0:0:
192,192,22394,128,0,22506:0:0:0:0:
320,192,22469,128,0,22506:0:0:0:0:
64,192,22544,128,0,22619:0:0:0:0:
192,192,22619,128,0,22844:0:0:0:0:
320,192,22619,128,0,22719:0:0:0:0:
448,192,22619,128,0,22769:0:0:0:0:
64,192,22769,128,0,22919:0:0:0:0:
448,192,22844,128,0,22919:0:0:0:0:
320,192,22919,128,0,23069:0:0:0:0:
64,192,22994,128,0,23031:0:0:0:0:
192,192,23069,128,0,23144:0:0:0:0:
64,192,23144,128,0,23294:0:0:0:0:
448,192,23219,128,0,23294:0:0:0:0:
320,192,23219,128,0,23256:0:0:0:0:
192,192,23369,128,0,23594:0:0:0:0:
448,192,23369,128,0,23444:0:0:0:0:
64,192,23444,128,0,23631:0:0:0:0:
320,192,23519,128,0,23669:0:0:0:0:
448,192,23594,128,0,23706:0:0:0:0:
192,192,23669,128,0,23781:0:0:0:0:
64,192,23744,128,0,23819:0:0:0:0:
320,192,23819,128,0,24119:0:0:0:0:
448,192,23819,128,0,24044:0:0:0:0:
64,192,23869,128,0,23969:0:0:0:0:
192,192,23969,128,0,24119:0:0:0:0:
64,192,24119,128,0,24194:0:0:0:0:
448,192,24119,128,0,24269:0:0:0:0:
192,192,24194,1,0,0:0:0:0:
64,192,24269,128,0,24419:0:0:0:0:
320,192,24269,128,0,24419:0:0:0:0:
448,192,24344,1,0,0:0:0:0:
192,192,24419,128,0,24569:0:0:0:0:
448,192,24469,128,0,24569:0:0:0:0:
320,192,24569,128,0,24719:0:0:0:0:
64,192,24619,128,0,24719:0:0:0:0:
192,192,24719,128,0,25019:0:0:0:0:
448,192,24719,128,0,24819:0:0:0:0:
320,192,24769,128,0,24869:0:0:0:0:
64,192,24819,128,0,24869:0:0:0:0:
448,192,24869,128,0,24969:0:0:0:0:
64,192,25019,128,0,25319:0:0:0:0:
448,192,25019,128,0,25119:0:0:0:0:
320,192,25019,128,0,25169:0:0:0:0:
192,192,25169,128,0,25319:0:0:0:0:
448,192,25319,128,0,25394:0:0:0:0:
320,192,25319,128,0,25469:0:0:0:0:
192,192,25394,128,0,25469:0:0:0:0:
448,192,25469,128,0,25544:0:0:0:0:
64,192,25469,128,0,25619:0:0:0:0:
192,192,25544,128,0,25619:0:0:0:0:
320,192,25619,128,0,25844:0:0:0:0:
448,192,25619,128,0,25769:0:0:0:0:
64,192,25694,128,0,25769:0:0:0:0:
192,192,25769,128,0,25919:0:0:0:0:
448,192,25819,128,0,25919:0:0:0:0:
64,192,25844,128,0,25994:0:0:0:0:
320,192,25919,128,0,25994:0:0:0:0:
192,192,25994,128,0,26069:0:0:0:0:
64,192,26069,128,0,26219:0:0:0:0:
192,192,26144,128,0,26219:0:0:0:0:
448,192,26219,128,0,26369:0:0:0:0:
320,192,26219,128,0,26294:0:0:0:0:
64,192,26269,128,0,26369:0:0:0:0:
192,192,26319,128,0,26369:0:0:0:0:
320,192,26369,128,0,26469:0:0:0:0:
448,192,26419,128,0,26519:0:0:0:0:
64,192,26469,128,0,26619:0:0:0:0:
320,192,26519,128,0,26669:0:0:0:0:
192,192,26594,128,0,26669:0:0:0:0:
448,192,26669,128,0,26769:0:0:0:0:
64,192,26669,128,0,26819:0:0:0:0:
448,192,26819,128,0,27119:0:0:0:0:
192,192,26819,128,0,27044:0:0:0:0:
320,192,26969,128,0,27119:0:0:0:0:
64,192,27119,128,0,27194:0:0:0:0:
192,192,27194,128,0,27269:0:0:0:0:
64,192,27269,128,0,27306:0:0:0:0:
192,192,27344,128,0,27381:0:0:0:0:
448,192,27419,128,0,27644:0:0:0:0:
320,192,27419,128,0,27494:0:0:0:0:
64,192,27494,128,0,27644:0:0:0:0:
192,192,27569,128,0,27644:0:0:0:0:
320,192,27569,128,0,27719:0:0:0:0:
64,192,27719,128,0,27944:0:0:0:0:
448,192,27719,128,0,27869:0:0:0:0:
320,192,27794,128,0,27944:0:0:0:0:
192,192,27869,128,0,27944:0:0:0:0:
448,192,28019,128,0,28094:0:0:0:0:
192,192,28019,128,0,28094:0:0:0:0:
192,192,28169,128,0,28244:0:0:0:0:
448,192,28169,128,0,28319:0:0:0:0:
64,192,28244,128,0,28394:0:0:0:0:
320,192,28319,128,0,28394:0:0:0:0:
192,192,28394,128,0,28544:0:0:0:0:
320,192,28469,128,0,28544:0:0:0:0:
448,192,28544,128,0,28619:0:0:0:0:
64,192,28619,128,0,28919:0:0:0:0:
192,192,28619,128,0,28769:0:0:0:0:
320,192,28619,128,0,28869:0:0:0:0:
448,192,28769,128,0,28919:0:0:0:0:
192,192,28844,128,0,28919:0:0:0:0:
320,192,28919,128,0,28994:0:0:0:0:
64,192,28969,128,0,29069:0:0:0:0:
320,192,29069,128,0,29219:0:0:0:0:
192,192,29119,128,0,29219:0:0:0:0:
64,192,29219,128,0,29419:0:0:0:0:
448,192,29269,128,0,29419:0:0:0:0:
320,192,29519,1,0,0:0:0:0:
192,192,29594,128,0,29631:0:0:0:0:
320,192,29669,128,0,29719:0:0:0:0:
192,192,29744,128,0,29819:0:0:0:0:
448,192,29819,128,0,30044:0:0:0:0:
320,192,29819,128,0,29969:0:0:0:0:
64,192,29819,128,0,29894:0:0:0:0:
192,192,29969,128,0,30119:0:0:0:0:
320,192,30044,128,0,30119:0:0:0:0:
64,192,30119,128,0,30269:0:0:0:0:
448,192,30169,128,0,30269:0:0:0:0:
320,192,30269,128,0,30419:0:0:0:0:
192,192,30319,128,0,30419:0:0:0:0:
64,192,30419,128,0,30569:0:0:0:0:
448,192,30419,128,0,30569:0:0:0:0:
320,192,30494,128,0,30569:0:0:0:0:
192,192,30569,128,0,30869:0:0:0:0:
320,192,30644,128,0,30719:0:0:0:0:
448,192,30719,128,0,30869:0:0:0:0:
64,192,30794,128,0,30944:0:0:0:0:
320,192,30869,128,0,31019:0:0:0:0:
192,192,30944,128,0,31019:0:0:0:0:
448,192,31019,128,0,31119:0:0:0:0:
64,192,31019,128,0,31169:0:0:0:0:
320,192,31069,128,0,31119:0:0:0:0:
448,192,31169,128,0,31319:0:0:0:0:
192,192,31169,128,0,31219:0:0:0:0:
320,192,31219,128,0,31319:0:0:0:0:
64,192,31319,128,0,31469:0:0:0:0:
448,192,31394,128,0,31469:0:0:0:0:
192,192,31469,128,0,31544:0:0:0:0:
320,192,31469,128,0,31544:0:0:0:0:
192,192,31619,128,0,31769:0:0:0:0:
320,192,31619,128,0,31844:0:0:0:0:
64,192,31769,128,0,31919:0:0:0:0:
192,192,31844,128,0,31994:0:0:0:0:
320,192,31919,128,0,32069:0:0:0:0:
448,192,31919,128,0,32069:0:0:0:0:
64,192,31994,128,0,32144:0:0:0:0:
192,192,32069,128,0,32294:0:0:0:0:
320,192,32144,128,0,32294:0:0:0:0:
448,192,32219,128,0,32294:0:0:0:0:
64,192,32219,128,0,32294:0:0:0:0:
448,192,32369,128,0,32519:0:0:0:0:
320,192,32369,128,0,32444:0:0:0:0:
192,192,32444,128,0,32519:0:0:0:0:
64,192,32444,128,0,32669:0:0:0:0:
320,192,32669,128,0,32744:0:0:0:0:
448,192,32669,128,0,32819:0:0:0:0:
192,192,32819,128,0,32894:0:0:0:0:
320,192,32819,128,0,32969:0:0:0:0:
448,192,32969,128,0,33044:0:0:0:0:
64,192,33044,128,0,33119:0:0:0:0:
192,192,33044,128,0,33119:0:0:0:0:
448,192,33119,128,0,33194:0:0:0:0:
320,192,33119,128,0,33269:0:0:0:0:
64,192,33194,128,0,33269:0:0:0:0:
192,192,33194,128,0,33344:0:0:0:0:
448,192,33269,128,0,33344:0:0:0:0:
64,192,33344,128,0,33494:0:0:0:0:
448,192,33419,128,0,33494:0:0:0:0:
320,192,33469,128,0,33569:0:0:0:0:
192,192,33519,128,0,33619:0:0:0:0:
64,192,33569,128,0,33669:0:0:0:0:
448,192,33619,128,0,33719:0:0:0:0:
320,192,33669,128,0,33719:0:0:0:0:
192,192,33719,128,0,33769:0:0:0:0:
64,192,33719,128,0,33869:0:0:0:0:
192,192,33869,128,0,33944:0:0:0:0:
320,192,33869,128,0,34019:0:0:0:0:
64,192,34019,128,0,34094:0:0:0:0:
448,192,34019,128,0,34244:0:0:0:0:
64,192,34169,128,0,34319:0:0:0:0:
192,192,34169,128,0,34244:0:0:0:0:
320,192,34244,128,0,34319:0:0:0:0:
192,192,34319,128,0,34544:0:0:0:0:
448,192,34319,128,0,34394:0:0:0:0:
320,192,34394,128,0,34469:0:0:0:0:
448,192,34469,128,0,34619:0:0:0:0:
64,192,34544,1,0,0:0:0:0:
192,192,34619,128,0,34769:0:0:0:0:
320,192,34619,128,0,34694:0:0:0:0:
320,192,34769,128,0,34919:0:0:0:0:
448,192,34769,128,0,34844:0:0:0:0:
192,192,34844,128,0,34919:0:0:0:0:
64,192,34844,128,0,34994:0:0:0:0:
448,192,35069,128,0,35144:0:0:0:0:
320,192,35069,128,0,35219:0:0:0:0:
64,192,35144,128,0,35294:0:0:0:0:
448,192,35219,128,0,35369:0:0:0:0:
192,192,35219,128,0,35369:0:0:0:0:
64,192,35369,128,0,35444:0:0:0:0:
192,192,35444,128,0,35594:0:0:0:0:
320,192,35519,128,0,35594:0:0:0:0:
64,192,35594,128,0,35669:0:0:0:0:
320,192,35669,128,0,35744:0:0:0:0:
64,192,35744,128,0,35819:0:0:0:0:
320,192,35819,128,0,35969:0:0:0:0:
192,192,35819,128,0,35894:0:0:0:0:
192,192,35969,128,0,36044:0:0:0:0:
448,192,35969,128,0,36119:0:0:0:0:
64,192,36119,128,0,36269:0:0:0:0:
320,192,36169,1,0,0:0:0:0:
448,192,36194,128,0,36344:0:0:0:0:
192,192,36269,128,0,36344:0:0:0:0:
320,192,36319,1,0,0:0:0:0:
64,192,36419,128,0,36644:0:0:0:0:
192,192,36419,128,0,36569:0:0:0:0:
448,192,36494,128,0,36644:0:0:0:0:
320,192,36569,128,0,36719:0:0:0:0:
192,192,36644,128,0,36719:0:0:0:0:
448,192,36719,128,0,36794:0:0:0:0:
64,192,36719,128,0,36794:0:0:0:0:
192,192,36794,128,0,36869:0:0:0:0:
320,192,36794,128,0,36869:0:0:0:0:
64,192,36869,128,0,36944:0:0:0:0:
448,192,36869,128,0,36944:0:0:0:0:
320,192,36944,128,0,37019:0:0:0:0:
192,192,36944,128,0,37019:0:0:0:0:
64,192,37019,128,0,37169:0:0:0:0:
320,192,37169,128,0,37244:0:0:0:0:
448,192,37169,128,0,37394:0:0:0:0:
192,192,37244,128,0,37319:0:0:0:0:
64,192,37244,128,0,37394:0:0:0:0:
320,192,37319,128,0,37619:0:0:0:0:
64,192,37469,128,0,37544:0:0:0:0:
448,192,37544,128,0,37619:0:0:0:0:
192,192,37619,128,0,37919:0:0:0:0:
64,192,37619,128,0,37769:0:0:0:0:
320,192,37694,128,0,37769:0:0:0:0:
448,192,37769,128,0,37844:0:0:0:0:
320,192,37844,128,0,37919:0:0:0:0:
64,192,37919,128,0,38069:0:0:0:0:
192,192,37994,128,0,38069:0:0:0:0:
320,192,38069,128,0,38144:0:0:0:0:
64,192,38144,128,0,38219:0:0:0:0:
192,192,38219,128,0,38444:0:0:0:0:
448,192,38219,128,0,38294:0:0:0:0:
320,192,38369,128,0,38519:0:0:0:0:
448,192,38369,128,0,38519:0:0:0:0:
64,192,38444,128,0,38519:0:0:0:0:
192,192,38519,128,0,38669:0:0:0:0:
320,192,38569,128,0,38669:0:0:0:0:
448,192,38669,128,0,38819:0:0:0:0:
64,192,38719,128,0,38819:0:0:0:0:
320,192,38819,128,0,38969:0:0:0:0:
192,192,38819,128,0,38894:0:0:0:0:
192,192,38969,128,0,39119:0:0:0:0:
448,192,38969,128,0,39044:0:0:0:0:
64,192,39019,128,0,39119:0:0:0:0:
448,192,39119,128,0,39269:0:0:0:0:
320,192,39119,128,0,39194:0:0:0:0:
192,192,39169,128,0,39269:0:0:0:0:
64,192,39269,128,0,39344:0:0:0:0:
320,192,39269,128,0,39419:0:0:0:0:
192,192,39344,128,0,39419:0:0:0:0:
448,192,39419,128,0,41819:0:0:0:0:
64,192,39419,128,0,39644:0:0:0:0:
64,192,39719,128,0,39944:0:0:0:0:
64,192,40019,128,0,40244:0:0:0:0:
64,192,40319,128,0,40544:0:0:0:0:
64,192,40619,128,0,40844:0:0:0:0:
320,192,40769,1,0,0:0:0:0:
192,192,40769,128,0,40919:0:0:0:0:
64,192,40919,128,0,41144:0:0:0:0:
64,192,41219,128,0,41444:0:0:0:0:
64,192,41519,128,0,41744:0:0:0:0:
192,192,41819,128,0,41869:0:0:0:0:
64,192,41819,128,0,42044:0:0:0:0:
320,192,41819,1,0,0:0:0:0:
320,192,41969,1,0,0:0:0:0:
64,192,42119,128,0,42344:0:0:0:0:
320,192,42119,1,0,0:0:0:0:
192,192,42194,1,0,0:0:0:0:
320,192,42269,1,0,0:0:0:0:
64,192,42419,128,0,42644:0:0:0:0:
448,192,42419,1,0,0:0:0:0:
320,192,42569,1,0,0:0:0:0:
64,192,42719,128,0,42944:0:0:0:0:
320,192,42719,1,0,0:0:0:0:
320,192,42869,1,0,0:0:0:0:
192,192,43019,128,0,43094:0:0:0:0:
320,192,43019,128,0,43244:0:0:0:0:
448,192,43019,128,0,43169:0:0:0:0:
64,192,43169,1,0,0:0:0:0:
448,192,43244,1,0,0:0:0:0:
64,192,43319,128,0,43469:0:0:0:0:
192,192,43319,128,0,43419:0:0:0:0:
320,192,43319,128,0,43519:0:0:0:0:
448,192,43469,1,0,0:0:0:0:
64,192,43544,1,0,0:0:0:0:
448,192,43619,128,0,43844:0:0:0:0:
320,192,43619,128,0,43719:0:0:0:0:
192,192,43619,128,0,43669:0:0:0:0:
64,192,43769,1,0,0:0:0:0:
320,192,43844,1,0,0:0:0:0:
64,192,43919,128,0,44019:0:0:0:0:
192,192,43919,128,0,44069:0:0:0:0:
448,192,43919,128,0,44219:0:0:0:0:
320,192,44069,1,0,0:0:0:0:
192,192,44144,1,0,0:0:0:0:
320,192,44219,128,0,44444:0:0:0:0:
64,192,44219,128,0,44369:0:0:0:0:
448,192,44369,128,0,44519:0:0:0:0:
64,192,44444,128,0,44519:0:0:0:0:
320,192,44519,128,0,44669:0:0:0:0:
192,192,44519,128,0,44744:0:0:0:0:
64,192,44669,128,0,44819:0:0:0:0:
320,192,44744,128,0,44819:0:0:0:0:
448,192,44819,128,0,44969:0:0:0:0:
192,192,44819,128,0,45044:0:0:0:0:
320,192,44969,128,0,45119:0:0:0:0:
448,192,45044,128,0,45194:0:0:0:0:
192,192,45119,128,0,45269:0:0:0:0:
64,192,45119,128,0,45419:0:0:0:0:
320,192,45194,128,0,45269:0:0:0:0:
448,192,45269,128,0,45419:0:0:0:0:
192,192,45344,128,0,45419:0:0:0:0:
320,192,45419,128,0,46019:0:0:0:0:
64,192,45719,128,0,45819:0:0:0:0:
448,192,45719,1,0,0:0:0:0:
192,192,45756,128,0,45794:0:0:0:0:
64,192,45869,128,0,45969:0:0:0:0:
448,192,45869,1,0,0:0:0:0:
192,192,45906,128,0,45944:0:0:0:0:
448,192,46019,128,0,46131:0:0:0:0:
64,192,46056,128,0,46131:0:0:0:0:
192,192,46094,128,0,46244:0:0:0:0:
320,192,46169,128,0,46244:0:0:0:0:
64,192,46244,128,0,46319:0:0:0:0:
448,192,46319,128,0,46469:0:0:0:0:
192,192,46319,128,0,46469:0:0:0:0:
320,192,46394,128,0,46469:0:0:0:0:
64,192,46469,128,0,46569:0:0:0:0:
192,192,46519,128,0,46619:0:0:0:0:
320,192,46569,128,0,46619:0:0:0:0:
448,192,46619,128,0,46769:0:0:0:0:
64,192,46619,128,0,46844:0:0:0:0:
192,192,46769,128,0,46919:0:0:0:0:
448,192,46844,128,0,46919:0:0:0:0:
320,192,46919,128,0,47219:0:0:0:0:
64,192,46919,128,0,46994:0:0:0:0:
448,192,46994,128,0,47144:0:0:0:0:
192,192,47069,128,0,47219:0:0:0:0:
64,192,47069,128,0,47144:0:0:0:0:
64,192,47219,128,0,47369:0:0:0:0:
448,192,47219,128,0,47294:0:0:0:0:
192,192,47294,128,0,47444:0:0:0:0:
448,192,47369,128,0,47519:0:0:0:0:
320,192,47369,128,0,47444:0:0:0:0:
320,192,47519,128,0,47594:0:0:0:0:
192,192,47519,128,0,47669:0:0:0:0:
448,192,47594,128,0,47744:0:0:0:0:
320,192,47669,128,0,47819:0:0:0:0:
64,192,47669,128,0,47969:0:0:0:0:
448,192,47819,128,0,47894:0:0:0:0:
192,192,47819,128,0,48419:0:0:0:0:
448,192,48119,128,0,48219:0:0:0:0:
64,192,48119,1,0,0:0:0:0:
320,192,48156,128,0,48194:0:0:0:0:
448,192,48269,128,0,48369:0:0:0:0:
64,192,48269,1,0,0:0:0:0:
320,192,48306,128,0,48344:0:0:0:0:
64,192,48419,128,0,48531:0:0:0:0:
448,192,48456,128,0,48531:0:0:0:0:
192,192,48494,128,0,48719:0:0:0:0:
320,192,48569,128,0,48719:0:0:0:0:
448,192,48644,128,0,48719:0:0:0:0:
64,192,48719,128,0,48944:0:0:0:0:
192,192,48794,128,0,48869:0:0:0:0:
448,192,48869,128,0,48944:0:0:0:0:
320,192,48944,128,0,49019:0:0:0:0:
192,192,49019,128,0,49244:0:0:0:0:
448,192,49019,128,0,49094:0:0:0:0:
64,192,49019,128,0,49169:0:0:0:0:
320,192,49169,128,0,49319:0:0:0:0:
448,192,49169,128,0,49244:0:0:0:0:
64,192,49319,128,0,49544:0:0:0:0:
192,192,49319,128,0,49394:0:0:0:0:
320,192,49394,128,0,49469:0:0:0:0:
192,192,49469,128,0,49694:0:0:0:0:
448,192,49469,128,0,49544:0:0:0:0:
320,192,49544,128,0,49694:0:0:0:0:
64,192,49619,128,0,49844:0:0:0:0:
448,192,49619,128,0,49769:0:0:0:0:
192,192,49769,128,0,49994:0:0:0:0:
320,192,49769,128,0,49844:0:0:0:0:
448,192,49844,128,0,49919:0:0:0:0:
64,192,49919,128,0,50219:0:0:0:0:
320,192,49919,128,0,49994:0:0:0:0:
448,192,49994,128,0,50069:0:0:0:0:
192,192,50069,128,0,50144:0:0:0:0:
320,192,50069,128,0,50219:0:0:0:0:
448,192,50219,128,0,50819:0:0:0:0:
192,192,50219,128,0,50369:0:0:0:0:
64,192,50519,128,0,50619:0:0:0:0:
320,192,50519,1,0,0:0:0:0:
192,192,50556,128,0,50594:0:0:0:0:
64,192,50669,128,0,50769:0:0:0:0:
320,192,50669,1,0,0:0:0:0:
192,192,50706,128,0,50744:0:0:0:0:
320,192,50819,128,0,50894:0:0:0:0:
64,192,50856,128,0,50969:0:0:0:0:
448,192,50894,128,0,50969:0:0:0:0:
192,192,50931,128,0,50969:0:0:0:0:
320,192,50969,128,0,51119:0:0:0:0:
448,192,51119,128,0,51269:0:0:0:0:
320,192,51156,128,0,51269:0:0:0:0:
192,192,51194,128,0,51269:0:0:0:0:
64,192,51231,128,0,51269:0:0:0:0:
64,192,51419,128,0,51719:0:0:0:0:
192,192,51419,128,0,51644:0:0:0:0:
448,192,51419,128,0,51644:0:0:0:0:
320,192,51569,128,0,51719:0:0:0:0:
448,192,51719,128,0,51869:0:0:0:0:
192,192,51719,128,0,51794:0:0:0:0:
192,192,51869,128,0,52019:0:0:0:0:
320,192,51869,128,0,51944:0:0:0:0:
448,192,52019,128,0,52094:0:0:0:0:
64,192,52019,128,0,52244:0:0:0:0:
192,192,52094,128,0,52169:0:0:0:0:
448,192,52169,128,0,52244:0:0:0:0:
320,192,52169,128,0,52319:0:0:0:0:
64,192,52319,128,0,52469:0:0:0:0:
192,192,52319,128,0,52394:0:0:0:0:
320,192,52394,128,0,52469:0:0:0:0:
448,192,52469,128,0,52544:0:0:0:0:
192,192,52469,128,0,52544:0:0:0:0:
64,192,52619,1,0,0:0:0:0:
320,192,52619,1,0,0:0:0:0:
64,192,53819,128,0,53894:0:0:0:0:
448,192,53819,128,0,53894:0:0:0:0:
192,192,53819,128,0,53969:0:0:0:0:
64,192,53969,128,0,54119:0:0:0:0:
448,192,53969,128,0,54044:0:0:0:0:
320,192,53969,128,0,54069:0:0:0:0:
192,192,54119,128,0,54269:0:0:0:0:
320,192,54194,128,0,54269:0:0:0:0:
64,192,54269,128,0,54344:0:0:0:0:
448,192,54344,128,0,54419:0:0:0:0:
64,192,54419,128,0,54569:0:0:0:0:
192,192,54419,128,0,54494:0:0:0:0:
320,192,54419,128,0,54519:0:0:0:0:
192,192,54569,128,0,54719:0:0:0:0:
320,192,54569,128,0,54644:0:0:0:0:
64,192,54644,1,0,0:0:0:0:
448,192,54719,128,0,54819:0:0:0:0:
320,192,54719,128,0,54794:0:0:0:0:
64,192,54769,128,0,54869:0:0:0:0:
448,192,54869,128,0,55019:0:0:0:0:
320,192,54869,128,0,54944:0:0:0:0:
64,192,54919,128,0,55019:0:0:0:0:
192,192,55019,128,0,55169:0:0:0:0:
320,192,55019,128,0,55094:0:0:0:0:
64,192,55169,128,0,55269:0:0:0:0:
448,192,55169,128,0,55319:0:0:0:0:
320,192,55269,128,0,55319:0:0:0:0:
192,192,55319,128,0,55619:0:0:0:0:
64,192,55319,128,0,55469:0:0:0:0:
448,192,55394,128,0,55544:0:0:0:0:
320,192,55469,128,0,55544:0:0:0:0:
64,192,55619,128,0,55844:0:0:0:0:
448,192,55619,128,0,55694:0:0:0:0:
320,192,55619,128,0,55919:0:0:0:0:
192,192,55769,128,0,55844:0:0:0:0:
448,192,55919,128,0,55969:0:0:0:0:
192,192,55919,1,0,0:0:0:0:
448,192,56019,128,0,56069:0:0:0:0:
64,192,56019,1,0,0:0:0:0:
448,192,56119,128,0,56169:0:0:0:0:
192,192,56119,1,0,0:0:0:0:
64,192,56219,128,0,56319:0:0:0:0:
320,192,56219,1,0,0:0:0:0:
192,192,56319,128,0,56419:0:0:0:0:
448,192,56369,1,0,0:0:0:0:
320,192,56419,128,0,56569:0:0:0:0:
64,192,56519,128,0,56669:0:0:0:0:
448,192,56519,1,0,0:0:0:0:
192,192,56619,128,0,56769:0:0:0:0:
320,192,56669,1,0,0:0:0:0:
448,192,56719,128,0,56869:0:0:0:0:
320,192,56819,1,0,0:0:0:0:
64,192,56819,128,0,56969:0:0:0:0:
192,192,56819,1,0,0:0:0:0:
448,192,56919,128,0,57069:0:0:0:0:
320,192,56969,1,0,0:0:0:0:
192,192,57019,128,0,57194:0:0:0:0:
448,192,57119,128,0,57219:0:0:0:0:
64,192,57119,1,0,0:0:0:0:
320,192,57219,128,0,57419:0:0:0:0:
192,192,57269,1,0,0:0:0:0:
64,192,57319,128,0,57419:0:0:0:0:
192,192,57419,128,0,57669:0:0:0:0:
448,192,57419,128,0,57619:0:0:0:0:
64,192,57569,1,0,0:0:0:0:
448,192,57719,128,0,57819:0:0:0:0:
192,192,57719,128,0,57769:0:0:0:0:
320,192,57794,128,0,57869:0:0:0:0:
64,192,57794,128,0,57869:0:0:0:0:
192,192,57869,128,0,57919:0:0:0:0:
448,192,57869,128,0,58019:0:0:0:0:
320,192,57944,128,0,58019:0:0:0:0:
64,192,58019,128,0,58169:0:0:0:0:
192,192,58019,128,0,58094:0:0:0:0:
192,192,58169,128,0,58319:0:0:0:0:
448,192,58169,128,0,58244:0:0:0:0:
64,192,58244,128,0,58319:0:0:0:0:
448,192,58319,128,0,58419:0:0:0:0:
320,192,58319,128,0,58394:0:0:0:0:
320,192,58469,128,0,58569:0:0:0:0:
448,192,58469,128,0,58544:0:0:0:0:
64,192,58619,128,0,58769:0:0:0:0:
192,192,58619,128,0,58694:0:0:0:0:
448,192,58669,128,0,58769:0:0:0:0:
320,192,58769,128,0,58919:0:0:0:0:
192,192,58769,128,0,58844:0:0:0:0:
64,192,58819,128,0,58919:0:0:0:0:
448,192,58919,128,0,58994:0:0:0:0:
192,192,58994,128,0,59069:0:0:0:0:
448,192,59069,128,0,59219:0:0:0:0:
192,192,59144,128,0,59219:0:0:0:0:
64,192,59219,128,0,59369:0:0:0:0:
320,192,59219,128,0,59294:0:0:0:0:
448,192,59269,128,0,59369:0:0:0:0:
192,192,59369,128,0,59519:0:0:0:0:
320,192,59369,128,0,59469:0:0:0:0:
448,192,59419,128,0,59519:0:0:0:0:
64,192,59519,128,0,59744:0:0:0:0:
320,192,59594,128,0,59744:0:0:0:0:
192,192,59669,128,0,59744:0:0:0:0:
448,192,59744,128,0,59819:0:0:0:0:
320,192,59819,128,0,60119:0:0:0:0:
64,192,59819,128,0,60044:0:0:0:0:
192,192,59819,128,0,59969:0:0:0:0:
448,192,59969,128,0,60044:0:0:0:0:
64,192,60119,128,0,60194:0:0:0:0:
448,192,60119,128,0,60269:0:0:0:0:
192,192,60194,128,0,60269:0:0:0:0:
64,192,60269,128,0,60344:0:0:0:0:
192,192,60344,128,0,60419:0:0:0:0:
448,192,60419,128,0,60569:0:0:0:0:
64,192,60419,128,0,60494:0:0:0:0:
320,192,60419,128,0,60519:0:0:0:0:
192,192,60569,128,0,60719:0:0:0:0:
320,192,60644,128,0,60719:0:0:0:0:
448,192,60719,128,0,60869:0:0:0:0:
64,192,60719,1,0,0:0:0:0:
320,192,60794,128,0,60869:0:0:0:0:
64,192,60869,128,0,61019:0:0:0:0:
192,192,60944,128,0,61019:0:0:0:0:
320,192,61019,128,0,61094:0:0:0:0:
448,192,61019,128,0,61169:0:0:0:0:
64,192,61169,128,0,61419:0:0:0:0:
192,192,61169,128,0,61269:0:0:0:0:
448,192,61219,128,0,61319:0:0:0:0:
320,192,61319,128,0,61419:0:0:0:0:
192,192,61319,128,0,61519:0:0:0:0:
448,192,61369,128,0,61419:0:0:0:0:
320,192,61469,128,0,61569:0:0:0:0:
64,192,61469,128,0,61569:0:0:0:0:
448,192,61519,128,0,61619:0:0:0:0:
192,192,61619,128,0,61719:0:0:0:0:
320,192,61619,128,0,61819:0:0:0:0:
64,192,61669,128,0,61719:0:0:0:0:
448,192,61769,128,0,61869:0:0:0:0:
192,192,61769,128,0,61819:0:0:0:0:
64,192,61819,128,0,61969:0:0:0:0:
192,192,61919,128,0,62019:0:0:0:0:
320,192,61919,128,0,61969:0:0:0:0:
448,192,61969,128,0,62019:0:0:0:0:
192,192,62069,128,0,62119:0:0:0:0:
64,192,62069,128,0,62169:0:0:0:0:
448,192,62119,128,0,62219:0:0:0:0:
320,192,62219,128,0,62419:0:0:0:0:
192,192,62219,128,0,62319:0:0:0:0:
64,192,62219,128,0,62519:0:0:0:0:
448,192,62369,128,0,62444:0:0:0:0:
192,192,62519,128,0,62594:0:0:0:0:
448,192,62519,128,0,62594:0:0:0:0:
320,192,62594,128,0,62669:0:0:0:0:
64,192,62594,128,0,62744:0:0:0:0:
192,192,62669,128,0,62744:0:0:0:0:
320,192,62744,128,0,62819:0:0:0:0:
64,192,62819,128,0,63344:0:0:0:0:
448,192,62819,128,0,63344:0:0:0:0:
64,192,63419,128,0,63644:0:0:0:0:
192,192,63419,128,0,63569:0:0:0:0:
320,192,63419,128,0,63494:0:0:0:0:
320,192,63569,128,0,63644:0:0:0:0:
192,192,63644,128,0,63719:0:0:0:0:
448,192,63719,128,0,63944:0:0:0:0:
320,192,63719,128,0,63869:0:0:0:0:
64,192,63794,128,0,63944:0:0:0:0:
192,192,63869,128,0,63944:0:0:0:0:
320,192,63944,128,0,64019:0:0:0:0:
64,192,64019,128,0,64169:0:0:0:0:
192,192,64019,128,0,64094:0:0:0:0:
448,192,64019,128,0,64169:0:0:0:0:
320,192,64169,128,0,64319:0:0:0:0:
192,192,64169,128,0,64244:0:0:0:0:
64,192,64319,128,0,64469:0:0:0:0:
192,192,64369,128,0,64469:0:0:0:0:
320,192,64394,1,0,0:0:0:0:
448,192,64469,128,0,64619:0:0:0:0:
320,192,64519,128,0,64619:0:0:0:0:
64,192,64544,1,0,0:0:0:0:
192,192,64619,128,0,64769:0:0:0:0:
448,192,64694,128,0,64844:0:0:0:0:
64,192,64769,128,0,64919:0:0:0:0:
320,192,64769,128,0,64919:0:0:0:0:
192,192,64919,128,0,65069:0:0:0:0:
448,192,64919,128,0,64994:0:0:0:0:
320,192,64994,128,0,65219:0:0:0:0:
64,192,65069,128,0,65219:0:0:0:0:
192,192,65219,128,0,65519:0:0:0:0:
448,192,65219,128,0,65369:0:0:0:0:
64,192,65369,128,0,65444:0:0:0:0:
320,192,65519,128,0,65669:0:0:0:0:
448,192,65519,128,0,65619:0:0:0:0:
64,192,65619,128,0,65719:0:0:0:0:
192,192,65719,128,0,65819:0:0:0:0:
320,192,65819,1,0,0:0:0:0:
64,192,65819,128,0,65969:0:0:0:0:
320,192,65919,1,0,0:0:0:0:
192,192,65919,128,0,66069:0:0:0:0:
64,192,66019,128,0,66119:0:0:0:0:
448,192,66019,1,0,0:0:0:0:
192,192,66119,1,0,0:0:0:0:
320,192,66119,128,0,66269:0:0:0:0:
192,192,66219,1,0,0:0:0:0:
448,192,66219,128,0,66369:0:0:0:0:
64,192,66319,1,0,0:0:0:0:
320,192,66319,128,0,66519:0:0:0:0:
448,192,66419,1,0,0:0:0:0:
192,192,66419,128,0,66569:0:0:0:0:
448,192,66519,1,0,0:0:0:0:
64,192,66519,128,0,66669:0:0:0:0:
192,192,66619,1,0,0:0:0:0:
320,192,66619,128,0,66869:0:0:0:0:
64,192,66719,1,0,0:0:0:0:
448,192,66719,128,0,66869:0:0:0:0:
64,192,66819,1,0,0:0:0:0:
192,192,66819,128,0,66969:0:0:0:0:
448,192,66919,1,0,0:0:0:0:
320,192,66919,128,0,67019:0:0:0:0:
64,192,67019,128,0,67219:0:0:0:0:
192,192,67019,128,0,67119:0:0:0:0:
448,192,67169,128,0,67319:0:0:0:0:
320,192,67244,128,0,67319:0:0:0:0:
64,192,67319,128,0,67394:0:0:0:0:
320,192,67394,128,0,67469:0:0:0:0:
64,192,67469,128,0,67619:0:0:0:0:
192,192,67544,128,0,67619:0:0:0:0:
320,192,67619,128,0,67694:0:0:0:0:
448,192,67619,128,0,67844:0:0:0:0:
192,192,67694,128,0,67919:0:0:0:0:
448,192,67919,128,0,68069:0:0:0:0:
320,192,67919,128,0,67994:0:0:0:0:
320,192,68069,128,0,68144:0:0:0:0:
192,192,68069,128,0,68219:0:0:0:0:
64,192,68219,128,0,68319:0:0:0:0:
320,192,68219,128,0,68369:0:0:0:0:
448,192,68219,128,0,68294:0:0:0:0:
192,192,68369,128,0,68519:0:0:0:0:
448,192,68369,128,0,68469:0:0:0:0:
64,192,68419,128,0,68519:0:0:0:0:
448,192,68519,128,0,68669:0:0:0:0:
320,192,68519,128,0,68619:0:0:0:0:
192,192,68569,128,0,68669:0:0:0:0:
64,192,68669,128,0,68819:0:0:0:0:
320,192,68669,128,0,68769:0:0:0:0:
448,192,68719,128,0,68819:0:0:0:0:
192,192,68819,128,0,68919:0:0:0:0:
320,192,68819,128,0,68969:0:0:0:0:
64,192,68869,128,0,68919:0:0:0:0:
192,192,68969,128,0,69069:0:0:0:0:
448,192,68969,128,0,69169:0:0:0:0:
64,192,69019,128,0,69069:0:0:0:0:
320,192,69119,128,0,69269:0:0:0:0:
192,192,69119,128,0,69169:0:0:0:0:
64,192,69169,128,0,69269:0:0:0:0:
448,192,69269,128,0,69319:0:0:0:0:
192,192,69269,128,0,69419:0:0:0:0:
320,192,69319,128,0,69369:0:0:0:0:
64,192,69419,128,0,69719:0:0:0:0:
448,192,69419,128,0,69569:0:0:0:0:
320,192,69469,128,0,69569:0:0:0:0:
192,192,69519,128,0,69569:0:0:0:0:
192,192,69719,128,0,69869:0:0:0:0:
320,192,69794,128,0,69869:0:0:0:0:
448,192,69869,128,0,70019:0:0:0:0:
320,192,69944,128,0,70019:0:0:0:0:
64,192,70019,128,0,70319:0:0:0:0:
192,192,70019,128,0,70169:0:0:0:0:
448,192,70169,128,0,70319:0:0:0:0:
320,192,70319,128,0,70394:0:0:0:0:
448,192,70394,128,0,70469:0:0:0:0:
320,192,70469,128,0,70619:0:0:0:0:
448,192,70544,128,0,70619:0:0:0:0:
64,192,70619,128,0,70819:0:0:0:0:
192,192,70619,128,0,70869:0:0:0:0:
64,192,70919,128,0,70994:0:0:0:0:
192,192,70919,128,0,71019:0:0:0:0:
64,192,71069,128,0,71169:0:0:0:0:
192,192,71069,128,0,71144:0:0:0:0:
64,192,71219,128,0,71444:0:0:0:0:
192,192,71219,128,0,71319:0:0:0:0:
320,192,71219,128,0,71269:0:0:0:0:
448,192,71319,128,0,71419:0:0:0:0:
192,192,71419,128,0,71519:0:0:0:0:
448,192,71519,128,0,71619:0:0:0:0:
64,192,71519,128,0,71619:0:0:0:0:
192,192,71619,128,0,71719:0:0:0:0:
320,192,71619,128,0,71819:0:0:0:0:
64,192,71719,128,0,71819:0:0:0:0:
448,192,71819,128,0,72069:0:0:0:0:
192,192,71819,128,0,72069:0:0:0:0:
320,192,71969,128,0,72044:0:0:0:0:
192,192,72119,128,0,72269:0:0:0:0:
64,192,72119,128,0,72369:0:0:0:0:
448,192,72119,128,0,72269:0:0:0:0:
320,192,72269,128,0,72419:0:0:0:0:
192,192,72419,128,0,72669:0:0:0:0:
448,192,72419,128,0,72669:0:0:0:0:
320,192,72569,128,0,72644:0:0:0:0:
192,192,72719,128,0,72869:0:0:0:0:
448,192,72719,128,0,72869:0:0:0:0:
320,192,72869,128,0,72944:0:0:0:0:
64,192,73019,128,0,73169:0:0:0:0:
192,192,73019,128,0,73094:0:0:0:0:
448,192,73019,1,0,0:0:0:0:
448,192,73169,128,0,73319:0:0:0:0:
320,192,73244,128,0,73319:0:0:0:0:
192,192,73319,128,0,73469:0:0:0:0:
64,192,73319,128,0,73394:0:0:0:0:
320,192,73469,128,0,73544:0:0:0:0:
448,192,73544,128,0,73619:0:0:0:0:
64,192,73619,128,0,73694:0:0:0:0:
192,192,73619,128,0,73769:0:0:0:0:
320,192,73769,128,0,73919:0:0:0:0:
192,192,73844,128,0,73919:0:0:0:0:
64,192,73919,1,0,0:0:0:0:
448,192,73919,1,0,0:0:0:0:
192,192,73994,128,0,74144:0:0:0:0:
320,192,74069,128,0,74144:0:0:0:0:
448,192,74144,128,0,74219:0:0:0:0:
64,192,74219,128,0,74519:0:0:0:0:
192,192,74219,128,0,74444:0:0:0:0:
320,192,74369,128,0,74519:0:0:0:0:
448,192,74519,128,0,74594:0:0:0:0:
192,192,74519,128,0,74594:0:0:0:0:
320,192,74569,128,0,74669:0:0:0:0:
64,192,74669,128,0,74744:0:0:0:0:
192,192,74669,128,0,74744:0:0:0:0:
320,192,74719,128,0,74819:0:0:0:0:
64,192,74819,128,0,74894:0:0:0:0:
448,192,74819,128,0,74969:0:0:0:0:
320,192,74969,128,0,75119:0:0:0:0:
64,192,75044,128,0,75119:0:0:0:0:
192,192,75119,128,0,75419:0:0:0:0:
448,192,75119,128,0,75269:0:0:0:0:
320,192,75269,128,0,75419:0:0:0:0:
64,192,75419,128,0,75569:0:0:0:0:
448,192,75419,128,0,75494:0:0:0:0:
320,192,75569,128,0,75719:0:0:0:0:
448,192,75569,128,0,75644:0:0:0:0:
192,192,75644,128,0,75719:0:0:0:0:
64,192,75719,128,0,75869:0:0:0:0:
448,192,75719,128,0,75794:0:0:0:0:
192,192,75794,128,0,75869:0:0:0:0:
320,192,75794,128,0,75869:0:0:0:0:
448,192,75869,128,0,76019:0:0:0:0:
320,192,75944,128,0,76094:0:0:0:0:
64,192,76019,128,0,76169:0:0:0:0:
192,192,76019,128,0,76094:0:0:0:0:
448,192,76169,128,0,76244:0:0:0:0:
320,192,76169,128,0,76244:0:0:0:0:
192,192,76244,128,0,76319:0:0:0:0:
64,192,76244,128,0,76619:0:0:0:0:
448,192,76319,128,0,76394:0:0:0:0:
320,192,76319,128,0,76544:0:0:0:0:
192,192,76469,128,0,76619:0:0:0:0:
448,192,76619,128,0,76694:0:0:0:0:
320,192,76619,128,0,76769:0:0:0:0:
448,192,76769,128,0,76844:0:0:0:0:
192,192,76769,128,0,76844:0:0:0:0:
64,192,76844,128,0,76994:0:0:0:0:
320,192,76844,128,0,76919:0:0:0:0:
192,192,76919,128,0,77069:0:0:0:0:
448,192,76994,128,0,77069:0:0:0:0:
320,192,77069,128,0,77144:0:0:0:0:
64,192,77069,128,0,77219:0:0:0:0:
192,192,77219,128,0,77669:0:0:0:0:
320,192,77219,128,0,77369:0:0:0:0:
64,192,77369,128,0,77519:0:0:0:0:
448,192,77444,128,0,77519:0:0:0:0:
320,192,77519,128,0,77669:0:0:0:0:
448,192,77669,128,0,77819:0:0:0:0:
64,192,77669,128,0,77744:0:0:0:0:
64,192,77819,128,0,77969:0:0:0:0:
192,192,77819,128,0,77894:0:0:0:0:
320,192,77819,128,0,78044:0:0:0:0:
448,192,77969,1,0,0:0:0:0:
192,192,78119,128,0,78169:0:0:0:0:
64,192,78119,128,0,78169:0:0:0:0:
64,192,78219,128,0,78269:0:0:0:0:
192,192,78219,128,0,78269:0:0:0:0:
192,192,78319,128,0,78369:0:0:0:0:
64,192,78319,128,0,78369:0:0:0:0:
320,192,78419,128,0,78456:0:0:0:0:
448,192,78419,128,0,78456:0:0:0:0:
192,192,78519,1,0,0:0:0:0:
64,192,78519,1,0,0:0:0:0:
320,192,78719,128,0,78769:0:0:0:0:
448,192,78719,128,0,78769:0:0:0:0:
320,192,78819,128,0,78869:0:0:0:0:
448,192,78819,128,0,78869:0:0:0:0:
64,192,79019,128,0,79169:0:0:0:0:
192,192,79019,128,0,79169:0:0:0:0:
320,192,79094,128,0,79169:0:0:0:0:
448,192,79169,128,0,79319:0:0:0:0:
64,192,79244,128,0,79319:0:0:0:0:
320,192,79319,128,0,79469:0:0:0:0:
64,192,79394,128,0,79469:0:0:0:0:
192,192,79469,128,0,79619:0:0:0:0:
448,192,79469,128,0,79544:0:0:0:0:
448,192,79619,128,0,79769:0:0:0:0:
64,192,79619,128,0,79694:0:0:0:0:
192,192,79769,128,0,79844:0:0:0:0:
64,192,79769,128,0,79844:0:0:0:0:
320,192,79844,128,0,79919:0:0:0:0:
192,192,79919,128,0,80069:0:0:0:0:
448,192,79919,128,0,80069:0:0:0:0:
320,192,79994,128,0,80069:0:0:0:0:
64,192,80069,128,0,80219:0:0:0:0:
320,192,80219,128,0,80519:0:0:0:0:
192,192,80219,128,0,80294:0:0:0:0:
448,192,80219,128,0,80369:0:0:0:0:
192,192,80369,128,0,80519:0:0:0:0:
448,192,80444,128,0,80519:0:0:0:0:
64,192,80519,128,0,80594:0:0:0:0:
320,192,80594,128,0,80744:0:0:0:0:
64,192,80669,128,0,80819:0:0:0:0:
448,192,80744,128,0,80819:0:0:0:0:
320,192,80819,128,0,81419:0:0:0:0:
192,192,80819,128,0,81044:0:0:0:0:
64,192,80869,128,0,80969:0:0:0:0:
448,192,80969,128,0,81119:0:0:0:0:
64,192,81119,128,0,81194:0:0:0:0:
192,192,81119,128,0,81194:0:0:0:0:
64,192,81269,128,0,81419:0:0:0:0:
448,192,81269,128,0,81419:0:0:0:0:
192,192,81419,128,0,81494:0:0:0:0:
448,192,81469,128,0,81569:0:0:0:0:
192,192,81569,128,0,81644:0:0:0:0:
448,192,81619,128,0,81719:0:0:0:0:
192,192,81719,128,0,81794:0:0:0:0:
64,192,81719,128,0,81794:0:0:0:0:
448,192,81769,128,0,81869:0:0:0:0:
192,192,81869,128,0,81944:0:0:0:0:
64,192,81869,128,0,81944:0:0:0:0:
448,192,81919,128,0,82019:0:0:0:0:
320,192,82019,128,0,82094:0:0:0:0:
64,192,82019,128,0,82169:0:0:0:0:
192,192,82094,128,0,82169:0:0:0:0:
320,192,82169,128,0,82244:0:0:0:0:
320,192,82319,128,0,82394:0:0:0:0:
448,192,82319,128,0,82469:0:0:0:0:
192,192,82394,128,0,82544:0:0:0:0:
320,192,82469,128,0,82544:0:0:0:0:
64,192,82544,128,0,82619:0:0:0:0:
448,192,82619,128,0,82769:0:0:0:0:
192,192,82619,128,0,82694:0:0:0:0:
320,192,82619,1,0,0:0:0:0:
64,192,82769,128,0,82919:0:0:0:0:
192,192,82769,128,0,82844:0:0:0:0:
320,192,82919,128,0,82994:0:0:0:0:
192,192,82994,128,0,83144:0:0:0:0:
448,192,83069,128,0,83144:0:0:0:0:
320,192,83144,128,0,83219:0:0:0:0:
64,192,83219,128,0,83369:0:0:0:0:
192,192,83219,128,0,83294:0:0:0:0:
448,192,83219,128,0,83444:0:0:0:0:
320,192,83369,128,0,83444:0:0:0:0:
192,192,83369,128,0,83519:0:0:0:0:
64,192,83519,128,0,83669:0:0:0:0:
448,192,83569,128,0,83669:0:0:0:0:
320,192,83669,128,0,83819:0:0:0:0:
192,192,83719,128,0,83819:0:0:0:0:
64,192,83819,128,0,83894:0:0:0:0:
448,192,83819,128,0,84044:0:0:0:0:
320,192,83969,128,0,84119:0:0:0:0:
64,192,83969,128,0,84119:0:0:0:0:
448,192,84119,128,0,84419:0:0:0:0:
192,192,84119,128,0,84194:0:0:0:0:
320,192,84169,128,0,84369:0:0:0:0:
192,192,84269,128,0,84419:0:0:0:0:
64,192,84419,128,0,84719:0:0:0:0:
320,192,84419,128,0,84569:0:0:0:0:
448,192,84569,128,0,84719:0:0:0:0:
192,192,84719,128,0,84869:0:0:0:0:
320,192,84794,128,0,84869:0:0:0:0:
448,192,84869,128,0,85019:0:0:0:0:
192,192,84944,128,0,85019:0:0:0:0:
64,192,85019,128,0,85219:0:0:0:0:
320,192,85019,128,0,85219:0:0:0:0:
64,192,85319,128,0,85469:0:0:0:0:
320,192,85319,128,0,85394:0:0:0:0:
448,192,85394,128,0,85469:0:0:0:0:
192,192,85394,128,0,85469:0:0:0:0:
320,192,85469,128,0,85619:0:0:0:0:
192,192,85544,128,0,85619:0:0:0:0:
64,192,85619,128,0,85844:0:0:0:0:
448,192,85619,128,0,85694:0:0:0:0:
448,192,85769,128,0,85844:0:0:0:0:
192,192,85919,128,0,86019:0:0:0:0:
64,192,85919,128,0,85994:0:0:0:0:
192,192,86069,128,0,86169:0:0:0:0:
64,192,86069,128,0,86219:0:0:0:0:
192,192,86219,128,0,86369:0:0:0:0:
448,192,86219,128,0,86294:0:0:0:0:
64,192,86369,128,0,86519:0:0:0:0:
448,192,86369,128,0,86444:0:0:0:0:
448,192,86519,128,0,86669:0:0:0:0:
320,192,86519,128,0,86669:0:0:0:0:
192,192,86569,128,0,86819:0:0:0:0:
64,192,86819,128,0,86969:0:0:0:0:
320,192,86819,128,0,86894:0:0:0:0:
448,192,86969,128,0,87119:0:0:0:0:
192,192,86969,128,0,87044:0:0:0:0:
64,192,87119,128,0,87269:0:0:0:0:
320,192,87119,128,0,87194:0:0:0:0:
448,192,87269,128,0,87419:0:0:0:0:
192,192,87269,128,0,87344:0:0:0:0:
64,192,87419,128,0,90869:0:0:0:0:
320,192,87419,1,0,0:0:0:0:
192,192,87569,1,0,0:0:0:0:
320,192,87644,1,0,0:0:0:0:
448,192,87719,128,0,87794:0:0:0:0:
320,192,87869,128,0,87944:0:0:0:0:
448,192,88019,1,0,0:0:0:0:
192,192,88019,1,0,0:0:0:0:
320,192,88169,128,0,88244:0:0:0:0:
320,192,88319,1,0,0:0:0:0:
448,192,88469,128,0,88544:0:0:0:0:
192,192,88619,1,0,0:0:0:0:
448,192,88619,128,0,88769:0:0:0:0:
320,192,88769,1,0,0:0:0:0:
192,192,88919,1,0,0:0:0:0:
320,192,89069,128,0,89144:0:0:0:0:
448,192,89219,1,0,0:0:0:0:
320,192,89219,128,0,89519:0:0:0:0:
192,192,89369,1,0,0:0:0:0:
448,192,89519,128,0,89669:0:0:0:0:
320,192,89669,1,0,0:0:0:0:
192,192,89819,128,0,89894:0:0:0:0:
448,192,89969,1,0,0:0:0:0:
192,192,90044,128,0,90119:0:0:0:0:
320,192,90119,1,0,0:0:0:0:
192,192,90269,128,0,90344:0:0:0:0:
448,192,90269,1,0,0:0:0:0:
320,192,90419,1,0,0:0:0:0:
448,192,90419,1,0,0:0:0:0:
192,192,90569,128,0,90869:0:0:0:0:
320,192,90719,1,0,0:0:0:0:
448,192,90869,128,0,91019:0:0:0:0:
192,192,91019,128,0,91319:0:0:0:0:
320,192,91019,1,0,0:0:0:0:
64,192,91169,128,0,91319:0:0:0:0:
448,192,91319,128,0,91469:0:0:0:0:
192,192,91469,128,0,91769:0:0:0:0:
320,192,91469,1,0,0:0:0:0:
64,192,91619,1,0,0:0:0:0:
320,192,91619,1,0,0:0:0:0:
448,192,91769,128,0,91919:0:0:0:0:
320,192,91844,128,0,91919:0:0:0:0:
192,192,91919,128,0,92069:0:0:0:0:
64,192,91994,128,0,92069:0:0:0:0:
320,192,92069,128,0,92219:0:0:0:0:
192,192,92144,128,0,92219:0:0:0:0:
448,192,92219,128,0,95819:0:0:0:0:
64,192,92219,128,0,92294:0:0:0:0:
320,192,92369,1,0,0:0:0:0:
64,192,92444,128,0,92519:0:0:0:0:
192,192,92519,1,0,0:0:0:0:
64,192,92669,128,0,92744:0:0:0:0:
320,192,92669,1,0,0:0:0:0:
192,192,92819,1,0,0:0:0:0:
320,192,92819,128,0,93119:0:0:0:0:
64,192,92969,1,0,0:0:0:0:
64,192,93119,128,0,93194:0:0:0:0:
320,192,93269,1,0,0:0:0:0:
192,192,93419,128,0,93494:0:0:0:0:
192,192,93569,128,0,93644:0:0:0:0:
320,192,93719,1,0,0:0:0:0:
64,192,93869,128,0,93944:0:0:0:0:
192,192,94019,1,0,0:0:0:0:
320,192,94019,128,0,94094:0:0:0:0:
64,192,94169,128,0,94244:0:0:0:0:
192,192,94319,128,0,94394:0:0:0:0:
320,192,94469,128,0,94544:0:0:0:0:
64,192,94619,128,0,94694:0:0:0:0:
320,192,94769,1,0,0:0:0:0:
64,192,94844,128,0,94919:0:0:0:0:
192,192,94919,1,0,0:0:0:0:
64,192,95069,128,0,95144:0:0:0:0:
320,192,95069,1,0,0:0:0:0:
320,192,95219,1,0,0:0:0:0:
192,192,95219,128,0,95294:0:0:0:0:
192,192,95369,128,0,95444:0:0:0:0:
64,192,95444,128,0,95594:0:0:0:0:
320,192,95519,128,0,95594:0:0:0:0:
320,192,95669,1,0,0:0:0:0:
64,192,95819,128,0,95894:0:0:0:0:
192,192,95819,1,0,0:0:0:0:
64,192,95969,128,0,96044:0:0:0:0:
192,192,95969,1,0,0:0:0:0:
64,192,96119,128,0,96194:0:0:0:0:
192,192,96119,1,0,0:0:0:0:
64,192,96269,128,0,96344:0:0:0:0:
192,192,96269,1,0,0:0:0:0:
320,192,96419,128,0,96494:0:0:0:0:
448,192,96419,1,0,0:0:0:0:
320,192,96569,128,0,96644:0:0:0:0:
448,192,96569,1,0,0:0:0:0:
320,192,96719,128,0,96794:0:0:0:0:
448,192,96719,1,0,0:0:0:0:
320,192,96869,128,0,96944:0:0:0:0:
448,192,96869,1,0,0:0:0:0:
192,192,97019,128,0,97319:0:0:0:0:
64,192,97019,128,0,97169:0:0:0:0:
448,192,97169,1,0,0:0:0:0:
320,192,97244,1,0,0:0:0:0:
64,192,97319,1,0,0:0:0:0:
448,192,97319,1,0,0:0:0:0:
320,192,97469,128,0,97619:0:0:0:0:
192,192,97544,1,0,0:0:0:0:
448,192,97619,128,0,97769:0:0:0:0:
64,192,97619,1,0,0:0:0:0:
320,192,97769,128,0,97919:0:0:0:0:
64,192,97844,1,0,0:0:0:0:
192,192,97919,128,0,98069:0:0:0:0:
448,192,97919,1,0,0:0:0:0:
64,192,98069,128,0,98219:0:0:0:0:
448,192,98144,1,0,0:0:0:0:
320,192,98219,1,0,0:0:0:0:
192,192,98219,1,0,0:0:0:0:
192,192,98369,128,0,98519:0:0:0:0:
64,192,98444,1,0,0:0:0:0:
448,192,98519,128,0,98669:0:0:0:0:
320,192,98519,1,0,0:0:0:0:
192,192,98669,1,0,0:0:0:0:
448,192,98744,1,0,0:0:0:0:
64,192,98819,128,0,98969:0:0:0:0:
320,192,98819,128,0,98894:0:0:0:0:
448,192,98969,1,0,0:0:0:0:
320,192,99044,1,0,0:0:0:0:
64,192,99119,128,0,99194:0:0:0:0:
192,192,99119,1,0,0:0:0:0:
64,192,99269,128,0,99344:0:0:0:0:
192,192,99269,1,0,0:0:0:0:
448,192,99344,1,0,0:0:0:0:
320,192,99419,128,0,99719:0:0:0:0:
64,192,99419,1,0,0:0:0:0:
192,192,99569,128,0,99719:0:0:0:0:
64,192,99644,128,0,99719:0:0:0:0:
448,192,99719,1,0,0:0:0:0:
192,192,99869,128,0,100019:0:0:0:0:
320,192,99944,128,0,100019:0:0:0:0:
448,192,100019,128,0,100169:0:0:0:0:
64,192,100019,1,0,0:0:0:0:
320,192,100169,128,0,100319:0:0:0:0:
64,192,100244,1,0,0:0:0:0:
192,192,100319,128,0,100469:0:0:0:0:
448,192,100319,1,0,0:0:0:0:
64,192,100469,128,0,100619:0:0:0:0:
448,192,100544,1,0,0:0:0:0:
320,192,100619,1,0,0:0:0:0:
192,192,100619,1,0,0:0:0:0:
64,192,100769,128,0,100919:0:0:0:0:
448,192,100844,1,0,0:0:0:0:
320,192,100919,128,0,101069:0:0:0:0:
192,192,100919,1,0,0:0:0:0:
192,192,101069,128,0,101219:0:0:0:0:
320,192,101144,128,0,101219:0:0:0:0:
448,192,101219,128,0,101519:0:0:0:0:
64,192,101219,128,0,101444:0:0:0:0:
192,192,101369,128,0,101519:0:0:0:0:
320,192,101444,128,0,101519:0:0:0:0:
64,192,101519,128,0,101819:0:0:0:0:
320,192,101669,128,0,101819:0:0:0:0:
192,192,101669,1,0,0:0:0:0:
192,192,101819,128,0,101969:0:0:0:0:
448,192,101819,128,0,102119:0:0:0:0:
320,192,101969,128,0,102119:0:0:0:0:
64,192,102119,128,0,102269:0:0:0:0:
192,192,102119,1,0,0:0:0:0:
448,192,102194,128,0,102344:0:0:0:0:
320,192,102194,128,0,102269:0:0:0:0:
192,192,102269,128,0,102344:0:0:0:0:
64,192,102344,128,0,102494:0:0:0:0:
320,192,102419,128,0,102569:0:0:0:0:
448,192,102419,128,0,102494:0:0:0:0:
64,192,102569,128,0,102644:0:0:0:0:
448,192,102644,128,0,102719:0:0:0:0:
192,192,102644,128,0,102719:0:0:0:0:
64,192,102719,128,0,102794:0:0:0:0:
320,192,102719,128,0,102869:0:0:0:0:
448,192,102794,128,0,102869:0:0:0:0:
192,192,102869,128,0,103019:0:0:0:0:
448,192,103019,128,0,103169:0:0:0:0:
64,192,103019,1,0,0:0:0:0:
320,192,103169,128,0,103319:0:0:0:0:
64,192,103169,128,0,103244:0:0:0:0:
448,192,103244,128,0,103319:0:0:0:0:
64,192,103319,128,0,103469:0:0:0:0:
192,192,103319,128,0,103394:0:0:0:0:
448,192,103394,128,0,103469:0:0:0:0:
320,192,103394,128,0,103469:0:0:0:0:
192,192,103469,128,0,103619:0:0:0:0:
320,192,103544,128,0,103619:0:0:0:0:
448,192,103619,128,0,103769:0:0:0:0:
64,192,103619,1,0,0:0:0:0:
320,192,103694,128,0,103769:0:0:0:0:
64,192,103769,128,0,103844:0:0:0:0:
448,192,103844,128,0,103919:0:0:0:0:
320,192,103844,128,0,103919:0:0:0:0:
192,192,103919,128,0,103994:0:0:0:0:
448,192,103994,128,0,104069:0:0:0:0:
64,192,103994,128,0,104069:0:0:0:0:
320,192,104069,128,0,104144:0:0:0:0:
192,192,104069,128,0,104144:0:0:0:0:
64,192,104144,128,0,104219:0:0:0:0:
448,192,104219,128,0,104369:0:0:0:0:
192,192,104219,128,0,104519:0:0:0:0:
320,192,104369,128,0,104444:0:0:0:0:
448,192,104444,128,0,104519:0:0:0:0:
64,192,104519,128,0,104669:0:0:0:0:
320,192,104519,128,0,104594:0:0:0:0:
448,192,104669,128,0,104744:0:0:0:0:
192,192,104744,128,0,104894:0:0:0:0:
448,192,104819,128,0,104969:0:0:0:0:
320,192,104819,128,0,104969:0:0:0:0:
192,192,104969,128,0,105119:0:0:0:0:
64,192,104969,1,0,0:0:0:0:
320,192,105044,128,0,105194:0:0:0:0:
448,192,105119,128,0,105194:0:0:0:0:
64,192,105119,128,0,105269:0:0:0:0:
192,192,105194,128,0,105269:0:0:0:0:
448,192,105269,128,0,105419:0:0:0:0:
320,192,105269,1,0,0:0:0:0:
192,192,105344,128,0,105419:0:0:0:0:
320,192,105419,128,0,105569:0:0:0:0:
64,192,105419,128,0,105494:0:0:0:0:
448,192,105494,128,0,105569:0:0:0:0:
64,192,105569,128,0,105644:0:0:0:0:
192,192,105644,128,0,105794:0:0:0:0:
320,192,105719,128,0,105869:0:0:0:0:
448,192,105719,128,0,105794:0:0:0:0:
64,192,105794,128,0,105869:0:0:0:0:
448,192,105869,128,0,105944:0:0:0:0:
192,192,105944,128,0,106094:0:0:0:0:
320,192,106019,128,0,106169:0:0:0:0:
64,192,106019,128,0,106094:0:0:0:0:
448,192,106094,128,0,106169:0:0:0:0:
64,192,106169,128,0,106244:0:0:0:0:
192,192,106244,128,0,106394:0:0:0:0:
320,192,106319,128,0,106469:0:0:0:0:
448,192,106319,128,0,106394:0:0:0:0:
64,192,106394,128,0,106469:0:0:0:0:
448,192,106469,128,0,106544:0:0:0:0:
192,192,106544,128,0,106619:0:0:0:0:
320,192,106619,128,0,106769:0:0:0:0:
64,192,106619,128,0,106694:0:0:0:0:
448,192,106619,128,0,106844:0:0:0:0:
192,192,106769,128,0,106919:0:0:0:0:
320,192,106919,128,0,106994:0:0:0:0:
448,192,106919,128,0,106994:0:0:0:0:
64,192,106994,128,0,107144:0:0:0:0:
192,192,106994,128,0,107069:0:0:0:0:
320,192,107069,128,0,107219:0:0:0:0:
448,192,107144,128,0,107219:0:0:0:0:
64,192,107219,128,0,107369:0:0:0:0:
192,192,107219,128,0,107294:0:0:0:0:
448,192,107369,128,0,107444:0:0:0:0:
320,192,107369,128,0,107519:0:0:0:0:
192,192,107444,128,0,107519:0:0:0:0:
64,192,107519,128,0,107594:0:0:0:0:
448,192,107519,128,0,107669:0:0:0:0:
64,192,107669,128,0,107819:0:0:0:0:
320,192,107669,128,0,107744:0:0:0:0:
192,192,107819,128,0,107969:0:0:0:0:
320,192,107819,128,0,107894:0:0:0:0:
64,192,107894,128,0,107969:0:0:0:0:
448,192,107969,128,0,108044:0:0:0:0:
320,192,107969,128,0,108119:0:0:0:0:
64,192,108044,128,0,108119:0:0:0:0:
448,192,108119,128,0,108194:0:0:0:0:
192,192,108119,128,0,108269:0:0:0:0:
320,192,108269,128,0,108419:0:0:0:0:
64,192,108344,128,0,108419:0:0:0:0:
448,192,108419,128,0,108644:0:0:0:0:
192,192,108419,128,0,108569:0:0:0:0:
320,192,108569,128,0,108719:0:0:0:0:
64,192,108644,128,0,108719:0:0:0:0:
192,192,108719,128,0,108794:0:0:0:0:
448,192,108719,128,0,108869:0:0:0:0:
64,192,108794,128,0,108869:0:0:0:0:
192,192,108869,128,0,108944:0:0:0:0:
320,192,108869,128,0,109019:0:0:0:0:
64,192,109019,128,0,109244:0:0:0:0:
448,192,109019,128,0,109094:0:0:0:0:
192,192,109169,128,0,109319:0:0:0:0:
448,192,109244,128,0,109319:0:0:0:0:
320,192,109319,128,0,109394:0:0:0:0:
64,192,109319,128,0,109469:0:0:0:0:
192,192,109394,128,0,109469:0:0:0:0:
448,192,109394,128,0,109544:0:0:0:0:
320,192,109469,128,0,109619:0:0:0:0:
192,192,109544,128,0,109619:0:0:0:0:
448,192,109619,128,0,109694:0:0:0:0:
64,192,109619,128,0,109769:0:0:0:0:
320,192,109769,128,0,109844:0:0:0:0:
448,192,109769,128,0,109844:0:0:0:0:
192,192,109844,128,0,109919:0:0:0:0:
64,192,109844,128,0,109994:0:0:0:0:
448,192,109919,128,0,110069:0:0:0:0:
320,192,109919,128,0,109994:0:0:0:0:
64,192,110069,128,0,110219:0:0:0:0:
192,192,110069,128,0,110144:0:0:0:0:
448,192,110144,128,0,110219:0:0:0:0:
320,192,110219,128,0,110369:0:0:0:0:
192,192,110219,128,0,110294:0:0:0:0:
64,192,110294,128,0,110444:0:0:0:0:
448,192,110369,128,0,110444:0:0:0:0:
192,192,110369,128,0,110519:0:0:0:0:
320,192,110444,128,0,110519:0:0:0:0:
448,192,110519,128,0,110669:0:0:0:0:
64,192,110519,128,0,110594:0:0:0:0:
192,192,110594,128,0,110669:0:0:0:0:
320,192,110669,128,0,110819:0:0:0:0:
448,192,110744,128,0,110819:0:0:0:0:
64,192,110819,128,0,110969:0:0:0:0:
192,192,110819,128,0,110894:0:0:0:0:
192,192,110969,128,0,111119:0:0:0:0:
448,192,110969,128,0,111044:0:0:0:0:
320,192,111119,128,0,111194:0:0:0:0:
64,192,111119,128,0,111269:0:0:0:0:
320,192,111269,128,0,111419:0:0:0:0:
448,192,111269,128,0,111344:0:0:0:0:
64,192,111419,128,0,111569:0:0:0:0:
192,192,111419,128,0,111494:0:0:0:0:
448,192,111494,128,0,111644:0:0:0:0:
320,192,111569,128,0,111719:0:0:0:0:
64,192,111644,128,0,111719:0:0:0:0:
448,192,111719,128,0,111794:0:0:0:0:
192,192,111719,128,0,111869:0:0:0:0:
64,192,111794,128,0,111944:0:0:0:0:
448,192,111869,128,0,112019:0:0:0:0:
192,192,111944,128,0,112094:0:0:0:0:
64,192,112019,128,0,112169:0:0:0:0:
320,192,112019,128,0,112094:0:0:0:0:
448,192,112094,128,0,112244:0:0:0:0:
320,192,112169,128,0,112319:0:0:0:0:
64,192,112244,128,0,112394:0:0:0:0:
192,192,112319,128,0,112469:0:0:0:0:
448,192,112319,128,0,112394:0:0:0:0:
320,192,112394,128,0,112469:0:0:0:0:
448,192,112469,128,0,112544:0:0:0:0:
64,192,112544,128,0,112619:0:0:0:0:
192,192,112619,128,0,112769:0:0:0:0:
320,192,112619,128,0,112694:0:0:0:0:
64,192,112694,128,0,112769:0:0:0:0:
448,192,112769,128,0,112844:0:0:0:0:
192,192,112844,128,0,112994:0:0:0:0:
448,192,112919,128,0,113069:0:0:0:0:
320,192,112919,128,0,112994:0:0:0:0:
64,192,112994,128,0,113069:0:0:0:0:
192,192,113069,128,0,113144:0:0:0:0:
448,192,113144,128,0,113294:0:0:0:0:
192,192,113219,128,0,113369:0:0:0:0:
320,192,113219,128,0,113294:0:0:0:0:
64,192,113294,128,0,113369:0:0:0:0:
320,192,113369,128,0,113444:0:0:0:0:
64,192,113444,128,0,113594:0:0:0:0:
192,192,113519,128,0,113594:0:0:0:0:
448,192,113519,128,0,113669:0:0:0:0:
320,192,113594,128,0,113669:0:0:0:0:
64,192,113669,128,0,113744:0:0:0:0:
320,192,113744,128,0,113819:0:0:0:0:
64,192,113819,128,0,113969:0:0:0:0:
192,192,113819,128,0,113894:0:0:0:0:
448,192,113819,128,0,114044:0:0:0:0:
320,192,113894,128,0,113969:0:0:0:0:
192,192,113969,128,0,114044:0:0:0:0:
64,192,114044,128,0,114194:0:0:0:0:
320,192,114119,128,0,114269:0:0:0:0:
192,192,114119,128,0,114194:0:0:0:0:
448,192,114194,128,0,114269:0:0:0:0:
64,192,114269,128,0,114344:0:0:0:0:
320,192,114344,128,0,114494:0:0:0:0:
64,192,114419,128,0,114569:0:0:0:0:
192,192,114419,128,0,114494:0:0:0:0:
448,192,114494,128,0,114569:0:0:0:0:
320,192,114569,128,0,114719:0:0:0:0:
64,192,114644,128,0,114719:0:0:0:0:
448,192,114719,128,0,114869:0:0:0:0:
192,192,114719,128,0,114794:0:0:0:0:
64,192,114794,128,0,114944:0:0:0:0:
192,192,114869,128,0,114944:0:0:0:0:
448,192,114944,128,0,115094:0:0:0:0:
64,192,115019,128,0,115244:0:0:0:0:
192,192,115019,128,0,115094:0:0:0:0:
320,192,115019,128,0,115169:0:0:0:0:
448,192,115169,128,0,115244:0:0:0:0:
192,192,115244,128,0,115319:0:0:0:0:
448,192,115319,128,0,115544:0:0:0:0:
320,192,115319,128,0,115394:0:0:0:0:
64,192,115319,128,0,115469:0:0:0:0:
192,192,115394,128,0,115544:0:0:0:0:
320,192,115469,128,0,115544:0:0:0:0:
64,192,115544,128,0,115619:0:0:0:0:
320,192,115619,128,0,115844:0:0:0:0:
448,192,115619,128,0,115694:0:0:0:0:
192,192,115619,128,0,115769:0:0:0:0:
64,192,115694,128,0,115844:0:0:0:0:
448,192,115769,128,0,115844:0:0:0:0:
192,192,115844,128,0,116144:0:0:0:0:
320,192,115919,128,0,116219:0:0:0:0:
64,192,115919,128,0,115994:0:0:0:0:
448,192,115919,128,0,116069:0:0:0:0:
64,192,116069,128,0,116144:0:0:0:0:
448,192,116144,128,0,116219:0:0:0:0:
64,192,116219,128,0,118619:0:0:0:0:
192,192,116219,1,0,0:0:0:0:
