osu file format v14

[General]
AudioFilename: jubeat saucerfulfill - U1 overground.mp3
AudioLeadIn: 0
PreviewTime: 9943
Countdown: 0
SampleSet: Normal
StackLeniency: 0.7
Mode: 1
LetterboxInBreaks: 0
WidescreenStoryboard: 0

[Editor]
DistanceSpacing: 0.9
BeatDivisor: 4
GridSize: 32
TimelineZoom: 2.5

[Metadata]
Title:Dopamine
TitleUnicode:ドーパミン
Artist:U1 overground
ArtistUnicode:U1 overground
Creator:carnivore101
Version:Taikosis
Source:jubeat saucer fulfill
Tags:
BeatmapID:798955
BeatmapSetID:363922

[Difficulty]
HPDrainRate:5
CircleSize:5
OverallDifficulty:6
ApproachRate:5
SliderMultiplier:1.4
SliderTickRate:1

[Events]
//Background and Video events
0,0,"fiber_darkness_textures_1280x720_hd-wallpaper-13151.jpg",0,0
//Break Periods
//Storyboard Layer 0 (Background)
//Storyboard Layer 1 (Fail)
//Storyboard Layer 2 (Pass)
//Storyboard Layer 3 (Foreground)
//Storyboard Sound Samples

[TimingPoints]
1107,300,4,1,0,80,1,0
40857,-40,4,1,0,80,0,0
41007,-100,4,1,0,80,0,0
44307,-83.3333333333333,4,1,0,80,0,0
46707,-71.4285714285714,4,1,0,80,0,0
49107,-62.5,4,1,0,80,0,0
51507,-55.5555555555556,4,1,0,80,0,0
52707,-50,4,1,0,80,0,0
53907,-100,4,1,0,80,0,1
73107,-83.3333333333333,4,1,0,80,0,0
75507,-100,4,1,0,80,0,0
80307,-71.4285714285714,4,1,0,80,0,0
82707,-100,4,1,0,80,0,0
87507,-90.9090909090909,4,1,0,80,0,0
97107,-76.9230769230769,4,1,0,80,0,1
106707,-66.6666666666667,4,1,0,80,0,1
116307,-66.6666666666667,4,1,0,80,0,0

[HitObjects]
256,192,1107,5,0,0:0:0:0:
256,192,1182,1,0,0:0:0:0:
256,192,1257,1,8,0:0:0:0:
256,192,1407,1,8,0:0:0:0:
256,192,1482,1,0,0:0:0:0:
256,192,1557,1,8,0:0:0:0:
256,192,1707,1,0,0:0:0:0:
256,192,1857,1,0,0:0:0:0:
256,192,1932,1,0,0:0:0:0:
256,192,2007,1,8,0:0:0:0:
256,192,2082,1,0,0:0:0:0:
256,192,2157,1,0,0:0:0:0:
256,192,2307,1,8,0:0:0:0:
256,192,2457,1,0,0:0:0:0:
256,192,2532,1,0,0:0:0:0:
256,192,2607,1,0,0:0:0:0:
256,192,2757,1,8,0:0:0:0:
256,192,2907,1,8,0:0:0:0:
256,192,3057,1,0,0:0:0:0:
256,192,3132,1,0,0:0:0:0:
256,192,3207,1,8,0:0:0:0:
256,192,3282,1,0,0:0:0:0:
256,192,3357,1,0,0:0:0:0:
256,192,3432,1,0,0:0:0:0:
256,192,3507,1,8,0:0:0:0:
256,192,3657,1,8,0:0:0:0:
256,192,3732,1,8,0:0:0:0:
256,192,3807,1,8,0:0:0:0:
256,192,3957,1,8,0:0:0:0:
256,192,4107,1,0,0:0:0:0:
256,192,4257,1,0,0:0:0:0:
256,192,4332,1,0,0:0:0:0:
256,192,4407,1,8,0:0:0:0:
256,192,4557,1,0,0:0:0:0:
256,192,4707,1,8,0:0:0:0:
256,192,4857,1,0,0:0:0:0:
256,192,4932,1,0,0:0:0:0:
256,192,5007,1,8,0:0:0:0:
256,192,5082,1,0,0:0:0:0:
256,192,5157,1,8,0:0:0:0:
256,192,5307,1,8,0:0:0:0:
256,192,5457,1,0,0:0:0:0:
256,192,5532,1,0,0:0:0:0:
256,192,5607,1,8,0:0:0:0:
256,192,5682,1,0,0:0:0:0:
256,192,5757,1,8,0:0:0:0:
256,192,5907,1,8,0:0:0:0:
256,192,6057,1,0,0:0:0:0:
256,192,6132,1,0,0:0:0:0:
256,192,6207,1,8,0:0:0:0:
256,192,6357,1,8,0:0:0:0:
256,192,6507,1,0,0:0:0:0:
256,192,6582,1,0,0:0:0:0:
256,192,6657,1,8,0:0:0:0:
256,192,6807,1,8,0:0:0:0:
256,192,6882,1,0,0:0:0:0:
256,192,6957,1,0,0:0:0:0:
256,192,7032,1,0,0:0:0:0:
256,192,7107,1,8,0:0:0:0:
256,192,7257,1,8,0:0:0:0:
256,192,7407,1,0,0:0:0:0:
256,192,7482,1,0,0:0:0:0:
256,192,7557,1,0,0:0:0:0:
256,192,7707,1,8,0:0:0:0:
256,192,7782,1,0,0:0:0:0:
256,192,7857,1,8,0:0:0:0:
256,192,7932,1,8,0:0:0:0:
256,192,8007,1,8,0:0:0:0:
256,192,8157,1,8,0:0:0:0:
256,192,8232,1,0,0:0:0:0:
256,192,8307,1,8,0:0:0:0:
256,192,8357,1,8,0:0:0:0:
256,192,8457,1,0,0:0:0:0:
256,192,8607,1,0,0:0:0:0:
256,192,8757,1,0,0:0:0:0:
256,192,8907,1,8,0:0:0:0:
256,192,8957,1,8,0:0:0:0:
256,192,9057,1,0,0:0:0:0:
256,192,9207,1,0,0:0:0:0:
256,192,9357,1,0,0:0:0:0:
256,192,9507,1,0,0:0:0:0:
256,192,9557,1,8,0:0:0:0:
256,192,9657,1,0,0:0:0:0:
256,192,9707,1,8,0:0:0:0:
256,192,9807,1,8,0:0:0:0:
256,192,9857,1,8,0:0:0:0:
256,192,9957,1,8,0:0:0:0:
256,192,10007,1,8,0:0:0:0:
256,192,10107,1,8,0:0:0:0:
256,192,10182,1,0,0:0:0:0:
256,192,10257,1,8,0:0:0:0:
256,192,10332,1,8,0:0:0:0:
256,192,10407,1,8,0:0:0:0:
256,192,10482,1,0,0:0:0:0:
256,192,10557,1,0,0:0:0:0:
256,192,10632,1,8,0:0:0:0:
256,192,10707,1,8,0:0:0:0:
256,192,10857,1,8,0:0:0:0:
256,192,10932,1,8,0:0:0:0:
256,192,11082,1,0,0:0:0:0:
256,192,11157,1,0,0:0:0:0:
256,192,11307,1,8,0:0:0:0:
256,192,11457,1,0,0:0:0:0:
256,192,11607,1,8,0:0:0:0:
256,192,11757,1,0,0:0:0:0:
256,192,11907,1,8,0:0:0:0:
256,192,12057,1,8,0:0:0:0:
256,192,12132,1,8,0:0:0:0:
256,192,12282,1,0,0:0:0:0:
256,192,12357,1,0,0:0:0:0:
256,192,12507,1,8,0:0:0:0:
256,192,12582,1,0,0:0:0:0:
256,192,12657,1,8,0:0:0:0:
256,192,12732,1,8,0:0:0:0:
256,192,12807,1,0,0:0:0:0:
256,192,12882,1,0,0:0:0:0:
256,192,12957,1,8,0:0:0:0:
256,192,13032,1,0,0:0:0:0:
256,192,13107,1,8,0:0:0:0:
256,192,13257,1,8,0:0:0:0:
256,192,13332,1,8,0:0:0:0:
256,192,13482,1,0,0:0:0:0:
256,192,13557,1,0,0:0:0:0:
256,192,13707,1,8,0:0:0:0:
256,192,13857,1,0,0:0:0:0:
256,192,14007,1,0,0:0:0:0:
256,192,14157,1,8,0:0:0:0:
256,192,14232,1,0,0:0:0:0:
256,192,14307,1,8,0:0:0:0:
256,192,14457,1,0,0:0:0:0:
256,192,14607,1,8,0:0:0:0:
256,192,14682,1,8,0:0:0:0:
256,192,14757,1,0,0:0:0:0:
256,192,14907,1,0,0:0:0:0:
256,192,15057,1,8,0:0:0:0:
256,192,15132,1,0,0:0:0:0:
256,192,15207,1,0,0:0:0:0:
256,192,15357,1,0,0:0:0:0:
256,192,15432,1,8,0:0:0:0:
256,192,15507,1,8,0:0:0:0:
256,192,15657,1,8,0:0:0:0:
256,192,15732,1,0,0:0:0:0:
256,192,15882,1,0,0:0:0:0:
256,192,15957,1,8,0:0:0:0:
256,192,16107,1,8,0:0:0:0:
256,192,16257,1,0,0:0:0:0:
256,192,16407,1,8,0:0:0:0:
256,192,16557,1,0,0:0:0:0:
256,192,16707,1,8,0:0:0:0:
256,192,16857,1,8,0:0:0:0:
256,192,16932,1,8,0:0:0:0:
256,192,17082,1,0,0:0:0:0:
256,192,17157,1,8,0:0:0:0:
256,192,17307,1,8,0:0:0:0:
256,192,17457,1,0,0:0:0:0:
256,192,17607,1,8,0:0:0:0:
256,192,17757,1,0,0:0:0:0:
256,192,17907,1,8,0:0:0:0:
256,192,18057,1,8,0:0:0:0:
256,192,18132,1,8,0:0:0:0:
256,192,18282,1,8,0:0:0:0:
256,192,18357,1,8,0:0:0:0:
256,192,18507,1,8,0:0:0:0:
256,192,18657,1,0,0:0:0:0:
256,192,18807,1,8,0:0:0:0:
256,192,18882,1,0,0:0:0:0:
256,192,18957,1,0,0:0:0:0:
256,192,19032,1,0,0:0:0:0:
256,192,19107,1,8,0:0:0:0:
256,192,19207,1,8,0:0:0:0:
256,192,19307,1,0,0:0:0:0:
256,192,19407,1,8,0:0:0:0:
256,192,19507,1,8,0:0:0:0:
256,192,19607,1,0,0:0:0:0:
256,192,19707,1,8,0:0:0:0:
256,192,19807,1,8,0:0:0:0:
256,192,19907,1,0,0:0:0:0:
256,192,20007,1,8,0:0:0:0:
256,192,20107,1,0,0:0:0:0:
256,192,20207,1,8,0:0:0:0:
256,192,20307,1,0,0:0:0:0:
256,192,20457,1,0,0:0:0:0:
256,192,20607,1,8,0:0:0:0:
256,192,20682,1,8,0:0:0:0:
256,192,20757,1,8,0:0:0:0:
256,192,20832,1,0,0:0:0:0:
256,192,20907,1,0,0:0:0:0:
256,192,21057,1,0,0:0:0:0:
256,192,21207,1,8,0:0:0:0:
256,192,21282,1,0,0:0:0:0:
256,192,21357,1,8,0:0:0:0:
256,192,21432,1,8,0:0:0:0:
256,192,21507,1,8,0:0:0:0:
256,192,21657,1,8,0:0:0:0:
256,192,21807,1,0,0:0:0:0:
256,192,21857,1,0,0:0:0:0:
256,192,21907,1,0,0:0:0:0:
256,192,21957,1,8,0:0:0:0:
256,192,22032,1,0,0:0:0:0:
256,192,22107,1,8,0:0:0:0:
256,192,22182,1,8,0:0:0:0:
256,192,22257,1,0,0:0:0:0:
256,192,22332,1,0,0:0:0:0:
256,192,22407,1,8,0:0:0:0:
256,192,22482,1,0,0:0:0:0:
256,192,22557,1,8,0:0:0:0:
256,192,22632,1,8,0:0:0:0:
256,192,22707,1,0,0:0:0:0:
256,192,22857,1,0,0:0:0:0:
256,192,23007,1,8,0:0:0:0:
256,192,23082,1,0,0:0:0:0:
256,192,23157,1,0,0:0:0:0:
256,192,23232,1,0,0:0:0:0:
256,192,23307,1,8,0:0:0:0:
256,192,23457,1,8,0:0:0:0:
256,192,23607,1,8,0:0:0:0:
256,192,23682,1,8,0:0:0:0:
256,192,23757,1,8,0:0:0:0:
256,192,23832,1,0,0:0:0:0:
256,192,23907,1,8,0:0:0:0:
256,192,24057,1,8,0:0:0:0:
256,192,24207,1,0,0:0:0:0:
256,192,24282,1,0,0:0:0:0:
256,192,24357,1,0,0:0:0:0:
256,192,24432,1,0,0:0:0:0:
256,192,24507,1,8,0:0:0:0:
256,192,24657,1,0,0:0:0:0:
256,192,24807,1,8,0:0:0:0:
256,192,24882,1,8,0:0:0:0:
256,192,24957,1,8,0:0:0:0:
256,192,25032,1,8,0:0:0:0:
256,192,25107,1,0,0:0:0:0:
256,192,25257,1,0,0:0:0:0:
256,192,25407,1,0,0:0:0:0:
256,192,25482,1,8,0:0:0:0:
256,192,25557,1,8,0:0:0:0:
256,192,25632,1,8,0:0:0:0:
256,192,25707,1,0,0:0:0:0:
256,192,25857,1,8,0:0:0:0:
256,192,26007,1,8,0:0:0:0:
256,192,26082,1,0,0:0:0:0:
256,192,26157,1,8,0:0:0:0:
256,192,26207,1,0,0:0:0:0:
256,192,26257,1,0,0:0:0:0:
256,192,26307,1,8,0:0:0:0:
256,192,26457,1,8,0:0:0:0:
256,192,26607,1,8,0:0:0:0:
256,192,26657,1,0,0:0:0:0:
256,192,26707,1,0,0:0:0:0:
256,192,26757,1,0,0:0:0:0:
256,192,26807,1,0,0:0:0:0:
256,192,26857,1,0,0:0:0:0:
256,192,26907,1,8,0:0:0:0:
256,192,26982,1,8,0:0:0:0:
256,192,27057,1,0,0:0:0:0:
256,192,27132,1,0,0:0:0:0:
256,192,27207,1,8,0:0:0:0:
256,192,27282,1,8,0:0:0:0:
256,192,27357,1,8,0:0:0:0:
256,192,27432,1,8,0:0:0:0:
256,192,27507,1,0,0:0:0:0:
256,192,27657,1,0,0:0:0:0:
256,192,27732,1,0,0:0:0:0:
256,192,27807,1,8,0:0:0:0:
256,192,27957,1,0,0:0:0:0:
256,192,28032,1,0,0:0:0:0:
256,192,28107,1,8,0:0:0:0:
256,192,28182,1,0,0:0:0:0:
256,192,28257,1,8,0:0:0:0:
256,192,28332,1,0,0:0:0:0:
256,192,28407,1,0,0:0:0:0:
256,192,28482,1,0,0:0:0:0:
256,192,28557,1,0,0:0:0:0:
256,192,28632,1,0,0:0:0:0:
256,192,28707,1,8,0:0:0:0:
256,192,28857,1,8,0:0:0:0:
256,192,28932,1,8,0:0:0:0:
256,192,29007,1,0,0:0:0:0:
256,192,29157,1,0,0:0:0:0:
256,192,29207,1,0,0:0:0:0:
256,192,29257,1,0,0:0:0:0:
256,192,29307,1,8,0:0:0:0:
256,192,29382,1,0,0:0:0:0:
256,192,29457,1,0,0:0:0:0:
256,192,29532,1,0,0:0:0:0:
256,192,29607,1,8,0:0:0:0:
256,192,29682,1,8,0:0:0:0:
256,192,29757,1,8,0:0:0:0:
256,192,29832,1,8,0:0:0:0:
256,192,29907,1,0,0:0:0:0:
256,192,30057,1,0,0:0:0:0:
256,192,30207,1,8,0:0:0:0:
256,192,30282,1,8,0:0:0:0:
256,192,30357,1,8,0:0:0:0:
256,192,30507,1,0,0:0:0:0:
256,192,30657,1,8,0:0:0:0:
256,192,30732,1,8,0:0:0:0:
256,192,30807,1,8,0:0:0:0:
256,192,30882,1,0,0:0:0:0:
256,192,30957,1,8,0:0:0:0:
256,192,31032,1,0,0:0:0:0:
256,192,31107,1,8,0:0:0:0:
256,192,31257,1,0,0:0:0:0:
256,192,31332,1,8,0:0:0:0:
256,192,31407,1,0,0:0:0:0:
256,192,31482,1,0,0:0:0:0:
256,192,31557,1,8,0:0:0:0:
256,192,31632,1,8,0:0:0:0:
256,192,31707,1,8,0:0:0:0:
256,192,31782,1,0,0:0:0:0:
256,192,31857,1,8,0:0:0:0:
256,192,31932,1,0,0:0:0:0:
256,192,32007,1,8,0:0:0:0:
256,192,32082,1,0,0:0:0:0:
256,192,32157,1,0,0:0:0:0:
256,192,32232,1,0,0:0:0:0:
256,192,32307,1,8,0:0:0:0:
256,192,32457,1,8,0:0:0:0:
256,192,32532,1,8,0:0:0:0:
256,192,32682,1,0,0:0:0:0:
256,192,32757,1,8,0:0:0:0:
256,192,32907,1,8,0:0:0:0:
256,192,32982,1,0,0:0:0:0:
256,192,33057,1,0,0:0:0:0:
256,192,33132,1,0,0:0:0:0:
256,192,33207,1,8,0:0:0:0:
256,192,33282,1,8,0:0:0:0:
256,192,33357,1,8,0:0:0:0:
256,192,33432,1,8,0:0:0:0:
256,192,33507,1,8,0:0:0:0:
256,192,33582,1,0,0:0:0:0:
256,192,33657,1,8,0:0:0:0:
256,192,33732,1,0,0:0:0:0:
256,192,33807,1,8,0:0:0:0:
256,192,33882,1,0,0:0:0:0:
256,192,33957,1,8,0:0:0:0:
256,192,34032,1,0,0:0:0:0:
256,192,34107,1,8,0:0:0:0:
256,192,34257,1,8,0:0:0:0:
256,192,34332,1,8,0:0:0:0:
256,192,34407,1,8,0:0:0:0:
256,192,34557,1,0,0:0:0:0:
256,192,34707,1,8,0:0:0:0:
256,192,34857,1,0,0:0:0:0:
256,192,35007,1,8,0:0:0:0:
256,192,35082,1,8,0:0:0:0:
256,192,35157,1,8,0:0:0:0:
256,192,35307,1,0,0:0:0:0:
256,192,35457,1,8,0:0:0:0:
256,192,35532,1,8,0:0:0:0:
256,192,35607,1,0,0:0:0:0:
256,192,35757,1,0,0:0:0:0:
256,192,35907,1,8,0:0:0:0:
256,192,36057,1,8,0:0:0:0:
256,192,36132,1,8,0:0:0:0:
256,192,36282,1,8,0:0:0:0:
256,192,36357,1,0,0:0:0:0:
256,192,36507,1,8,0:0:0:0:
256,192,36657,1,8,0:0:0:0:
256,192,36807,1,0,0:0:0:0:
256,192,36882,1,0,0:0:0:0:
256,192,36957,1,8,0:0:0:0:
256,192,37032,1,0,0:0:0:0:
256,192,37107,1,8,0:0:0:0:
256,192,37257,1,8,0:0:0:0:
256,192,37332,1,8,0:0:0:0:
256,192,37482,1,0,0:0:0:0:
256,192,37557,1,8,0:0:0:0:
256,192,37707,1,8,0:0:0:0:
256,192,37857,1,8,0:0:0:0:
256,192,37932,1,8,0:0:0:0:
256,192,38007,1,8,0:0:0:0:
256,192,38082,1,0,0:0:0:0:
256,192,38157,1,0,0:0:0:0:
256,192,38232,1,0,0:0:0:0:
256,192,38307,1,8,0:0:0:0:
256,192,38457,1,8,0:0:0:0:
256,192,38532,1,8,0:0:0:0:
256,192,38682,1,8,0:0:0:0:
256,192,38757,1,0,0:0:0:0:
256,192,38907,1,8,0:0:0:0:
256,192,38982,1,0,0:0:0:0:
256,192,39057,1,8,0:0:0:0:
256,192,39132,1,8,0:0:0:0:
256,192,39207,1,8,0:0:0:0:
256,192,39282,1,0,0:0:0:0:
256,192,39357,1,8,0:0:0:0:
256,192,39432,1,0,0:0:0:0:
256,192,39507,1,8,0:0:0:0:
256,192,39807,1,0,0:0:0:0:
256,192,40107,1,0,0:0:0:0:
256,192,40407,1,0,0:0:0:0:
256,192,40707,1,0,0:0:0:0:
256,192,40857,1,12,0:0:0:0:
256,192,41007,1,0,0:0:0:0:
256,192,41307,1,0,0:0:0:0:
256,192,41607,1,0,0:0:0:0:
256,192,41907,1,0,0:0:0:0:
256,192,42057,1,0,0:0:0:0:
256,192,42207,1,0,0:0:0:0:
256,192,42282,1,0,0:0:0:0:
256,192,42357,1,0,0:0:0:0:
256,192,42507,1,0,0:0:0:0:
256,192,42657,1,0,0:0:0:0:
256,192,42732,1,0,0:0:0:0:
256,192,42807,1,0,0:0:0:0:
256,192,42957,1,0,0:0:0:0:
256,192,43107,1,0,0:0:0:0:
256,192,43257,1,0,0:0:0:0:
256,192,43332,1,0,0:0:0:0:
256,192,43407,1,0,0:0:0:0:
256,192,43557,1,0,0:0:0:0:
256,192,43632,1,0,0:0:0:0:
256,192,43707,1,0,0:0:0:0:
256,192,43857,1,0,0:0:0:0:
256,192,43932,1,0,0:0:0:0:
256,192,44007,1,8,0:0:0:0:
256,192,44082,1,0,0:0:0:0:
256,192,44157,1,0,0:0:0:0:
256,192,44232,1,0,0:0:0:0:
256,192,44307,1,0,0:0:0:0:
256,192,44607,1,0,0:0:0:0:
256,192,44757,1,8,0:0:0:0:
256,192,44907,1,0,0:0:0:0:
256,192,45057,1,0,0:0:0:0:
256,192,45207,1,8,0:0:0:0:
256,192,45507,1,0,0:0:0:0:
256,192,45807,1,8,0:0:0:0:
256,192,45857,1,8,0:0:0:0:
256,192,45957,1,8,0:0:0:0:
256,192,46007,1,8,0:0:0:0:
256,192,46107,1,0,0:0:0:0:
256,192,46257,1,0,0:0:0:0:
256,192,46407,1,8,0:0:0:0:
256,192,46557,1,0,0:0:0:0:
256,192,46707,1,0,0:0:0:0:
256,192,47007,1,0,0:0:0:0:
256,192,47157,1,8,0:0:0:0:
256,192,47307,1,0,0:0:0:0:
256,192,47457,1,0,0:0:0:0:
256,192,47607,1,8,0:0:0:0:
256,192,47907,1,0,0:0:0:0:
256,192,48207,1,8,0:0:0:0:
256,192,48257,1,8,0:0:0:0:
256,192,48357,1,8,0:0:0:0:
256,192,48407,1,8,0:0:0:0:
256,192,48507,1,0,0:0:0:0:
256,192,48657,1,0,0:0:0:0:
256,192,48807,1,8,0:0:0:0:
256,192,48957,1,0,0:0:0:0:
256,192,49107,1,0,0:0:0:0:
256,192,49407,1,0,0:0:0:0:
256,192,49557,1,8,0:0:0:0:
256,192,49707,1,0,0:0:0:0:
256,192,49857,1,0,0:0:0:0:
256,192,50007,1,8,0:0:0:0:
256,192,50307,1,0,0:0:0:0:
256,192,50607,1,8,0:0:0:0:
256,192,50657,1,8,0:0:0:0:
256,192,50757,1,8,0:0:0:0:
256,192,50807,1,8,0:0:0:0:
256,192,50907,1,0,0:0:0:0:
256,192,51057,1,0,0:0:0:0:
256,192,51207,1,8,0:0:0:0:
256,192,51357,1,0,0:0:0:0:
256,192,51507,1,0,0:0:0:0:
256,192,51807,1,0,0:0:0:0:
256,192,51957,1,8,0:0:0:0:
256,192,52107,1,0,0:0:0:0:
256,192,52257,1,0,0:0:0:0:
256,192,52407,1,8,0:0:0:0:
256,192,52707,2,4,B|352:192|256:128|160:192|256:256|448:192|256:96|96:192|256:288|480:192|256:64|64:192|256:320|512:192|256:32|32:192|256:352|512:224|512:256|256:384|0:192|256:0|512:160|512:128|288:0|320:0|512:96|512:64|352:0|384:0|512:0|512:32|64:32|32:32|32:128|64:64|128:64|96:256|64:256|0:256|160:192,1,840
256,192,53907,1,0,0:0:0:0:
256,192,54057,1,8,0:0:0:0:
256,192,54207,1,0,0:0:0:0:
256,192,54282,1,0,0:0:0:0:
256,192,54357,1,0,0:0:0:0:
256,192,54432,1,0,0:0:0:0:
256,192,54507,1,8,0:0:0:0:
256,192,54657,1,0,0:0:0:0:
256,192,54732,1,0,0:0:0:0:
256,192,54807,1,8,0:0:0:0:
256,192,54882,1,0,0:0:0:0:
256,192,54957,1,8,0:0:0:0:
256,192,55007,1,0,0:0:0:0:
256,192,55057,1,0,0:0:0:0:
256,192,55107,1,8,0:0:0:0:
256,192,55257,1,0,0:0:0:0:
256,192,55407,1,8,0:0:0:0:
256,192,55482,1,8,0:0:0:0:
256,192,55557,1,8,0:0:0:0:
256,192,55632,1,0,0:0:0:0:
256,192,55707,1,8,0:0:0:0:
256,192,55857,1,0,0:0:0:0:
256,192,56007,1,8,0:0:0:0:
256,192,56107,1,8,0:0:0:0:
256,192,56207,1,8,0:0:0:0:
256,192,56307,1,8,0:0:0:0:
256,192,56407,1,0,0:0:0:0:
256,192,56507,1,0,0:0:0:0:
256,192,56607,1,8,0:0:0:0:
256,192,56707,1,0,0:0:0:0:
256,192,56807,1,0,0:0:0:0:
256,192,56907,1,8,0:0:0:0:
256,192,57007,1,0,0:0:0:0:
256,192,57107,1,0,0:0:0:0:
256,192,57207,1,8,0:0:0:0:
256,192,57307,1,0,0:0:0:0:
256,192,57407,1,0,0:0:0:0:
256,192,57507,1,8,0:0:0:0:
256,192,57657,1,0,0:0:0:0:
256,192,57807,1,8,0:0:0:0:
256,192,57882,1,8,0:0:0:0:
256,192,57957,1,8,0:0:0:0:
256,192,58032,1,0,0:0:0:0:
256,192,58107,1,8,0:0:0:0:
256,192,58157,1,8,0:0:0:0:
256,192,58207,1,8,0:0:0:0:
256,192,58257,1,8,0:0:0:0:
256,192,58332,1,0,0:0:0:0:
256,192,58407,1,8,0:0:0:0:
256,192,58482,1,0,0:0:0:0:
256,192,58557,1,8,0:0:0:0:
256,192,58632,1,0,0:0:0:0:
256,192,58707,1,8,0:0:0:0:
256,192,58782,1,0,0:0:0:0:
256,192,58857,1,0,0:0:0:0:
256,192,59007,1,8,0:0:0:0:
256,192,59082,1,8,0:0:0:0:
256,192,59157,1,8,0:0:0:0:
256,192,59232,1,8,0:0:0:0:
256,192,59307,1,8,0:0:0:0:
256,192,59457,1,0,0:0:0:0:
256,192,59607,1,8,0:0:0:0:
256,192,59682,1,0,0:0:0:0:
256,192,59757,1,8,0:0:0:0:
256,192,59832,1,0,0:0:0:0:
256,192,59907,1,0,0:0:0:0:
256,192,59957,1,0,0:0:0:0:
256,192,60007,1,0,0:0:0:0:
256,192,60057,1,8,0:0:0:0:
256,192,60107,1,8,0:0:0:0:
256,192,60157,1,8,0:0:0:0:
256,192,60207,1,8,0:0:0:0:
256,192,60282,1,0,0:0:0:0:
256,192,60357,1,8,0:0:0:0:
256,192,60432,1,0,0:0:0:0:
256,192,60507,1,0,0:0:0:0:
256,192,60657,1,8,0:0:0:0:
256,192,60807,1,0,0:0:0:0:
256,192,60882,1,0,0:0:0:0:
256,192,60957,1,8,0:0:0:0:
256,192,61032,1,8,0:0:0:0:
256,192,61107,1,0,0:0:0:0:
256,192,61157,1,0,0:0:0:0:
256,192,61257,1,0,0:0:0:0:
256,192,61307,1,0,0:0:0:0:
256,192,61407,1,0,0:0:0:0:
256,192,61457,1,0,0:0:0:0:
256,192,61557,1,0,0:0:0:0:
256,192,61607,1,0,0:0:0:0:
256,192,61707,1,0,0:0:0:0:
256,192,61757,1,8,0:0:0:0:
256,192,61857,1,0,0:0:0:0:
256,192,61907,1,8,0:0:0:0:
256,192,62007,1,8,0:0:0:0:
256,192,62057,1,8,0:0:0:0:
256,192,62157,1,8,0:0:0:0:
256,192,62207,1,8,0:0:0:0:
256,192,62307,1,8,0:0:0:0:
256,192,62457,1,0,0:0:0:0:
256,192,62607,1,8,0:0:0:0:
256,192,62682,1,8,0:0:0:0:
256,192,62757,1,8,0:0:0:0:
256,192,62832,1,0,0:0:0:0:
256,192,62907,1,8,0:0:0:0:
256,192,62982,1,8,0:0:0:0:
256,192,63057,1,8,0:0:0:0:
256,192,63132,1,8,0:0:0:0:
256,192,63207,1,8,0:0:0:0:
256,192,63282,1,8,0:0:0:0:
256,192,63357,1,8,0:0:0:0:
256,192,63432,1,8,0:0:0:0:
256,192,63507,1,0,0:0:0:0:
256,192,63657,1,0,0:0:0:0:
256,192,63807,1,0,0:0:0:0:
256,192,63882,1,0,0:0:0:0:
256,192,63957,1,0,0:0:0:0:
256,192,64032,1,0,0:0:0:0:
256,192,64107,1,8,0:0:0:0:
256,192,64257,1,8,0:0:0:0:
256,192,64332,1,8,0:0:0:0:
256,192,64407,1,8,0:0:0:0:
256,192,64457,1,0,0:0:0:0:
256,192,64507,1,0,0:0:0:0:
256,192,64557,1,8,0:0:0:0:
256,192,64607,1,0,0:0:0:0:
256,192,64657,1,0,0:0:0:0:
256,192,64707,1,8,0:0:0:0:
256,192,64857,1,0,0:0:0:0:
256,192,65007,1,8,0:0:0:0:
256,192,65082,1,8,0:0:0:0:
256,192,65157,1,8,0:0:0:0:
256,192,65232,1,0,0:0:0:0:
256,192,65307,1,8,0:0:0:0:
256,192,65457,1,0,0:0:0:0:
256,192,65607,1,8,0:0:0:0:
256,192,65707,1,8,0:0:0:0:
256,192,65807,1,8,0:0:0:0:
256,192,65907,1,8,0:0:0:0:
256,192,66007,1,0,0:0:0:0:
256,192,66107,1,0,0:0:0:0:
256,192,66207,1,8,0:0:0:0:
256,192,66307,1,0,0:0:0:0:
256,192,66407,1,0,0:0:0:0:
256,192,66507,1,8,0:0:0:0:
256,192,66607,1,0,0:0:0:0:
256,192,66707,1,0,0:0:0:0:
256,192,66807,1,8,0:0:0:0:
256,192,66907,1,0,0:0:0:0:
256,192,67007,1,0,0:0:0:0:
256,192,67107,1,8,0:0:0:0:
256,192,67257,1,0,0:0:0:0:
256,192,67407,1,8,0:0:0:0:
256,192,67482,1,0,0:0:0:0:
256,192,67557,1,0,0:0:0:0:
256,192,67632,1,0,0:0:0:0:
256,192,67707,1,8,0:0:0:0:
256,192,67757,1,8,0:0:0:0:
256,192,67807,1,8,0:0:0:0:
256,192,67857,1,8,0:0:0:0:
256,192,67932,1,0,0:0:0:0:
256,192,68007,1,8,0:0:0:0:
256,192,68082,1,0,0:0:0:0:
256,192,68157,1,8,0:0:0:0:
256,192,68232,1,8,0:0:0:0:
256,192,68307,1,0,0:0:0:0:
256,192,68357,1,8,0:0:0:0:
256,192,68457,1,0,0:0:0:0:
256,192,68507,1,8,0:0:0:0:
256,192,68607,1,0,0:0:0:0:
256,192,68657,1,8,0:0:0:0:
256,192,68757,1,0,0:0:0:0:
256,192,68807,1,8,0:0:0:0:
256,192,68907,1,8,0:0:0:0:
256,192,68957,1,8,0:0:0:0:
256,192,69057,1,8,0:0:0:0:
256,192,69107,1,8,0:0:0:0:
256,192,69207,1,8,0:0:0:0:
256,192,69257,1,8,0:0:0:0:
256,192,69357,1,8,0:0:0:0:
256,192,69407,1,8,0:0:0:0:
256,192,69507,1,8,0:0:0:0:
256,192,69582,1,8,0:0:0:0:
256,192,69657,1,0,0:0:0:0:
256,192,69732,1,0,0:0:0:0:
256,192,69807,1,8,0:0:0:0:
256,192,69882,1,8,0:0:0:0:
256,192,69957,1,8,0:0:0:0:
256,192,70032,1,8,0:0:0:0:
256,192,70107,1,0,0:0:0:0:
256,192,70257,1,0,0:0:0:0:
256,192,70407,1,8,0:0:0:0:
256,192,70482,1,8,0:0:0:0:
256,192,70557,1,8,0:0:0:0:
256,192,70632,1,8,0:0:0:0:
256,192,70707,1,0,0:0:0:0:
256,192,70857,1,0,0:0:0:0:
256,192,71007,1,8,0:0:0:0:
256,192,71082,1,8,0:0:0:0:
256,192,71157,1,8,0:0:0:0:
256,192,71232,1,0,0:0:0:0:
256,192,71307,1,8,0:0:0:0:
256,192,71407,1,0,0:0:0:0:
256,192,71507,1,0,0:0:0:0:
256,192,71607,1,8,0:0:0:0:
256,192,71707,1,0,0:0:0:0:
256,192,71807,1,0,0:0:0:0:
256,192,71907,1,8,0:0:0:0:
256,192,72057,1,0,0:0:0:0:
256,192,72207,1,8,0:0:0:0:
256,192,72257,1,0,0:0:0:0:
256,192,72307,1,0,0:0:0:0:
256,192,72357,1,8,0:0:0:0:
256,192,72407,1,8,0:0:0:0:
256,192,72457,1,8,0:0:0:0:
256,192,72507,1,0,0:0:0:0:
256,192,72657,1,0,0:0:0:0:
256,192,72807,1,8,0:0:0:0:
256,192,72882,1,0,0:0:0:0:
256,192,72957,1,8,0:0:0:0:
256,192,73032,1,0,0:0:0:0:
256,192,73107,1,0,0:0:0:0:
256,192,73257,1,0,0:0:0:0:
256,192,73407,1,0,0:0:0:0:
256,192,73482,1,0,0:0:0:0:
256,192,73557,1,8,0:0:0:0:
256,192,73707,1,0,0:0:0:0:
256,192,73857,1,8,0:0:0:0:
256,192,73932,1,8,0:0:0:0:
256,192,74007,1,8,0:0:0:0:
256,192,74157,1,0,0:0:0:0:
256,192,74307,1,8,0:0:0:0:
256,192,74457,1,0,0:0:0:0:
256,192,74532,1,0,0:0:0:0:
256,192,74607,1,0,0:0:0:0:
256,192,74757,1,8,0:0:0:0:
256,192,74907,1,8,0:0:0:0:
256,192,75057,1,8,0:0:0:0:
256,192,75132,1,8,0:0:0:0:
256,192,75207,1,0,0:0:0:0:
256,192,75357,1,0,0:0:0:0:
256,192,75507,1,8,0:0:0:0:
256,192,75657,1,8,0:0:0:0:
256,192,75732,1,0,0:0:0:0:
256,192,75807,1,8,0:0:0:0:
256,192,75882,1,8,0:0:0:0:
256,192,75957,1,0,0:0:0:0:
256,192,76032,1,0,0:0:0:0:
256,192,76107,1,8,0:0:0:0:
256,192,76182,1,8,0:0:0:0:
256,192,76257,1,0,0:0:0:0:
256,192,76332,1,0,0:0:0:0:
256,192,76407,1,8,0:0:0:0:
256,192,76457,1,8,0:0:0:0:
256,192,76507,1,8,0:0:0:0:
256,192,76557,1,8,0:0:0:0:
256,192,76607,1,8,0:0:0:0:
256,192,76657,1,8,0:0:0:0:
256,192,76707,1,0,0:0:0:0:
256,192,76857,1,8,0:0:0:0:
256,192,76932,1,0,0:0:0:0:
256,192,77082,1,8,0:0:0:0:
256,192,77157,1,0,0:0:0:0:
256,192,77307,1,8,0:0:0:0:
256,192,77382,1,0,0:0:0:0:
256,192,77457,1,0,0:0:0:0:
256,192,77532,1,0,0:0:0:0:
256,192,77607,1,0,0:0:0:0:
256,192,77682,1,0,0:0:0:0:
256,192,77757,1,8,0:0:0:0:
256,192,77832,1,0,0:0:0:0:
256,192,77907,1,8,0:0:0:0:
256,192,78057,1,0,0:0:0:0:
256,192,78207,1,8,0:0:0:0:
256,192,78307,1,8,0:0:0:0:
256,192,78407,1,0,0:0:0:0:
256,192,78507,1,8,0:0:0:0:
256,192,78657,1,0,0:0:0:0:
256,192,78807,1,8,0:0:0:0:
256,192,78882,1,0,0:0:0:0:
256,192,78957,1,8,0:0:0:0:
256,192,79032,1,0,0:0:0:0:
256,192,79107,1,0,0:0:0:0:
256,192,79257,1,8,0:0:0:0:
256,192,79307,1,8,0:0:0:0:
256,192,79357,1,0,0:0:0:0:
256,192,79407,1,8,0:0:0:0:
256,192,79457,1,8,0:0:0:0:
256,192,79507,1,0,0:0:0:0:
256,192,79557,1,8,0:0:0:0:
256,192,79632,1,0,0:0:0:0:
256,192,79707,1,8,0:0:0:0:
256,192,79782,1,8,0:0:0:0:
256,192,79857,1,8,0:0:0:0:
256,192,79932,1,0,0:0:0:0:
256,192,80007,1,8,0:0:0:0:
256,192,80082,1,8,0:0:0:0:
256,192,80157,1,8,0:0:0:0:
256,192,80232,1,0,0:0:0:0:
256,192,80307,1,8,0:0:0:0:
256,192,80457,1,8,0:0:0:0:
256,192,80532,1,8,0:0:0:0:
256,192,80607,1,8,0:0:0:0:
256,192,80757,1,0,0:0:0:0:
256,192,80907,1,8,0:0:0:0:
256,192,80982,1,8,0:0:0:0:
256,192,81057,1,8,0:0:0:0:
256,192,81132,1,8,0:0:0:0:
256,192,81207,1,8,0:0:0:0:
256,192,81357,1,0,0:0:0:0:
256,192,81507,1,8,0:0:0:0:
256,192,81557,1,0,0:0:0:0:
256,192,81657,1,8,0:0:0:0:
256,192,81707,1,0,0:0:0:0:
256,192,81807,1,8,0:0:0:0:
256,192,81857,1,0,0:0:0:0:
256,192,81957,1,8,0:0:0:0:
256,192,82007,1,0,0:0:0:0:
256,192,82107,1,8,0:0:0:0:
256,192,82157,1,8,0:0:0:0:
256,192,82257,1,8,0:0:0:0:
256,192,82307,1,8,0:0:0:0:
256,192,82407,1,8,0:0:0:0:
256,192,82457,1,8,0:0:0:0:
256,192,82557,1,8,0:0:0:0:
256,192,82607,1,8,0:0:0:0:
256,192,82707,1,0,0:0:0:0:
256,192,82857,1,8,0:0:0:0:
256,192,83007,1,8,0:0:0:0:
256,192,83082,1,8,0:0:0:0:
256,192,83157,1,8,0:0:0:0:
256,192,83232,1,0,0:0:0:0:
256,192,83307,1,8,0:0:0:0:
256,192,83457,1,0,0:0:0:0:
256,192,83607,1,8,0:0:0:0:
256,192,83657,1,0,0:0:0:0:
256,192,83707,1,0,0:0:0:0:
256,192,83757,1,8,0:0:0:0:
256,192,83807,1,0,0:0:0:0:
256,192,83857,1,0,0:0:0:0:
256,192,83907,1,8,0:0:0:0:
256,192,84057,1,0,0:0:0:0:
256,192,84207,1,8,0:0:0:0:
256,192,84257,1,8,0:0:0:0:
256,192,84307,1,8,0:0:0:0:
256,192,84357,1,8,0:0:0:0:
256,192,84407,1,8,0:0:0:0:
256,192,84457,1,8,0:0:0:0:
256,192,84507,1,0,0:0:0:0:
256,192,84657,1,0,0:0:0:0:
256,192,84807,1,8,0:0:0:0:
256,192,84882,1,0,0:0:0:0:
256,192,84957,1,0,0:0:0:0:
256,192,85032,1,0,0:0:0:0:
256,192,85107,1,8,0:0:0:0:
256,192,85257,1,0,0:0:0:0:
256,192,85407,1,8,0:0:0:0:
256,192,85507,1,8,0:0:0:0:
256,192,85607,1,0,0:0:0:0:
256,192,85707,1,8,0:0:0:0:
256,192,85782,1,0,0:0:0:0:
256,192,85857,1,0,0:0:0:0:
256,192,85932,1,0,0:0:0:0:
256,192,86007,1,8,0:0:0:0:
256,192,86057,1,8,0:0:0:0:
256,192,86107,1,0,0:0:0:0:
256,192,86157,1,8,0:0:0:0:
256,192,86207,1,8,0:0:0:0:
256,192,86257,1,0,0:0:0:0:
256,192,86307,1,8,0:0:0:0:
256,192,86457,1,8,0:0:0:0:
256,192,86607,1,0,0:0:0:0:
256,192,86757,1,0,0:0:0:0:
256,192,86907,1,8,0:0:0:0:
256,192,87057,1,8,0:0:0:0:
256,192,87207,1,8,0:0:0:0:
256,192,87357,1,8,0:0:0:0:
256,192,87507,1,8,0:0:0:0:
256,192,87657,1,0,0:0:0:0:
256,192,87807,1,0,0:0:0:0:
256,192,87882,1,0,0:0:0:0:
256,192,87957,1,8,0:0:0:0:
256,192,88107,1,0,0:0:0:0:
256,192,88257,1,8,0:0:0:0:
256,192,88332,1,8,0:0:0:0:
256,192,88407,1,8,0:0:0:0:
256,192,88557,1,0,0:0:0:0:
256,192,88707,1,8,0:0:0:0:
256,192,88857,1,8,0:0:0:0:
256,192,88932,1,8,0:0:0:0:
256,192,89007,1,0,0:0:0:0:
256,192,89157,1,0,0:0:0:0:
256,192,89307,1,8,0:0:0:0:
256,192,89382,1,8,0:0:0:0:
256,192,89457,1,8,0:0:0:0:
256,192,89607,1,0,0:0:0:0:
256,192,89682,1,0,0:0:0:0:
256,192,89757,1,0,0:0:0:0:
256,192,89907,1,8,0:0:0:0:
256,192,90057,1,0,0:0:0:0:
256,192,90207,1,8,0:0:0:0:
256,192,90282,1,8,0:0:0:0:
256,192,90357,1,0,0:0:0:0:
256,192,90507,1,0,0:0:0:0:
256,192,90657,1,8,0:0:0:0:
256,192,90732,1,0,0:0:0:0:
256,192,90807,1,8,0:0:0:0:
256,192,90882,1,0,0:0:0:0:
256,192,90957,1,8,0:0:0:0:
256,192,91032,1,8,0:0:0:0:
256,192,91107,1,0,0:0:0:0:
256,192,91257,1,0,0:0:0:0:
256,192,91407,1,8,0:0:0:0:
256,192,91482,1,0,0:0:0:0:
256,192,91557,1,8,0:0:0:0:
256,192,91707,1,8,0:0:0:0:
256,192,91857,1,8,0:0:0:0:
256,192,92007,1,8,0:0:0:0:
256,192,92082,1,0,0:0:0:0:
256,192,92157,1,8,0:0:0:0:
256,192,92232,1,0,0:0:0:0:
256,192,92307,1,0,0:0:0:0:
256,192,92457,1,0,0:0:0:0:
256,192,92532,1,0,0:0:0:0:
256,192,92607,1,8,0:0:0:0:
256,192,92682,1,0,0:0:0:0:
256,192,92757,1,8,0:0:0:0:
256,192,92907,1,0,0:0:0:0:
256,192,93057,1,8,0:0:0:0:
256,192,93132,1,8,0:0:0:0:
256,192,93207,1,8,0:0:0:0:
256,192,93357,1,0,0:0:0:0:
256,192,93507,1,8,0:0:0:0:
256,192,93657,1,0,0:0:0:0:
256,192,93807,1,8,0:0:0:0:
256,192,93882,1,0,0:0:0:0:
256,192,93957,1,8,0:0:0:0:
256,192,94107,1,8,0:0:0:0:
256,192,94257,1,8,0:0:0:0:
256,192,94407,1,8,0:0:0:0:
256,192,94557,1,0,0:0:0:0:
256,192,94707,1,8,0:0:0:0:
256,192,94857,1,8,0:0:0:0:
256,192,94932,1,8,0:0:0:0:
256,192,95082,1,0,0:0:0:0:
256,192,95157,1,8,0:0:0:0:
256,192,95307,1,8,0:0:0:0:
256,192,95457,1,8,0:0:0:0:
256,192,95532,1,8,0:0:0:0:
256,192,95682,1,0,0:0:0:0:
256,192,95757,1,8,0:0:0:0:
256,192,95907,1,0,0:0:0:0:
256,192,95957,1,8,0:0:0:0:
256,192,96057,1,0,0:0:0:0:
256,192,96107,1,8,0:0:0:0:
256,192,96207,1,0,0:0:0:0:
256,192,96257,1,8,0:0:0:0:
256,192,96357,1,0,0:0:0:0:
256,192,96407,1,8,0:0:0:0:
256,192,96507,1,8,0:0:0:0:
256,192,96557,1,8,0:0:0:0:
256,192,96657,1,8,0:0:0:0:
256,192,96707,1,8,0:0:0:0:
256,192,96807,1,8,0:0:0:0:
256,192,96857,1,8,0:0:0:0:
256,192,96957,1,8,0:0:0:0:
256,192,97007,1,8,0:0:0:0:
256,192,97107,1,8,0:0:0:0:
256,192,97257,1,0,0:0:0:0:
256,192,97407,1,8,0:0:0:0:
256,192,97557,1,0,0:0:0:0:
256,192,97707,1,8,0:0:0:0:
256,192,97857,1,8,0:0:0:0:
256,192,98007,1,8,0:0:0:0:
256,192,98157,1,0,0:0:0:0:
256,192,98307,1,8,0:0:0:0:
256,192,98457,1,0,0:0:0:0:
256,192,98607,1,8,0:0:0:0:
256,192,98907,1,0,0:0:0:0:
256,192,99207,1,0,0:0:0:0:
256,192,99357,1,0,0:0:0:0:
256,192,99432,1,0,0:0:0:0:
256,192,99507,1,8,0:0:0:0:
256,192,99657,1,0,0:0:0:0:
256,192,99807,1,8,0:0:0:0:
256,192,99957,1,0,0:0:0:0:
256,192,100107,1,8,0:0:0:0:
256,192,100257,1,8,0:0:0:0:
256,192,100407,1,8,0:0:0:0:
256,192,100557,1,0,0:0:0:0:
256,192,100707,1,8,0:0:0:0:
256,192,100857,1,0,0:0:0:0:
256,192,101007,1,8,0:0:0:0:
256,192,101307,1,8,0:0:0:0:
256,192,101607,1,8,0:0:0:0:
256,192,101682,1,0,0:0:0:0:
256,192,101757,1,8,0:0:0:0:
256,192,101832,1,0,0:0:0:0:
256,192,101907,1,8,0:0:0:0:
256,192,102057,1,0,0:0:0:0:
256,192,102132,1,0,0:0:0:0:
256,192,102207,1,8,0:0:0:0:
256,192,102357,1,0,0:0:0:0:
256,192,102507,1,8,0:0:0:0:
256,192,102657,1,0,0:0:0:0:
256,192,102732,1,8,0:0:0:0:
256,192,102882,1,8,0:0:0:0:
256,192,102957,1,0,0:0:0:0:
256,192,103032,1,0,0:0:0:0:
256,192,103107,1,8,0:0:0:0:
256,192,103257,1,0,0:0:0:0:
256,192,103407,1,8,0:0:0:0:
256,192,103557,1,8,0:0:0:0:
256,192,103632,1,0,0:0:0:0:
256,192,103707,1,8,0:0:0:0:
256,192,103857,1,0,0:0:0:0:
256,192,103932,1,8,0:0:0:0:
256,192,104082,1,0,0:0:0:0:
256,192,104157,1,8,0:0:0:0:
256,192,104232,1,0,0:0:0:0:
256,192,104307,1,8,0:0:0:0:
256,192,104457,1,0,0:0:0:0:
256,192,104607,1,8,0:0:0:0:
256,192,104757,1,0,0:0:0:0:
256,192,104832,1,0,0:0:0:0:
256,192,104907,1,8,0:0:0:0:
256,192,105057,1,0,0:0:0:0:
256,192,105207,1,8,0:0:0:0:
256,192,105282,1,8,0:0:0:0:
256,192,105357,1,8,0:0:0:0:
256,192,105507,1,8,0:0:0:0:
256,192,105582,1,0,0:0:0:0:
256,192,105657,1,0,0:0:0:0:
256,192,105732,1,8,0:0:0:0:
256,192,105807,1,0,0:0:0:0:
256,192,105882,1,0,0:0:0:0:
256,192,105957,1,8,0:0:0:0:
256,192,106032,1,0,0:0:0:0:
256,192,106107,1,8,0:0:0:0:
256,192,106182,1,0,0:0:0:0:
256,192,106257,1,0,0:0:0:0:
256,192,106332,1,8,0:0:0:0:
256,192,106407,1,0,0:0:0:0:
256,192,106482,1,0,0:0:0:0:
256,192,106557,1,8,0:0:0:0:
256,192,106632,1,0,0:0:0:0:
256,192,106707,1,8,0:0:0:0:
256,192,106857,1,0,0:0:0:0:
256,192,107007,1,0,0:0:0:0:
256,192,107082,1,0,0:0:0:0:
256,192,107157,1,8,0:0:0:0:
256,192,107307,1,0,0:0:0:0:
256,192,107457,1,8,0:0:0:0:
256,192,107532,1,8,0:0:0:0:
256,192,107607,1,8,0:0:0:0:
256,192,107757,1,0,0:0:0:0:
256,192,107907,1,8,0:0:0:0:
256,192,108057,1,0,0:0:0:0:
256,192,108207,1,8,0:0:0:0:
256,192,108357,1,8,0:0:0:0:
256,192,108432,1,8,0:0:0:0:
256,192,108507,1,0,0:0:0:0:
256,192,108657,1,0,0:0:0:0:
256,192,108807,1,8,0:0:0:0:
256,192,108882,1,0,0:0:0:0:
256,192,108957,1,0,0:0:0:0:
256,192,109032,1,0,0:0:0:0:
256,192,109107,1,8,0:0:0:0:
256,192,109257,1,0,0:0:0:0:
256,192,109407,1,8,0:0:0:0:
256,192,109482,1,8,0:0:0:0:
256,192,109557,1,8,0:0:0:0:
256,192,109707,1,0,0:0:0:0:
256,192,109857,1,8,0:0:0:0:
256,192,109932,1,0,0:0:0:0:
256,192,110007,1,8,0:0:0:0:
256,192,110082,1,8,0:0:0:0:
256,192,110157,1,8,0:0:0:0:
256,192,110232,1,8,0:0:0:0:
256,192,110307,1,0,0:0:0:0:
256,192,110457,1,0,0:0:0:0:
256,192,110532,1,0,0:0:0:0:
256,192,110607,1,0,0:0:0:0:
256,192,110757,1,0,0:0:0:0:
256,192,110832,1,0,0:0:0:0:
256,192,110907,1,8,0:0:0:0:
256,192,111057,1,8,0:0:0:0:
256,192,111207,1,8,0:0:0:0:
256,192,111282,1,0,0:0:0:0:
256,192,111357,1,8,0:0:0:0:
256,192,111507,1,8,0:0:0:0:
256,192,111582,1,0,0:0:0:0:
256,192,111657,1,0,0:0:0:0:
256,192,111732,1,8,0:0:0:0:
256,192,111807,1,0,0:0:0:0:
256,192,111882,1,0,0:0:0:0:
256,192,111957,1,8,0:0:0:0:
256,192,112032,1,0,0:0:0:0:
256,192,112107,1,8,0:0:0:0:
256,192,112182,1,0,0:0:0:0:
256,192,112257,1,8,0:0:0:0:
256,192,112332,1,8,0:0:0:0:
256,192,112407,1,0,0:0:0:0:
256,192,112482,1,0,0:0:0:0:
256,192,112557,1,8,0:0:0:0:
256,192,112632,1,0,0:0:0:0:
256,192,112707,1,8,0:0:0:0:
256,192,112782,1,0,0:0:0:0:
256,192,112857,1,0,0:0:0:0:
256,192,112932,1,8,0:0:0:0:
256,192,113007,1,0,0:0:0:0:
256,192,113082,1,0,0:0:0:0:
256,192,113157,1,8,0:0:0:0:
256,192,113232,1,0,0:0:0:0:
256,192,113307,1,8,0:0:0:0:
256,192,113382,1,0,0:0:0:0:
256,192,113457,1,8,0:0:0:0:
256,192,113532,1,8,0:0:0:0:
256,192,113607,1,8,0:0:0:0:
256,192,113682,1,0,0:0:0:0:
256,192,113757,1,8,0:0:0:0:
256,192,113832,1,0,0:0:0:0:
256,192,113907,1,8,0:0:0:0:
256,192,113982,1,0,0:0:0:0:
256,192,114057,1,0,0:0:0:0:
256,192,114132,1,8,0:0:0:0:
256,192,114207,1,0,0:0:0:0:
256,192,114282,1,0,0:0:0:0:
256,192,114357,1,8,0:0:0:0:
256,192,114432,1,0,0:0:0:0:
256,192,114507,1,8,0:0:0:0:
256,192,114582,1,0,0:0:0:0:
256,192,114657,1,8,0:0:0:0:
256,192,114732,1,8,0:0:0:0:
256,192,114807,1,0,0:0:0:0:
256,192,114882,1,0,0:0:0:0:
256,192,114957,1,8,0:0:0:0:
256,192,115032,1,0,0:0:0:0:
256,192,115107,1,8,0:0:0:0:
256,192,115182,1,0,0:0:0:0:
256,192,115257,1,0,0:0:0:0:
256,192,115332,1,8,0:0:0:0:
256,192,115407,1,0,0:0:0:0:
256,192,115482,1,0,0:0:0:0:
256,192,115557,1,8,0:0:0:0:
256,192,115632,1,0,0:0:0:0:
256,192,115707,1,8,0:0:0:0:
256,192,115782,1,0,0:0:0:0:
256,192,115857,1,8,0:0:0:0:
256,192,115932,1,8,0:0:0:0:
256,192,116007,1,8,0:0:0:0:
256,192,116082,1,0,0:0:0:0:
256,192,116157,1,8,0:0:0:0:
256,192,116232,1,0,0:0:0:0:
256,192,116307,12,0,119907,0:0:0:0:
