osu file format v14

[General]
AudioFilename: jubeat saucerfulfill - U1 overground.mp3
AudioLeadIn: 0
PreviewTime: 9943
Countdown: 0
SampleSet: Normal
StackLeniency: 0.7
Mode: 1
LetterboxInBreaks: 0
WidescreenStoryboard: 0

[Editor]
DistanceSpacing: 0.9
BeatDivisor: 4
GridSize: 32
TimelineZoom: 2.5

[Metadata]
Title:Dopamine
TitleUnicode:ドーパミン
Artist:U1 overground
ArtistUnicode:U1 overground
Creator:carnivore101
Version:Muzukashii
Source:jubeat saucer fulfill
Tags:
BeatmapID:800058
BeatmapSetID:363922

[Difficulty]
HPDrainRate:5
CircleSize:5
OverallDifficulty:5
ApproachRate:5
SliderMultiplier:1.4
SliderTickRate:1

[Events]
//Background and Video events
0,0,"fiber_darkness_textures_1280x720_hd-wallpaper-13151.jpg",0,0
//Break Periods
//Storyboard Layer 0 (Background)
//Storyboard Layer 1 (Fail)
//Storyboard Layer 2 (Pass)
//Storyboard Layer 3 (Foreground)
//Storyboard Sound Samples

[TimingPoints]
1107,300,4,1,0,80,1,0
53907,-100,4,1,0,80,0,1
73107,-100,4,1,0,80,0,0
97107,-100,4,1,0,80,0,1
116307,-100,4,1,0,80,0,0

[HitObjects]
256,192,1107,5,8,0:0:0:0:
256,192,1407,1,0,0:0:0:0:
256,192,1557,1,8,0:0:0:0:
256,192,1857,1,0,0:0:0:0:
256,192,2007,1,8,0:0:0:0:
256,192,2307,1,8,0:0:0:0:
256,192,2607,1,8,0:0:0:0:
256,192,2757,1,0,0:0:0:0:
256,192,2907,1,8,0:0:0:0:
256,192,3207,1,0,0:0:0:0:
256,192,3507,1,8,0:0:0:0:
256,192,3807,1,0,0:0:0:0:
256,192,3957,1,8,0:0:0:0:
256,192,4257,1,0,0:0:0:0:
256,192,4407,1,8,0:0:0:0:
256,192,4707,1,8,0:0:0:0:
256,192,5007,1,0,0:0:0:0:
256,192,5307,1,0,0:0:0:0:
256,192,5607,1,0,0:0:0:0:
256,192,5907,1,8,0:0:0:0:
256,192,6207,1,0,0:0:0:0:
256,192,6357,1,8,0:0:0:0:
256,192,6657,1,0,0:0:0:0:
256,192,6807,1,8,0:0:0:0:
256,192,7107,1,8,0:0:0:0:
256,192,7407,1,8,0:0:0:0:
256,192,7557,1,0,0:0:0:0:
256,192,7707,1,8,0:0:0:0:
256,192,8007,1,0,0:0:0:0:
256,192,8307,1,8,0:0:0:0:
256,192,8607,1,0,0:0:0:0:
256,192,8757,1,8,0:0:0:0:
256,192,8907,1,8,0:0:0:0:
256,192,9207,1,0,0:0:0:0:
256,192,9507,1,8,0:0:0:0:
256,192,9657,1,8,0:0:0:0:
256,192,9807,1,8,0:0:0:0:
256,192,9957,1,8,0:0:0:0:
256,192,10107,1,0,0:0:0:0:
256,192,10407,1,0,0:0:0:0:
256,192,10707,1,8,0:0:0:0:
256,192,10932,1,8,0:0:0:0:
256,192,11157,1,0,0:0:0:0:
256,192,11307,1,8,0:0:0:0:
256,192,11607,1,0,0:0:0:0:
256,192,11907,1,8,0:0:0:0:
256,192,12132,1,8,0:0:0:0:
256,192,12357,1,0,0:0:0:0:
256,192,12507,1,8,0:0:0:0:
256,192,12657,1,8,0:0:0:0:
256,192,12807,1,0,0:0:0:0:
256,192,12957,1,0,0:0:0:0:
256,192,13107,1,8,0:0:0:0:
256,192,13332,1,8,0:0:0:0:
256,192,13557,1,0,0:0:0:0:
256,192,13707,1,8,0:0:0:0:
256,192,14007,1,0,0:0:0:0:
256,192,14157,1,8,0:0:0:0:
256,192,14307,1,0,0:0:0:0:
256,192,14607,1,8,0:0:0:0:
256,192,14757,1,0,0:0:0:0:
256,192,15057,1,0,0:0:0:0:
256,192,15207,1,8,0:0:0:0:
256,192,15357,1,0,0:0:0:0:
256,192,15507,1,8,0:0:0:0:
256,192,15732,1,0,0:0:0:0:
256,192,15957,1,0,0:0:0:0:
256,192,16107,1,8,0:0:0:0:
256,192,16407,1,0,0:0:0:0:
256,192,16707,1,8,0:0:0:0:
256,192,16932,1,8,0:0:0:0:
256,192,17157,1,0,0:0:0:0:
256,192,17307,1,8,0:0:0:0:
256,192,17457,1,8,0:0:0:0:
256,192,17607,1,0,0:0:0:0:
256,192,17757,1,0,0:0:0:0:
256,192,17907,1,8,0:0:0:0:
256,192,18132,1,8,0:0:0:0:
256,192,18357,1,8,0:0:0:0:
256,192,18507,1,8,0:0:0:0:
256,192,18807,1,0,0:0:0:0:
256,192,19107,1,0,0:0:0:0:
256,192,19307,1,0,0:0:0:0:
256,192,19407,1,8,0:0:0:0:
256,192,19607,1,0,0:0:0:0:
256,192,19707,1,8,0:0:0:0:
256,192,19907,1,0,0:0:0:0:
256,192,20007,1,8,0:0:0:0:
256,192,20207,1,8,0:0:0:0:
256,192,20307,1,0,0:0:0:0:
256,192,20607,1,0,0:0:0:0:
256,192,20757,1,0,0:0:0:0:
256,192,20907,1,8,0:0:0:0:
256,192,21057,1,8,0:0:0:0:
256,192,21207,1,0,0:0:0:0:
256,192,21282,1,0,0:0:0:0:
256,192,21357,1,0,0:0:0:0:
256,192,21507,1,8,0:0:0:0:
256,192,21807,1,0,0:0:0:0:
256,192,21957,1,0,0:0:0:0:
256,192,22107,1,0,0:0:0:0:
256,192,22257,1,8,0:0:0:0:
256,192,22407,1,8,0:0:0:0:
256,192,22557,1,8,0:0:0:0:
256,192,22707,1,0,0:0:0:0:
256,192,23007,1,0,0:0:0:0:
256,192,23157,1,0,0:0:0:0:
256,192,23307,1,8,0:0:0:0:
256,192,23382,1,8,0:0:0:0:
256,192,23457,1,8,0:0:0:0:
256,192,23757,1,0,0:0:0:0:
256,192,23907,1,8,0:0:0:0:
256,192,24207,1,0,0:0:0:0:
256,192,24507,1,8,0:0:0:0:
256,192,24657,1,0,0:0:0:0:
256,192,24807,1,8,0:0:0:0:
256,192,24957,1,8,0:0:0:0:
256,192,25107,1,0,0:0:0:0:
256,192,25407,1,0,0:0:0:0:
256,192,25707,1,0,0:0:0:0:
256,192,25857,1,0,0:0:0:0:
256,192,26007,1,8,0:0:0:0:
256,192,26157,1,8,0:0:0:0:
256,192,26232,1,8,0:0:0:0:
256,192,26307,1,8,0:0:0:0:
256,192,26607,1,0,0:0:0:0:
256,192,26907,1,0,0:0:0:0:
256,192,26982,1,0,0:0:0:0:
256,192,27057,1,0,0:0:0:0:
256,192,27207,1,8,0:0:0:0:
256,192,27357,1,8,0:0:0:0:
256,192,27507,1,0,0:0:0:0:
256,192,27807,1,0,0:0:0:0:
256,192,27957,1,0,0:0:0:0:
256,192,28107,1,0,0:0:0:0:
256,192,28257,1,8,0:0:0:0:
256,192,28407,1,0,0:0:0:0:
256,192,28557,1,0,0:0:0:0:
256,192,28707,1,8,0:0:0:0:
256,192,29007,1,0,0:0:0:0:
256,192,29307,1,8,0:0:0:0:
256,192,29457,1,0,0:0:0:0:
256,192,29607,1,8,0:0:0:0:
256,192,29682,1,8,0:0:0:0:
256,192,29757,1,8,0:0:0:0:
256,192,29907,1,0,0:0:0:0:
256,192,30207,1,0,0:0:0:0:
256,192,30357,1,8,0:0:0:0:
256,192,30657,1,0,0:0:0:0:
256,192,30807,1,8,0:0:0:0:
256,192,30957,1,8,0:0:0:0:
256,192,31032,1,8,0:0:0:0:
256,192,31107,1,8,0:0:0:0:
256,192,31407,1,8,0:0:0:0:
256,192,31557,1,0,0:0:0:0:
256,192,31707,1,8,0:0:0:0:
256,192,32007,1,0,0:0:0:0:
256,192,32157,1,0,0:0:0:0:
256,192,32307,1,8,0:0:0:0:
256,192,32532,1,8,0:0:0:0:
256,192,32757,1,0,0:0:0:0:
256,192,32907,1,8,0:0:0:0:
256,192,33207,1,0,0:0:0:0:
256,192,33507,1,8,0:0:0:0:
256,192,33657,1,0,0:0:0:0:
256,192,33807,1,8,0:0:0:0:
256,192,33957,1,0,0:0:0:0:
256,192,34107,1,8,0:0:0:0:
256,192,34257,1,8,0:0:0:0:
256,192,34332,1,8,0:0:0:0:
256,192,34407,1,8,0:0:0:0:
256,192,34557,1,8,0:0:0:0:
256,192,34707,1,0,0:0:0:0:
256,192,35007,1,0,0:0:0:0:
256,192,35157,1,8,0:0:0:0:
256,192,35457,1,0,0:0:0:0:
256,192,35607,1,8,0:0:0:0:
256,192,35907,1,8,0:0:0:0:
256,192,36207,1,8,0:0:0:0:
256,192,36357,1,0,0:0:0:0:
256,192,36507,1,8,0:0:0:0:
256,192,36807,1,0,0:0:0:0:
256,192,37107,1,8,0:0:0:0:
256,192,37332,1,8,0:0:0:0:
256,192,37557,1,0,0:0:0:0:
256,192,37707,1,8,0:0:0:0:
256,192,38007,1,0,0:0:0:0:
256,192,38082,1,0,0:0:0:0:
256,192,38157,1,0,0:0:0:0:
256,192,38307,1,8,0:0:0:0:
256,192,38607,1,8,0:0:0:0:
256,192,38907,1,0,0:0:0:0:
256,192,39057,1,8,0:0:0:0:
256,192,39132,1,8,0:0:0:0:
256,192,39207,1,8,0:0:0:0:
256,192,39357,1,8,0:0:0:0:
256,192,39507,1,0,0:0:0:0:
256,192,39807,1,0,0:0:0:0:
256,192,40107,1,0,0:0:0:0:
256,192,40407,1,0,0:0:0:0:
256,192,40707,1,0,0:0:0:0:
256,192,40857,1,12,0:0:0:0:
256,192,41007,1,0,0:0:0:0:
256,192,41307,1,0,0:0:0:0:
256,192,41607,1,0,0:0:0:0:
256,192,41907,1,0,0:0:0:0:
256,192,42057,1,0,0:0:0:0:
256,192,42207,1,0,0:0:0:0:
256,192,42282,1,0,0:0:0:0:
256,192,42357,1,0,0:0:0:0:
256,192,42507,1,0,0:0:0:0:
256,192,42657,1,0,0:0:0:0:
256,192,42732,1,0,0:0:0:0:
256,192,42807,1,0,0:0:0:0:
256,192,42957,1,0,0:0:0:0:
256,192,43107,1,0,0:0:0:0:
256,192,43257,1,0,0:0:0:0:
256,192,43332,1,0,0:0:0:0:
256,192,43407,1,0,0:0:0:0:
256,192,43557,1,0,0:0:0:0:
256,192,43632,1,0,0:0:0:0:
256,192,43707,1,0,0:0:0:0:
256,192,43857,1,0,0:0:0:0:
256,192,44007,1,8,0:0:0:0:
256,192,44157,1,0,0:0:0:0:
256,192,44232,1,0,0:0:0:0:
256,192,44307,1,0,0:0:0:0:
256,192,44607,1,0,0:0:0:0:
256,192,44757,1,0,0:0:0:0:
256,192,44907,1,0,0:0:0:0:
256,192,45057,1,0,0:0:0:0:
256,192,45207,1,8,0:0:0:0:
256,192,45507,1,0,0:0:0:0:
256,192,45807,1,8,0:0:0:0:
256,192,45957,1,8,0:0:0:0:
256,192,46107,1,0,0:0:0:0:
256,192,46407,1,0,0:0:0:0:
256,192,46707,1,0,0:0:0:0:
256,192,47007,1,0,0:0:0:0:
256,192,47157,1,0,0:0:0:0:
256,192,47307,1,0,0:0:0:0:
256,192,47457,1,0,0:0:0:0:
256,192,47607,1,8,0:0:0:0:
256,192,47907,1,0,0:0:0:0:
256,192,48207,1,8,0:0:0:0:
256,192,48357,1,8,0:0:0:0:
256,192,48507,1,0,0:0:0:0:
256,192,48807,1,0,0:0:0:0:
256,192,49107,1,0,0:0:0:0:
256,192,49407,1,0,0:0:0:0:
256,192,49557,1,0,0:0:0:0:
256,192,49707,1,0,0:0:0:0:
256,192,49857,1,0,0:0:0:0:
256,192,50007,1,8,0:0:0:0:
256,192,50307,1,0,0:0:0:0:
256,192,50607,1,8,0:0:0:0:
256,192,50757,1,8,0:0:0:0:
256,192,50907,1,0,0:0:0:0:
256,192,51207,1,0,0:0:0:0:
256,192,51507,1,0,0:0:0:0:
256,192,51807,1,0,0:0:0:0:
256,192,51957,1,0,0:0:0:0:
256,192,52107,1,0,0:0:0:0:
256,192,52257,1,0,0:0:0:0:
256,192,52407,1,8,0:0:0:0:
256,192,52707,2,4,B|448:192|128:96|32:160|192:320|320:256,1,420
256,192,53907,1,0,0:0:0:0:
256,192,54057,1,8,0:0:0:0:
256,192,54207,1,0,0:0:0:0:
256,192,54507,1,8,0:0:0:0:
256,192,54807,1,0,0:0:0:0:
256,192,54957,1,0,0:0:0:0:
256,192,55107,1,8,0:0:0:0:
256,192,55257,1,0,0:0:0:0:
256,192,55407,1,8,0:0:0:0:
256,192,55707,1,0,0:0:0:0:
256,192,56007,1,8,0:0:0:0:
256,192,56207,1,0,0:0:0:0:
256,192,56307,1,8,0:0:0:0:
256,192,56507,1,0,0:0:0:0:
256,192,56607,1,8,0:0:0:0:
256,192,56807,1,0,0:0:0:0:
256,192,56907,1,8,0:0:0:0:
256,192,57107,1,0,0:0:0:0:
256,192,57207,1,8,0:0:0:0:
256,192,57407,1,0,0:0:0:0:
256,192,57507,1,8,0:0:0:0:
256,192,57807,1,8,0:0:0:0:
256,192,57957,1,0,0:0:0:0:
256,192,58107,1,8,0:0:0:0:
256,192,58407,1,8,0:0:0:0:
256,192,58557,1,8,0:0:0:0:
256,192,58707,1,0,0:0:0:0:
256,192,59007,1,0,0:0:0:0:
256,192,59082,1,0,0:0:0:0:
256,192,59157,1,0,0:0:0:0:
256,192,59307,1,8,0:0:0:0:
256,192,59457,1,0,0:0:0:0:
256,192,59532,1,0,0:0:0:0:
256,192,59607,1,0,0:0:0:0:
256,192,59757,1,0,0:0:0:0:
256,192,59907,1,0,0:0:0:0:
256,192,60057,1,8,0:0:0:0:
256,192,60207,1,8,0:0:0:0:
256,192,60282,1,8,0:0:0:0:
256,192,60357,1,8,0:0:0:0:
256,192,60507,1,0,0:0:0:0:
256,192,60807,1,0,0:0:0:0:
256,192,61107,1,0,0:0:0:0:
256,192,61257,1,0,0:0:0:0:
256,192,61407,1,0,0:0:0:0:
256,192,61557,1,0,0:0:0:0:
256,192,61707,1,8,0:0:0:0:
256,192,61857,1,0,0:0:0:0:
256,192,62007,1,8,0:0:0:0:
256,192,62157,1,0,0:0:0:0:
256,192,62307,1,8,0:0:0:0:
256,192,62607,1,8,0:0:0:0:
256,192,62682,1,8,0:0:0:0:
256,192,62757,1,8,0:0:0:0:
256,192,62907,1,8,0:0:0:0:
256,192,63207,1,8,0:0:0:0:
256,192,63507,1,0,0:0:0:0:
256,192,63657,1,0,0:0:0:0:
256,192,63957,1,0,0:0:0:0:
256,192,64107,1,8,0:0:0:0:
256,192,64407,1,8,0:0:0:0:
256,192,64557,1,0,0:0:0:0:
256,192,64707,1,8,0:0:0:0:
256,192,64857,1,0,0:0:0:0:
256,192,65007,1,8,0:0:0:0:
256,192,65307,1,0,0:0:0:0:
256,192,65607,1,8,0:0:0:0:
256,192,65807,1,0,0:0:0:0:
256,192,65907,1,8,0:0:0:0:
256,192,66107,1,0,0:0:0:0:
256,192,66207,1,8,0:0:0:0:
256,192,66407,1,0,0:0:0:0:
256,192,66507,1,8,0:0:0:0:
256,192,66707,1,0,0:0:0:0:
256,192,66807,1,8,0:0:0:0:
256,192,67007,1,0,0:0:0:0:
256,192,67107,1,8,0:0:0:0:
256,192,67407,1,8,0:0:0:0:
256,192,67482,1,8,0:0:0:0:
256,192,67557,1,8,0:0:0:0:
256,192,67707,1,8,0:0:0:0:
256,192,68007,1,8,0:0:0:0:
256,192,68157,1,0,0:0:0:0:
256,192,68307,1,8,0:0:0:0:
256,192,68457,1,0,0:0:0:0:
256,192,68607,1,0,0:0:0:0:
256,192,68757,1,0,0:0:0:0:
256,192,68907,1,8,0:0:0:0:
256,192,69057,1,0,0:0:0:0:
256,192,69207,1,8,0:0:0:0:
256,192,69357,1,0,0:0:0:0:
256,192,69507,1,8,0:0:0:0:
256,192,69807,1,8,0:0:0:0:
256,192,69882,1,8,0:0:0:0:
256,192,69957,1,8,0:0:0:0:
256,192,70107,1,0,0:0:0:0:
256,192,70407,1,8,0:0:0:0:
256,192,70482,1,8,0:0:0:0:
256,192,70557,1,8,0:0:0:0:
256,192,70707,1,8,0:0:0:0:
256,192,71007,1,8,0:0:0:0:
256,192,71157,1,0,0:0:0:0:
256,192,71307,1,8,0:0:0:0:
256,192,71607,1,0,0:0:0:0:
256,192,71907,1,8,0:0:0:0:
256,192,72207,1,8,0:0:0:0:
256,192,72357,1,0,0:0:0:0:
256,192,72507,1,8,0:0:0:0:
256,192,72807,1,0,0:0:0:0:
256,192,73107,1,0,0:0:0:0:
256,192,73407,1,0,0:0:0:0:
256,192,73557,1,8,0:0:0:0:
256,192,73857,1,0,0:0:0:0:
256,192,74007,1,8,0:0:0:0:
256,192,74307,1,8,0:0:0:0:
256,192,74607,1,8,0:0:0:0:
256,192,74757,1,0,0:0:0:0:
256,192,74907,1,8,0:0:0:0:
256,192,75207,1,8,0:0:0:0:
256,192,75507,1,0,0:0:0:0:
256,192,75657,1,0,0:0:0:0:
256,192,75807,1,0,0:0:0:0:
256,192,75882,1,0,0:0:0:0:
256,192,75957,1,0,0:0:0:0:
256,192,76107,1,8,0:0:0:0:
256,192,76257,1,0,0:0:0:0:
256,192,76407,1,8,0:0:0:0:
256,192,76557,1,8,0:0:0:0:
256,192,76707,1,0,0:0:0:0:
256,192,76932,1,0,0:0:0:0:
256,192,77157,1,8,0:0:0:0:
256,192,77307,1,0,0:0:0:0:
256,192,77607,1,0,0:0:0:0:
256,192,77907,1,8,0:0:0:0:
256,192,78207,1,8,0:0:0:0:
256,192,78357,1,0,0:0:0:0:
256,192,78507,1,8,0:0:0:0:
256,192,78807,1,8,0:0:0:0:
256,192,79107,1,0,0:0:0:0:
256,192,79257,1,0,0:0:0:0:
256,192,79407,1,8,0:0:0:0:
256,192,79557,1,8,0:0:0:0:
256,192,79707,1,0,0:0:0:0:
256,192,79857,1,8,0:0:0:0:
256,192,79932,1,8,0:0:0:0:
256,192,80007,1,8,0:0:0:0:
256,192,80157,1,8,0:0:0:0:
256,192,80307,1,8,0:0:0:0:
256,192,80607,1,8,0:0:0:0:
256,192,80757,1,0,0:0:0:0:
256,192,80907,1,8,0:0:0:0:
256,192,81207,1,0,0:0:0:0:
256,192,81507,1,8,0:0:0:0:
256,192,81657,1,8,0:0:0:0:
256,192,81807,1,8,0:0:0:0:
256,192,81957,1,8,0:0:0:0:
256,192,82107,1,8,0:0:0:0:
256,192,82257,1,8,0:0:0:0:
256,192,82332,1,8,0:0:0:0:
256,192,82407,1,8,0:0:0:0:
256,192,82557,1,8,0:0:0:0:
256,192,82707,1,0,0:0:0:0:
256,192,82857,1,8,0:0:0:0:
256,192,83007,1,0,0:0:0:0:
256,192,83157,1,0,0:0:0:0:
256,192,83307,1,8,0:0:0:0:
256,192,83607,1,8,0:0:0:0:
256,192,83757,1,0,0:0:0:0:
256,192,83907,1,8,0:0:0:0:
256,192,84057,1,0,0:0:0:0:
256,192,84207,1,8,0:0:0:0:
256,192,84507,1,0,0:0:0:0:
256,192,84807,1,0,0:0:0:0:
256,192,84957,1,0,0:0:0:0:
256,192,85107,1,8,0:0:0:0:
256,192,85407,1,8,0:0:0:0:
256,192,85557,1,0,0:0:0:0:
256,192,85707,1,8,0:0:0:0:
256,192,86007,1,0,0:0:0:0:
256,192,86157,1,0,0:0:0:0:
256,192,86307,1,8,0:0:0:0:
256,192,86457,1,0,0:0:0:0:
256,192,86607,1,8,0:0:0:0:
256,192,86757,1,0,0:0:0:0:
256,192,86907,1,8,0:0:0:0:
256,192,87057,1,0,0:0:0:0:
256,192,87207,1,0,0:0:0:0:
256,192,87357,1,0,0:0:0:0:
256,192,87507,1,8,0:0:0:0:
256,192,87807,1,0,0:0:0:0:
256,192,87957,1,8,0:0:0:0:
256,192,88257,1,0,0:0:0:0:
256,192,88407,1,8,0:0:0:0:
256,192,88707,1,8,0:0:0:0:
256,192,89007,1,8,0:0:0:0:
256,192,89157,1,0,0:0:0:0:
256,192,89307,1,8,0:0:0:0:
256,192,89607,1,8,0:0:0:0:
256,192,89907,1,0,0:0:0:0:
256,192,90207,1,0,0:0:0:0:
256,192,90357,1,8,0:0:0:0:
256,192,90657,1,0,0:0:0:0:
256,192,90807,1,8,0:0:0:0:
256,192,91107,1,8,0:0:0:0:
256,192,91407,1,8,0:0:0:0:
256,192,91557,1,0,0:0:0:0:
256,192,91707,1,8,0:0:0:0:
256,192,92007,1,8,0:0:0:0:
256,192,92307,1,0,0:0:0:0:
256,192,92607,1,0,0:0:0:0:
256,192,92757,1,8,0:0:0:0:
256,192,93057,1,0,0:0:0:0:
256,192,93207,1,8,0:0:0:0:
256,192,93507,1,8,0:0:0:0:
256,192,93807,1,8,0:0:0:0:
256,192,93957,1,0,0:0:0:0:
256,192,94107,1,8,0:0:0:0:
256,192,94407,1,8,0:0:0:0:
256,192,94707,1,8,0:0:0:0:
256,192,94932,1,8,0:0:0:0:
256,192,95157,1,0,0:0:0:0:
256,192,95307,1,8,0:0:0:0:
256,192,95607,1,0,0:0:0:0:
256,192,95757,1,0,0:0:0:0:
256,192,95907,1,8,0:0:0:0:
256,192,96057,1,0,0:0:0:0:
256,192,96207,1,8,0:0:0:0:
256,192,96357,1,0,0:0:0:0:
256,192,96507,1,8,0:0:0:0:
256,192,96657,1,8,0:0:0:0:
256,192,96807,1,8,0:0:0:0:
256,192,96957,1,8,0:0:0:0:
256,192,97032,1,8,0:0:0:0:
256,192,97107,1,8,0:0:0:0:
256,192,97257,1,0,0:0:0:0:
256,192,97407,1,0,0:0:0:0:
256,192,97557,1,0,0:0:0:0:
256,192,97707,1,8,0:0:0:0:
256,192,97857,1,8,0:0:0:0:
256,192,98007,1,8,0:0:0:0:
256,192,98157,1,0,0:0:0:0:
256,192,98307,1,0,0:0:0:0:
256,192,98457,1,0,0:0:0:0:
256,192,98607,1,8,0:0:0:0:
256,192,98907,1,0,0:0:0:0:
256,192,99207,1,0,0:0:0:0:
256,192,99357,1,0,0:0:0:0:
256,192,99432,1,0,0:0:0:0:
256,192,99507,1,0,0:0:0:0:
256,192,99657,1,8,0:0:0:0:
256,192,99807,1,8,0:0:0:0:
256,192,99957,1,0,0:0:0:0:
256,192,100107,1,8,0:0:0:0:
256,192,100257,1,0,0:0:0:0:
256,192,100407,1,8,0:0:0:0:
256,192,100557,1,8,0:0:0:0:
256,192,100707,1,0,0:0:0:0:
256,192,100857,1,8,0:0:0:0:
256,192,101007,1,8,0:0:0:0:
256,192,101307,1,8,0:0:0:0:
256,192,101607,1,0,0:0:0:0:
256,192,101757,1,8,0:0:0:0:
256,192,101832,1,8,0:0:0:0:
256,192,101907,1,8,0:0:0:0:
256,192,102057,1,0,0:0:0:0:
256,192,102207,1,0,0:0:0:0:
256,192,102357,1,0,0:0:0:0:
256,192,102507,1,8,0:0:0:0:
256,192,102732,1,0,0:0:0:0:
256,192,102957,1,8,0:0:0:0:
256,192,103032,1,8,0:0:0:0:
256,192,103107,1,8,0:0:0:0:
256,192,103257,1,0,0:0:0:0:
256,192,103407,1,8,0:0:0:0:
256,192,103557,1,0,0:0:0:0:
256,192,103707,1,8,0:0:0:0:
256,192,103857,1,0,0:0:0:0:
256,192,104007,1,8,0:0:0:0:
256,192,104157,1,0,0:0:0:0:
256,192,104232,1,0,0:0:0:0:
256,192,104307,1,0,0:0:0:0:
256,192,104457,1,0,0:0:0:0:
256,192,104607,1,0,0:0:0:0:
256,192,104757,1,0,0:0:0:0:
256,192,104907,1,8,0:0:0:0:
256,192,105057,1,0,0:0:0:0:
256,192,105207,1,8,0:0:0:0:
256,192,105357,1,0,0:0:0:0:
256,192,105507,1,8,0:0:0:0:
256,192,105732,1,8,0:0:0:0:
256,192,105957,1,0,0:0:0:0:
256,192,106107,1,8,0:0:0:0:
256,192,106332,1,8,0:0:0:0:
256,192,106557,1,0,0:0:0:0:
256,192,106707,1,8,0:0:0:0:
256,192,106857,1,0,0:0:0:0:
256,192,107007,1,0,0:0:0:0:
256,192,107157,1,8,0:0:0:0:
256,192,107457,1,0,0:0:0:0:
256,192,107607,1,8,0:0:0:0:
256,192,107757,1,0,0:0:0:0:
256,192,107907,1,8,0:0:0:0:
256,192,108207,1,8,0:0:0:0:
256,192,108357,1,0,0:0:0:0:
256,192,108507,1,8,0:0:0:0:
256,192,108657,1,8,0:0:0:0:
256,192,108807,1,0,0:0:0:0:
256,192,109107,1,0,0:0:0:0:
256,192,109257,1,0,0:0:0:0:
256,192,109407,1,0,0:0:0:0:
256,192,109557,1,8,0:0:0:0:
256,192,109857,1,0,0:0:0:0:
256,192,110007,1,8,0:0:0:0:
256,192,110157,1,8,0:0:0:0:
256,192,110307,1,8,0:0:0:0:
256,192,110457,1,0,0:0:0:0:
256,192,110607,1,0,0:0:0:0:
256,192,110907,1,8,0:0:0:0:
256,192,111057,1,8,0:0:0:0:
256,192,111207,1,0,0:0:0:0:
256,192,111357,1,8,0:0:0:0:
256,192,111507,1,8,0:0:0:0:
256,192,111732,1,8,0:0:0:0:
256,192,111957,1,0,0:0:0:0:
256,192,112107,1,8,0:0:0:0:
256,192,112332,1,8,0:0:0:0:
256,192,112557,1,0,0:0:0:0:
256,192,112707,1,8,0:0:0:0:
256,192,112932,1,8,0:0:0:0:
256,192,113157,1,0,0:0:0:0:
256,192,113307,1,8,0:0:0:0:
256,192,113457,1,8,0:0:0:0:
256,192,113607,1,0,0:0:0:0:
256,192,113757,1,8,0:0:0:0:
256,192,113907,1,8,0:0:0:0:
256,192,114132,1,8,0:0:0:0:
256,192,114357,1,0,0:0:0:0:
256,192,114507,1,8,0:0:0:0:
256,192,114732,1,8,0:0:0:0:
256,192,114957,1,0,0:0:0:0:
256,192,115107,1,8,0:0:0:0:
256,192,115332,1,8,0:0:0:0:
256,192,115557,1,0,0:0:0:0:
256,192,115707,1,8,0:0:0:0:
256,192,115857,1,8,0:0:0:0:
256,192,116007,1,0,0:0:0:0:
256,192,116157,1,8,0:0:0:0:
256,192,116307,12,0,119907,0:0:0:0:
