osu file format v14

[General]
AudioFilename: dopamine.mp3
AudioLeadIn: 0
PreviewTime: 53807
Countdown: 0
SampleSet: Soft
StackLeniency: 0.3
Mode: 0
LetterboxInBreaks: 0
WidescreenStoryboard: 0

[Editor]
DistanceSpacing: 1.2
BeatDivisor: 4
GridSize: 4
TimelineZoom: 2.8

[Metadata]
Title:Dopamine
TitleUnicode:ドーパミン
Artist:U1 overground
ArtistUnicode:U1 overground
Creator:Spring
Version:ADVANCED
Source:jubeat saucer fulfill
Tags:liaoxingyao Parad_X
BeatmapID:829838
BeatmapSetID:375923

[Difficulty]
HPDrainRate:5
CircleSize:4
OverallDifficulty:6
ApproachRate:7
SliderMultiplier:1.2
SliderTickRate:1

[Events]
//Background and Video events
0,0,"U1.jpg",0,0
//Break Periods
//Storyboard Layer 0 (Background)
//Storyboard Layer 1 (Fail)
//Storyboard Layer 2 (Pass)
//Storyboard Layer 3 (Foreground)
//Storyboard Sound Samples

[TimingPoints]
1007,300,4,2,0,50,1,0
20207,-76.9230769230769,4,2,0,50,0,0
29807,-100,4,2,0,50,0,0
118607,-100,4,2,0,20,0,0

[Colours]
Combo1 : 255,213,83
Combo2 : 255,128,255
Combo3 : 244,0,244
Combo4 : 142,255,255

[HitObjects]
96,244,1007,6,0,B|144:248|144:248|164:244|164:244|216:248,1,120,2|0,0:0|0:0,0:0:0:0:
280,292,1457,1,2,0:0:0:0:
348,252,1607,2,0,P|360:228|360:184,1,60,0|0,0:0|0:0,0:0:0:0:
424,128,1907,2,0,P|425:157|438:184,1,60,2|0,0:0|0:0,0:0:0:0:
464,40,2207,6,0,L|328:52,1,120,0|0,0:0|0:0,0:0:0:0:
212,32,2657,1,0,0:0:0:0:
268,88,2807,2,0,P|280:136|252:176,1,90,2|0,0:0|0:0,0:0:0:0:
232,196,3107,2,0,L|224:280,1,60,0|0,0:0|0:0,0:0:0:0:
132,344,3407,6,0,L|144:216,1,120,2|0,0:0|0:0,0:0:0:0:
68,180,3857,2,0,L|61:120,2,60,0|0|2,0:0|0:0|0:0,0:0:0:0:
16,28,4307,2,0,L|88:40,1,60
192,36,4607,6,0,B|244:44|244:44|264:36|264:36|312:44,2,120,0|0|2,0:0|0:0|0:0,0:0:0:0:
124,96,5357,1,0,0:0:0:0:
44,104,5507,2,0,L|52:180,1,60,2|0,0:0|0:0,0:0:0:0:
16,236,5807,6,0,P|20:292|80:336,1,120,2|0,0:0|0:0,0:0:0:0:
136,300,6257,2,0,B|188:296|188:296|204:304|204:304|256:300,1,120,2|0,0:0|0:0,0:0:0:0:
324,264,6707,2,0,L|308:196,1,60,2|0,0:0|0:0,0:0:0:0:
372,120,7007,6,0,B|404:104|404:104|388:200,1,120,0|0,0:0|0:0,0:0:0:0:
232,164,7607,2,0,P|176:144|120:168,1,120,2|2,0:0|0:0,0:0:0:0:
224,292,8207,6,0,B|296:300|296:300|320:292|320:292|404:304,1,180,2|2,0:0|0:0,0:0:0:0:
468,260,8807,2,0,L|488:200,2,60,0|0|2,0:0|0:0|0:0,0:0:0:0:
336,176,9407,6,0,P|328:132|344:88,2,90
388,240,10007,2,0,B|352:228|352:228|272:244,1,120,2|2,0:0|0:0,0:0:0:0:
256,192,10607,12,2,15407,1:2:0:0:
320,232,15707,5,0,0:0:0:0:
320,232,16007,2,0,L|424:220,1,90,2|2,1:2|0:0,0:0:0:0:
428,188,16307,2,0,L|420:256,1,60,2|0,1:2|0:0,0:0:0:0:
344,136,16607,5,2,1:2:0:0:
500,124,16907,1,0,0:0:0:0:
288,68,17207,2,0,L|220:76,1,60,2|0,1:2|0:0,0:0:0:0:
176,136,17507,2,0,L|108:144,1,60,2|0,1:2|0:0,0:0:0:0:
56,204,17807,6,0,P|52:280|100:320,1,120,2|2,1:2|1:2,0:0:0:0:
232,328,18407,2,0,L|224:268,1,60,2|0,1:2|0:0,0:0:0:0:
284,212,18707,1,2,1:2:0:0:
300,220,18782,1,0,0:0:0:0:
316,228,18857,1,2,0:0:0:0:
396,196,19007,6,0,L|400:240,2,40,2|0|0,0:0|0:0|0:0,0:0:0:0:
464,280,19307,2,0,L|456:332,2,40,2|0|0,0:0|0:0|0:0,0:0:0:0:
415,207,19607,6,0,L|412:168,2,40,2|0|0,0:0|0:0|0:0,0:0:0:0:
352,104,19907,2,0,L|358:64,1,40,2|0,0:0|0:0,0:0:0:0:
268,120,20207,5,2,1:2:0:0:
272,128,20507,2,0,L|156:120,1,116.999994644165,2|0,1:2|0:0,0:0:0:0:
108,136,20807,2,0,P|92:172|104:216,1,77.9999964294435,2|2,1:2|0:0,0:0:0:0:
80,304,21107,2,0,L|36:292,2,38.9999982147218,2|0|2,1:2|0:0|0:0,0:0:0:0:
168,336,21407,6,0,B|188:316|188:316|256:308,1,77.9999964294435,2|2,1:2|0:0,0:0:0:0:
408,336,21707,2,0,P|368:324|320:340,1,77.9999964294435,2|0,1:2|0:0,0:0:0:0:
340,316,21932,1,0,0:0:0:0:
344,300,22007,2,0,L|332:216,1,77.9999964294435,2|0,1:2|0:0,0:0:0:0:
412,176,22307,1,2,1:2:0:0:
264,60,22607,5,2,1:2:0:0:
256,48,22907,2,0,P|244:112|268:160,1,116.999994644165,2|2,1:2|0:0,0:0:0:0:
304,180,23207,2,0,L|400:168,1,77.9999964294435,2|0,1:2|0:0,0:0:0:0:
432,248,23507,2,0,B|452:236|452:236|436:308,1,77.9999964294435,2|2,1:2|0:0,0:0:0:0:
368,344,23807,6,0,P|296:308|224:336,1,155.999992858887,2|2,1:2|1:2,0:0:0:0:
152,320,24257,1,2,0:0:0:0:
76,340,24407,2,0,P|60:304|56:264,1,77.9999964294435,2|2,1:2|0:0,0:0:0:0:
96,192,24707,2,0,P|100:156|92:108,1,77.9999964294435,2|0,1:2|0:0,0:0:0:0:
40,48,25007,5,6,1:2:0:0:
48,56,25307,2,0,P|112:64|176:56,1,116.999994644165,2|2,1:2|0:0,0:0:0:0:
200,84,25607,2,0,L|280:80,1,77.9999964294435,2|2,1:2|0:0,0:0:0:0:
432,40,25907,2,0,L|390:38,2,38.9999982147218,2|0|2,1:2|0:0|0:0,0:0:0:0:
356,124,26207,6,0,P|344:164|360:204,1,77.9999964294435,2|0,1:2|0:0,0:0:0:0:
360,292,26507,2,0,B|384:320|384:320|424:328,1,77.9999964294435,2|2,1:2|0:0,0:0:0:0:
436,324,26732,1,0,0:0:0:0:
448,320,26807,1,2,1:2:0:0:
260,324,27107,1,2,1:2:0:0:
356,164,27407,5,2,1:2:0:0:
360,172,27707,2,0,P|372:104|364:52,1,116.999994644165,2|2,1:2|0:0,0:0:0:0:
328,28,28007,2,0,L|248:32,1,77.9999964294435,2|2,1:2|0:0,0:0:0:0:
164,68,28307,2,0,L|172:124,2,38.9999982147218,2|0|2,1:2|0:0|0:0,0:0:0:0:
108,164,28607,6,0,P|60:156|36:128,1,77.9999964294435,2|2,1:2|0:0,0:0:0:0:
152,252,28907,2,0,B|140:264|140:264|72:256,1,77.9999964294435,2|2,1:2|0:0,0:0:0:0:
208,320,29207,1,2,1:2:0:0:
212,316,29507,2,0,L|204:360,3,38.9999982147218,2|2|2|2,0:0|0:0|0:0|0:0,0:0:0:0:
272,252,29807,6,0,B|288:268|288:268|280:164,1,120,6|2,1:2|1:2,0:0:0:0:
248,100,30257,1,0,0:0:0:0:
296,36,30407,2,0,L|368:44,1,60,2|0,1:2|0:0,0:0:0:0:
432,52,30707,2,0,P|452:72|456:104,1,60,2|2,1:2|0:0,0:0:0:0:
332,128,31007,6,0,L|220:140,2,90,2|0|2,1:2|0:0|0:0,0:0:0:0:
304,232,31607,2,0,P|304:256|320:288,1,60,2|0,1:2|0:0,0:0:0:0:
416,312,31907,2,0,L|424:236,1,60,2|2,1:2|0:0,0:0:0:0:
332,128,32207,5,2,1:2:0:0:
336,132,32507,2,0,P|288:144|244:140,1,90,2|0,1:2|0:0,0:0:0:0:
212,152,32807,2,0,L|216:88,1,60,2|2,1:2|0:0,0:0:0:0:
112,28,33107,2,0,B|96:48|96:48|108:112,1,90,2|2,1:2|0:0,0:0:0:0:
96,132,33407,6,0,P|100:160|96:200,1,60,2|2,1:2|0:0,0:0:0:0:
128,272,33707,2,0,P|124:304|112:336,1,60,2|2,1:2|0:0,0:0:0:0:
40,256,34007,1,2,1:2:0:0:
192,212,34157,1,2,0:0:0:0:
212,288,34307,1,2,1:2:0:0:
292,304,34457,1,2,0:0:0:0:
368,328,34607,6,0,P|392:268|380:192,1,120,6|2,1:2|1:2,0:0:0:0:
440,156,35057,1,0,0:0:0:0:
404,88,35207,2,0,P|400:60|408:28,1,60,2|0,1:2|0:0,0:0:0:0:
328,60,35507,2,0,L|296:36,2,30,2|2|2,1:2|0:0|0:0,0:0:0:0:
220,108,35807,6,0,B|212:132|212:132|292:116,2,90,2|0|0,1:2|0:0|0:0,0:0:0:0:
164,40,36407,2,0,L|92:32,1,60,2|2,1:2|0:0,0:0:0:0:
112,124,36707,2,0,P|108:148|120:180,1,60,2|2,1:2|0:0,0:0:0:0:
204,228,37007,5,2,1:2:0:0:
208,224,37307,2,0,L|200:332,1,90,2|0,1:2|0:0,0:0:0:0:
176,344,37607,2,0,L|280:336,2,90,2|0|2,1:2|0:0|0:0,0:0:0:0:
124,284,38207,5,2,1:2:0:0:
272,236,38507,2,0,P|308:240|340:260,1,60,2|2,1:2|0:0,0:0:0:0:
408,292,38807,1,2,1:2:0:0:
420,288,38882,1,0,0:0:0:0:
432,284,38957,1,2,0:0:0:0:
468,192,39107,2,0,L|460:116,1,60,2|2,1:2|0:0,0:0:0:0:
456,52,39407,6,0,L|332:40,1,120,4|0,1:2|0:0,0:0:0:0:
244,136,40007,2,0,L|120:124,1,120,0|0,0:0|0:0,0:0:0:0:
336,40,40607,6,0,L|264:32,1,60,0|8,0:0|0:0,0:0:0:0:
276,33,40907,1,0,0:0:0:0:
184,132,41207,2,0,L|60:120,1,120,0|0,0:0|0:0,0:0:0:0:
64,120,41807,6,0,L|72:192,1,60,2|2,1:2|1:2,0:0:0:0:
128,264,42107,2,0,L|136:232,2,30,2|2|2,1:2|1:2|1:2,0:0:0:0:
84,340,42407,2,0,P|52:340|24:328,1,60,2|2,1:2|1:2,0:0:0:0:
252,332,42707,2,0,L|188:312,1,60,2|2,1:2|1:2,0:0:0:0:
280,248,43007,5,2,1:2:0:0:
356,272,43157,2,0,L|344:324,2,30,2|2|2,1:2|1:2|1:2,0:0:0:0:
420,328,43457,2,0,L|408:380,2,30,2|2|2,1:2|1:2|1:2,0:0:0:0:
436,224,43757,2,0,L|424:276,2,30,2|2|2,1:2|1:2|1:2,0:0:0:0:
384,156,44057,1,2,1:2:0:0:
444,96,44207,6,0,P|384:104|320:92,1,120,6|2,1:2|1:2,0:0:0:0:
260,52,44657,1,0,0:0:0:0:
196,104,44807,1,2,1:2:0:0:
120,80,44957,1,0,0:0:0:0:
52,128,45107,2,0,P|36:96|40:64,1,60,2|0,1:2|0:0,0:0:0:0:
136,208,45407,5,2,1:2:0:0:
136,208,45707,1,2,1:2:0:0:
136,208,45857,1,2,0:0:0:0:
80,276,46007,2,0,L|88:344,1,60,2|0,1:2|0:0,0:0:0:0:
216,212,46307,2,0,L|204:324,1,90,2|0,1:2|0:0,0:0:0:0:
228,336,46607,6,0,P|292:356|352:336,1,120,2|2,1:2|1:2,0:0:0:0:
408,300,47057,1,2,0:0:0:0:
368,176,47207,2,0,L|360:100,1,60,2|0,1:2|0:0,0:0:0:0:
452,168,47507,2,0,P|452:200|424:240,1,60,2|0,1:2|0:0,0:0:0:0:
284,204,47807,5,2,1:2:0:0:
284,204,48107,1,2,1:2:0:0:
284,204,48257,1,2,0:0:0:0:
212,236,48407,2,0,L|204:176,1,60,2|0,1:2|0:0,0:0:0:0:
128,168,48707,2,0,L|136:96,1,60,2|0,1:2|0:0,0:0:0:0:
196,60,49007,6,0,L|68:72,1,120,2|2,1:2|1:2,0:0:0:0:
24,128,49457,1,2,0:0:0:0:
56,200,49607,1,2,1:2:0:0:
28,272,49757,1,0,0:0:0:0:
88,324,49907,2,0,P|119:318|152:320,1,60,2|0,1:2|0:0,0:0:0:0:
304,336,50207,5,2,1:2:0:0:
304,336,50507,1,2,1:2:0:0:
304,336,50657,1,2,0:0:0:0:
232,312,50807,2,0,L|236:252,1,60,2|0,1:2|0:0,0:0:0:0:
360,280,51107,2,0,L|356:180,1,90,2|0,1:2|0:0,0:0:0:0:
328,168,51407,6,0,B|316:108|316:108|340:52,1,120,2|2,1:2|1:2,0:0:0:0:
416,44,51857,1,2,0:0:0:0:
488,172,52007,2,0,P|464:188|428:192,1,60,2|2,1:2|0:0,0:0:0:0:
328,168,52307,2,0,L|260:164,1,60,2|0,1:2|0:0,0:0:0:0:
184,72,53807,6,0,L|192:132,1,60,6|0,1:2|0:0,0:0:0:0:
152,200,54107,2,0,L|112:196,3,30,2|2|2|2,0:0|0:0|0:0|0:0,0:0:0:0:
88,180,54407,2,0,L|80:240,1,60,10|0,1:2|0:0,0:0:0:0:
108,312,54707,2,0,P|140:324|172:320,1,60,2|2,0:0|0:0,0:0:0:0:
236,292,55007,5,2,1:2:0:0:
236,292,55157,1,0,0:0:0:0:
304,240,55307,2,0,B|312:220|312:220|328:248|320:292,1,90,2|0,0:0|0:0,0:0:0:0:
340,320,55607,2,0,B|376:324|376:324|404:312,1,60,10|0,1:2|0:0,0:0:0:0:
464,352,55907,2,0,L|508:340,2,30,2|0|0,0:0|0:0|0:0,0:0:0:0:
464,272,56207,6,0,L|472:224,2,40,2|0|0,1:2|0:0|0:0,0:0:0:0:
436,160,56507,2,0,L|384:168,2,40,2|0|0,0:0|0:0|0:0,0:0:0:0:
324,132,56807,2,0,L|332:84,2,40,10|0|0,1:2|0:0|0:0,0:0:0:0:
296,20,57107,2,0,L|244:28,2,40,2|0|0,0:0|0:0|0:0,0:0:0:0:
240,108,57407,6,0,P|184:128|120:104,1,120,2|2,1:2|0:0,0:0:0:0:
68,64,57857,1,2,1:2:0:0:
48,140,58007,2,0,L|56:256,1,90,10|0,1:2|0:0,0:0:0:0:
68,264,58307,2,0,L|4:260,1,60,2|2,0:0|0:0,0:0:0:0:
120,332,58607,5,2,1:2:0:0:
196,316,58757,1,2,0:0:0:0:
272,332,58907,2,0,L|276:372,2,30,2|2|2,0:0|0:0|0:0,0:0:0:0:
256,256,59207,2,0,B|248:224|248:224|304:232,1,90,2|0,1:2|0:0,0:0:0:0:
340,248,59507,2,0,L|376:244,2,30,2|2|2,0:0|0:0|0:0,0:0:0:0:
440,196,59807,6,0,P|460:136|428:72,1,120,2|2,1:2|0:0,0:0:0:0:
372,52,60257,1,2,0:0:0:0:
296,60,60407,2,0,L|216:72,1,60,10|0,1:2|0:0,0:0:0:0:
200,56,60632,1,0,0:0:0:0:
164,44,60707,2,0,L|112:36,2,30
64,96,61007,6,0,P|52:124|56:164,1,60,2|2,1:2|0:0,0:0:0:0:
148,144,61307,2,0,P|160:172|156:212,1,60,2|2,0:0|0:0,0:0:0:0:
88,244,61607,2,0,P|76:272|80:312,1,60,10|2,1:2|0:0,0:0:0:0:
168,292,61907,2,0,P|180:320|176:360,1,60,2|2,0:0|0:0,0:0:0:0:
256,324,62207,6,0,P|304:320|344:344,1,90,2|0,1:2|0:0,0:0:0:0:
380,344,62507,2,0,L|388:304,3,30,0|0|2|0,0:0|0:0|1:2|0:0,0:0:0:0:
440,260,62807,2,0,P|432:188|404:240,1,180,10|0,1:2|0:0,0:0:0:0:
344,156,63407,6,0,P|336:120|348:80,1,60,6|0,1:2|0:0,0:0:0:0:
364,24,63707,2,0,L|288:32,1,60,2|2,1:2|0:0,0:0:0:0:
252,88,64007,2,0,B|224:112|224:112|172:100,1,90,2|0,1:2|0:0,0:0:0:0:
136,88,64307,2,0,L|64:96,1,60,2|2,1:2|0:0,0:0:0:0:
40,164,64607,5,2,1:2:0:0:
40,164,64757,1,2,0:0:0:0:
28,240,64907,2,0,P|36:272|56:292,1,60,2|0,1:2|0:0,0:0:0:0:
144,264,65207,2,0,P|148:312|124:348,1,90,2|0,1:2|0:0,0:0:0:0:
168,352,65507,2,0,L|204:344,2,30,2|0|2,1:2|0:0|0:0,0:0:0:0:
304,308,65807,6,0,L|348:316,2,40,2|2|2,1:2|0:0|0:0,0:0:0:0:
372,240,66107,2,0,L|416:228,2,40,2|2|2,1:2|0:0|0:0,0:0:0:0:
296,196,66407,2,0,L|254:180,2,40,2|2|2,1:2|0:0|0:0,0:0:0:0:
272,102,66707,2,0,L|240:69,2,40,2|2|2,1:2|0:0|0:0,0:0:0:0:
352,128,67007,6,0,B|380:136|380:136|364:60,1,90,2|0,1:2|0:0,0:0:0:0:
380,48,67307,2,0,L|424:44,2,30,2|2|2,1:2|0:0|0:0,0:0:0:0:
268,28,67607,2,0,L|144:36,1,120,2|2,1:2|1:2,0:0:0:0:
76,68,68057,1,2,0:0:0:0:
140,112,68207,6,0,L|152:192,1,60,6|2,1:2|0:0,0:0:0:0:
264,220,68507,2,0,L|272:160,1,60,2|2,1:2|0:0,0:0:0:0:
116,168,68807,2,0,L|128:248,1,60,2|2,1:2|0:0,0:0:0:0:
240,276,69107,2,0,L|248:216,1,60,2|2,1:2|0:0,0:0:0:0:
156,316,69407,5,2,1:2:0:0:
160,324,69707,2,0,L|128:328,2,30,2|2|2,1:2|0:0|0:0,0:0:0:0:
240,276,70007,2,0,P|280:268|336:288,1,90,2|2,1:2|0:0,0:0:0:0:
360,300,70307,2,0,L|400:296,2,30,2|2|2,1:2|0:0|0:0,0:0:0:0:
460,240,70607,6,0,B|472:256|472:256|480:180,1,90,2|0,1:2|0:0,0:0:0:0:
488,148,70907,2,0,L|424:156,1,60,2|2,1:2|0:0,0:0:0:0:
320,108,71207,2,0,L|376:112,2,40,2|2|0,1:2|0:0|0:0,0:0:0:0:
372,36,71507,2,0,L|428:40,2,40,2|2|0,1:2|0:0|0:0,0:0:0:0:
292,28,71807,5,2,1:2:0:0:
204,84,71957,1,2,0:0:0:0:
104,52,72107,2,0,B|72:48|72:48|84:80,1,60,2|0,1:2|0:0,0:0:0:0:
104,196,72407,2,0,P|116:172|116:132,1,60,2|2,1:2|0:0,0:0:0:0:
60,268,72707,2,0,L|76:328,1,60,2|2,1:2|0:0,0:0:0:0:
152,340,73007,5,6,1:2:0:0:
160,332,73307,2,0,L|260:344,1,90,2|0,1:2|0:0,0:0:0:0:
284,332,73607,2,0,L|268:264,1,60,2|0,1:2|0:0,0:0:0:0:
200,176,73907,2,0,P|192:204|208:236,1,60,2|0,1:2|0:0,0:0:0:0:
316,208,74207,6,0,L|432:216,2,90,2|0|0,1:2|0:0|0:0,0:0:0:0:
200,176,74807,1,2,1:2:0:0:
192,168,75107,2,0,L|188:236,1,60,0|0,0:0|0:0,0:0:0:0:
224,296,75407,5,6,1:2:0:0:
180,360,75557,1,0,0:0:0:0:
104,340,75707,2,0,L|60:348,3,30,2|2|2|2,0:0|0:0|1:2|0:0,0:0:0:0:
40,328,76007,2,0,B|28:300|28:300|48:268,1,60,10|2,1:2|0:0,0:0:0:0:
96,216,76307,2,0,L|76:120,1,90,2|0,0:0|0:0,0:0:0:0:
52,100,76607,5,2,1:2:0:0:
116,56,76757,2,0,L|160:64,1,30,0|2,0:0|1:2,0:0:0:0:
220,44,76982,2,0,L|264:52,1,30,0|2,0:0|1:2,0:0:0:0:
328,40,77207,2,0,B|344:24|344:24|332:92,1,90,10|0,1:2|0:0,0:0:0:0:
340,128,77507,2,0,P|388:140|436:108,1,90,0|0,0:0|0:0,0:0:0:0:
460,108,77807,6,0,L|448:208,1,90,2|0,1:2|0:0,0:0:0:0:
420,224,78107,2,0,L|432:284,2,40,2|0|0,0:0|0:0|0:0,0:0:0:0:
340,212,78407,1,10,1:2:0:0:
268,240,78557,1,2,1:2:0:0:
196,212,78707,2,0,P|152:208|128:224,1,60,2|2,0:0|0:0,0:0:0:0:
72,296,79007,5,2,1:2:0:0:
4,260,79157,2,0,P|4:240|8:224,2,30,0|0|2,0:0|0:0|0:0,0:0:0:0:
68,188,79457,1,0,1:2:0:0:
48,112,79607,1,10,1:2:0:0:
76,40,79757,2,0,L|36:32,2,30,2|2|2,0:0|0:0|0:0,0:0:0:0:
128,100,80057,1,2,0:0:0:0:
204,116,80207,6,0,P|256:92|320:100,1,120,2|2,1:2|1:2,0:0:0:0:
384,140,80657,1,2,0:0:0:0:
456,168,80807,2,0,L|464:104,1,60,2|0,1:2|0:0,0:0:0:0:
408,280,81107,2,0,L|400:216,1,60,2|0,1:2|0:0,0:0:0:0:
324,208,81407,5,2,1:2:0:0:
268,260,81557,1,2,0:0:0:0:
200,224,81707,1,2,1:2:0:0:
128,256,81857,1,2,0:0:0:0:
60,220,82007,2,0,B|36:204|36:204|56:260|56:260|48:300|48:300|64:352,1,180,2|2,1:2|0:0,0:0:0:0:
69,353,82607,6,0,L|141:345,1,60,6|0,1:2|0:0,0:0:0:0:
180,288,82907,2,0,P|244:272|292:296,1,120,2|10,0:0|1:2,0:0:0:0:
444,328,83507,1,2,0:0:0:0:
444,328,83657,1,0,0:0:0:0:
460,252,83807,6,0,L|456:176,1,60,2|2,1:2|0:0,0:0:0:0:
384,164,84107,2,0,B|368:172|368:172|376:88,1,90,2|0,0:0|0:0,0:0:0:0:
392,64,84407,2,0,L|460:76,1,60,10|0,1:2|0:0,0:0:0:0:
316,32,84707,2,0,L|280:40,2,30,2|2|2,0:0|0:0|0:0,0:0:0:0:
260,120,85007,6,0,P|220:136|168:128,1,90,2|0,1:2|0:0,0:0:0:0:
148,100,85307,2,0,L|100:92,2,30,2|2|2,0:0|0:0|1:2,0:0:0:0:
104,180,85607,2,0,L|92:300,1,120,10|2,1:2|0:0,0:0:0:0:
168,280,86057,1,2,0:0:0:0:
244,256,86207,5,2,0:0:0:0:
312,292,86357,1,2,0:0:0:0:
388,276,86507,2,0,P|424:272|456:292,1,60,2|0,0:0|0:0,0:0:0:0:
504,188,86807,2,0,L|436:200,1,60,2|2,0:0|0:0,0:0:0:0:
440,120,87107,2,0,L|380:116,1,60,2|2,0:0|0:0,0:0:0:0:
284,68,87407,6,0,L|300:208,1,120,2|0,1:2|0:0,0:0:0:0:
248,324,88007,2,0,L|180:320,2,60,10|0|2,1:2|0:0|0:0,0:0:0:0:
380,260,88607,6,0,P|444:268|472:332,1,120,0|0,0:0|0:0,0:0:0:0:
328,328,89207,2,0,L|256:324,1,60,10|0,1:2|0:0,0:0:0:0:
196,320,89507,1,2,0:0:0:0:
132,192,89807,6,0,L|12:208,1,120,2|0,1:2|0:0,0:0:0:0:
120,304,90407,1,10,1:2:0:0:
120,304,90557,2,0,P|144:248|124:180,1,120,0|0,0:0|0:0,0:0:0:0:
72,140,91007,6,0,L|96:8,1,120,2|0,1:2|0:0,0:0:0:0:
224,104,91607,1,10,1:2:0:0:
296,144,91757,1,0,0:0:0:0:
296,144,91907,2,0,L|360:132,1,60
364,52,92207,6,0,P|420:76|432:136,1,120,2|0,1:2|0:0,0:0:0:0:
336,264,92807,2,0,L|348:328,2,60,10|0|0,1:2|0:0|0:0,0:0:0:0:
188,316,93407,6,0,L|168:192,1,120,2|0,1:2|0:0,0:0:0:0:
44,108,94007,2,0,L|112:116,1,60,10|0,1:2|0:0,0:0:0:0:
164,64,94307,2,0,L|232:72,1,60,0|0,0:0|0:0,0:0:0:0:
288,112,94607,6,0,B|336:108|336:108|368:76,2,90,2|2|0,1:2|1:2|0:0,0:0:0:0:
236,168,95207,2,0,P|232:196|244:236,1,60,10|0,1:2|0:0,0:0:0:0:
248,300,95507,2,0,P|268:320|300:332,1,60,2|0,0:0|0:0,0:0:0:0:
364,292,95807,6,0,L|500:304,2,120,0|0|10,0:0|0:0|0:0,0:0:0:0:
328,156,96707,2,0,L|400:144,1,60,2|2,0:0|0:0,0:0:0:0:
448,188,97007,5,6,1:2:0:0:
476,48,97307,1,2,1:2:0:0:
272,32,97607,2,0,L|284:104,1,60,2|0,1:2|0:0,0:0:0:0:
208,200,97907,2,0,L|216:136,1,60,2|0,1:2|0:0,0:0:0:0:
172,76,98207,6,0,P|144:72|104:84,2,60,2|0|2,1:2|3:0|1:2,0:0:0:0:
160,264,98807,1,2,1:2:0:0:
160,264,99107,2,0,L|152:192,1,60,2|2,1:2|0:0,0:0:0:0:
92,312,99407,5,2,1:2:0:0:
248,332,99707,1,2,1:2:0:0:
320,196,100007,2,0,L|240:208,1,60,2|0,1:2|0:0,0:0:0:0:
400,132,100307,2,0,L|340:120,1,60,2|0,1:2|0:0,0:0:0:0:
280,72,100607,6,0,P|272:40|280:12,2,60,2|0|2,1:2|0:0|1:2,0:0:0:0:
308,228,101207,1,2,1:2:0:0:
308,228,101507,2,0,L|304:292,1,60,2|2,1:2|0:0,0:0:0:0:
244,340,101807,5,2,1:2:0:0:
172,312,101957,1,0,0:0:0:0:
96,316,102107,2,0,L|48:324,2,30,2|2|2,1:2|0:0|0:0,0:0:0:0:
132,248,102407,2,0,P|136:196|124:160,1,90,2|2,1:2|0:0,0:0:0:0:
84,160,102707,2,0,L|92:96,1,60,0|2,0:0|0:0,0:0:0:0:
148,48,103007,5,2,1:2:0:0:
224,64,103157,1,0,0:0:0:0:
300,52,103307,2,0,L|352:48,2,30,2|2|2,1:2|0:0|0:0,0:0:0:0:
332,124,103607,2,0,P|376:144|432:132,1,90,0|2,1:2|0:0,0:0:0:0:
452,120,103907,2,0,B|460:148|460:148|448:180,1,60,0|2,0:0|0:0,0:0:0:0:
388,260,104207,6,0,L|456:252,1,60,2|0,1:2|0:0,0:0:0:0:
360,336,104507,2,0,L|300:343,1,60,2|0,1:2|0:0,0:0:0:0:
248,288,104807,2,0,B|220:280|220:280|184:288,1,60,2|0,1:2|0:0,0:0:0:0:
128,336,105107,2,0,B|100:344|100:344|64:336,1,60,2|0,1:2|0:0,0:0:0:0:
32,268,105407,5,2,1:2:0:0:
76,204,105557,1,0,0:0:0:0:
84,192,105632,1,0,0:0:0:0:
92,180,105707,2,0,L|88:116,1,60,2|0,1:2|0:0,0:0:0:0:
160,40,106007,2,0,L|156:72,2,30,2|0|0,1:2|0:0|0:0,0:0:0:0:
212,128,106307,2,0,B|240:136|240:136|276:124,1,60,2|0,1:2|0:0,0:0:0:0:
324,64,106607,6,0,L|432:80,1,90,6|0,1:2|0:0,0:0:0:0:
444,52,106907,2,0,L|436:120,1,60,2|2,1:2|0:0,0:0:0:0:
452,184,107207,1,2,1:2:0:0:
376,208,107357,1,0,0:0:0:0:
324,268,107507,2,0,P|328:304|356:336,1,60,2|0,1:2|0:0,0:0:0:0:
416,344,107807,6,0,L|288:360,1,120,2|2,1:2|1:2,0:0:0:0:
224,336,108257,1,0,0:0:0:0:
152,308,108407,2,0,L|56:320,1,90,2|0,1:2|0:0,0:0:0:0:
28,300,108707,2,0,P|20:268|28:240,1,60,2|2,1:2|0:0,0:0:0:0:
76,184,109007,6,0,B|92:120|92:120|76:96,1,90,0|0,1:2|0:0,0:0:0:0:
40,88,109307,2,0,L|36:24,1,60,2|0,1:2|0:0,0:0:0:0:
112,36,109607,1,2,1:2:0:0:
188,44,109757,1,0,0:0:0:0:
264,52,109907,2,0,P|300:48|332:36,1,60,2|0,1:2|0:0,0:0:0:0:
308,116,110207,6,0,L|436:132,1,120,2|2,1:2|1:2,0:0:0:0:
380,280,110807,2,0,P|372:308|380:344,1,60,2|0,1:2|0:0,0:0:0:0:
292,216,111107,2,0,L|300:288,1,60,2|0,1:2|0:0,0:0:0:0:
236,320,111407,5,2,1:2:0:0:
168,280,111557,2,0,L|120:288,4,30,0|0|2|0|0,0:0|0:0|1:2|0:0|0:0,0:0:0:0:
88,224,112007,5,2,1:2:0:0:
144,168,112157,2,0,L|192:176,4,30,0|0|2|0|0,0:0|0:0|1:2|0:0|0:0,0:0:0:0:
216,112,112607,5,2,1:2:0:0:
288,84,112757,2,0,L|300:40,4,30,0|0|2|0|0,0:0|0:0|1:2|0:0|0:0,0:0:0:0:
356,128,113207,5,2,1:2:0:0:
428,100,113357,2,0,L|440:56,4,30,0|0|2|0|0,0:0|0:0|1:2|0:0|0:0,0:0:0:0:
424,180,113807,6,0,B|440:240|440:240|420:272,1,90,6|0,1:2|0:0,0:0:0:0:
396,288,114107,2,0,P|364:284|336:296,1,60,2|0,1:2|0:0,0:0:0:0:
264,344,114407,6,0,L|196:336,1,60,2|0,1:2|0:0,0:0:0:0:
72,292,114707,2,0,L|136:284,1,60,2|0,1:2|0:0,0:0:0:0:
176,220,115007,6,0,B|184:192|184:192|168:160,1,60,6|2,1:2|0:0,0:0:0:0:
256,164,115307,2,0,B|248:136|248:136|264:104,1,60,6|2,1:2|0:0,0:0:0:0:
324,60,115607,5,6,1:2:0:0:
244,28,115757,1,2,0:0:0:0:
176,84,115907,2,0,P|147:92|117:91,1,60,6|2,1:2|0:0,0:0:0:0:
256,192,116207,12,0,118607,0:0:0:0:
