osu file format v14

[General]
AudioFilename: a.mp3
AudioLeadIn: 0
PreviewTime: 53819
Countdown: 0
SampleSet: None
StackLeniency: 0.7
Mode: 3
LetterboxInBreaks: 0
SpecialStyle: 0
WidescreenStoryboard: 1

[Editor]
DistanceSpacing: 1.2
BeatDivisor: 4
GridSize: 4
TimelineZoom: 2.1

[Metadata]
Title:Dopamine
TitleUnicode:Dopamine
Artist:U1 overground
ArtistUnicode:U1 overground
Creator:Remillion Cross
Version:Insane
Source:jubeat saucer fulfill
Tags:dubstep techno chemistry hormone eternalie another lie runamii speefay-
BeatmapID:758772
BeatmapSetID:323349

[Difficulty]
HPDrainRate:7
CircleSize:7
OverallDifficulty:7
ApproachRate:8
SliderMultiplier:1.4
SliderTickRate:1

[Events]
//Background and Video events
0,0,"BG.jpg",0,0
//Break Periods
//Storyboard Layer 0 (Background)
//Storyboard Layer 1 (Fail)
//Storyboard Layer 2 (Pass)
//Storyboard Layer 3 (Foreground)
//Storyboard Sound Samples

[TimingPoints]
1019,300,4,2,0,5,1,0
52544,-133.333333333333,4,2,0,5,0,0
53819,-100,4,2,0,5,0,1
62969,-166.666666666667,4,2,0,5,0,1
63419,-100,4,2,0,5,0,0

[HitObjects]
475,192,1019,128,0,2219:0:0:0:0:
36,192,1019,128,0,1169:0:0:0:0:
182,192,1169,128,0,1319:0:0:0:0:
109,192,1469,128,0,1619:0:0:0:0:
256,192,1619,128,0,1769:0:0:0:0:
182,192,1919,128,0,2069:0:0:0:0:
36,192,2069,128,0,2219:0:0:0:0:
329,192,2219,128,0,3419:0:0:0:0:
182,192,2369,128,0,2519:0:0:0:0:
36,192,2519,128,0,2669:0:0:0:0:
256,192,2819,128,0,2969:0:0:0:0:
109,192,2969,128,0,3119:0:0:0:0:
182,192,3119,128,0,3269:0:0:0:0:
36,192,3269,128,0,3419:0:0:0:0:
182,192,3419,128,0,4619:0:0:0:0:
475,192,3419,128,0,3569:0:0:0:0:
329,192,3569,128,0,3719:0:0:0:0:
36,192,3869,128,0,4019:0:0:0:0:
329,192,4019,128,0,4169:0:0:0:0:
475,192,4319,128,0,4469:0:0:0:0:
329,192,4469,128,0,4619:0:0:0:0:
36,192,4619,128,0,5819:0:0:0:0:
402,192,4769,128,0,4919:0:0:0:0:
256,192,4919,128,0,5069:0:0:0:0:
329,192,5219,128,0,5369:0:0:0:0:
182,192,5369,128,0,5519:0:0:0:0:
402,192,5519,128,0,5669:0:0:0:0:
256,192,5669,128,0,5819:0:0:0:0:
109,192,5819,128,0,5969:0:0:0:0:
402,192,5819,128,0,5969:0:0:0:0:
329,192,5969,128,0,6119:0:0:0:0:
182,192,5969,128,0,6119:0:0:0:0:
109,192,6269,128,0,6419:0:0:0:0:
402,192,6269,128,0,6419:0:0:0:0:
475,192,6419,128,0,6569:0:0:0:0:
36,192,6419,128,0,6569:0:0:0:0:
182,192,6719,128,0,6869:0:0:0:0:
329,192,6719,128,0,6869:0:0:0:0:
109,192,6869,128,0,7019:0:0:0:0:
402,192,6869,128,0,7019:0:0:0:0:
475,192,7169,128,0,7319:0:0:0:0:
329,192,7169,128,0,7319:0:0:0:0:
329,192,7619,128,0,7769:0:0:0:0:
475,192,7619,128,0,7769:0:0:0:0:
329,192,7919,128,0,8069:0:0:0:0:
475,192,7919,128,0,8069:0:0:0:0:
475,192,8219,128,0,8369:0:0:0:0:
329,192,8219,128,0,8369:0:0:0:0:
36,192,8669,128,0,8819:0:0:0:0:
182,192,8669,128,0,8819:0:0:0:0:
36,192,9119,128,0,9269:0:0:0:0:
182,192,9119,128,0,9269:0:0:0:0:
475,192,9419,128,0,9494:0:0:0:0:
329,192,9494,128,0,9569:0:0:0:0:
182,192,9569,128,0,9644:0:0:0:0:
36,192,9644,128,0,9719:0:0:0:0:
475,192,9719,128,0,10019:0:0:0:0:
329,192,9869,128,0,10169:0:0:0:0:
182,192,10019,128,0,10319:0:0:0:0:
36,192,10169,128,0,10469:0:0:0:0:
402,192,10169,128,0,10619:0:0:0:0:
256,192,10319,128,0,10619:0:0:0:0:
109,192,10469,128,0,10619:0:0:0:0:
475,192,10619,128,0,14069:0:0:0:0:
36,192,10619,128,0,10769:0:0:0:0:
329,192,10619,1,0,0:0:0:0:
182,192,10769,128,0,10919:0:0:0:0:
109,192,10769,1,0,0:0:0:0:
36,192,10919,1,0,0:0:0:0:
402,192,10919,1,0,0:0:0:0:
109,192,11069,128,0,11219:0:0:0:0:
329,192,11069,1,0,0:0:0:0:
256,192,11219,128,0,11369:0:0:0:0:
36,192,11219,1,0,0:0:0:0:
182,192,11219,1,0,0:0:0:0:
402,192,11369,1,0,0:0:0:0:
109,192,11519,128,0,11669:0:0:0:0:
256,192,11519,1,0,0:0:0:0:
36,192,11669,1,0,0:0:0:0:
182,192,11819,128,0,11969:0:0:0:0:
256,192,11819,1,0,0:0:0:0:
402,192,11819,1,0,0:0:0:0:
329,192,11969,128,0,12119:0:0:0:0:
36,192,11969,1,0,0:0:0:0:
109,192,12119,1,0,0:0:0:0:
256,192,12119,1,0,0:0:0:0:
36,192,12269,128,0,12419:0:0:0:0:
402,192,12269,1,0,0:0:0:0:
182,192,12419,128,0,12569:0:0:0:0:
109,192,12419,1,0,0:0:0:0:
256,192,12419,1,0,0:0:0:0:
329,192,12569,128,0,12719:0:0:0:0:
182,192,12719,128,0,12869:0:0:0:0:
36,192,12719,1,0,0:0:0:0:
402,192,12719,1,0,0:0:0:0:
36,192,12869,128,0,13019:0:0:0:0:
256,192,12869,1,0,0:0:0:0:
329,192,13019,128,0,13169:0:0:0:0:
109,192,13019,1,0,0:0:0:0:
402,192,13019,1,0,0:0:0:0:
182,192,13169,128,0,13319:0:0:0:0:
256,192,13169,1,0,0:0:0:0:
36,192,13319,128,0,13469:0:0:0:0:
109,192,13319,1,0,0:0:0:0:
402,192,13319,1,0,0:0:0:0:
182,192,13469,128,0,13619:0:0:0:0:
256,192,13469,1,0,0:0:0:0:
329,192,13619,128,0,13769:0:0:0:0:
36,192,13619,1,0,0:0:0:0:
402,192,13619,1,0,0:0:0:0:
182,192,13769,128,0,13919:0:0:0:0:
109,192,13769,1,0,0:0:0:0:
329,192,13919,128,0,14069:0:0:0:0:
36,192,13919,1,0,0:0:0:0:
402,192,13919,1,0,0:0:0:0:
182,192,14069,128,0,14219:0:0:0:0:
256,192,14069,1,0,0:0:0:0:
475,192,14219,128,0,15419:0:0:0:0:
36,192,14219,128,0,14519:0:0:0:0:
109,192,14219,1,0,0:0:0:0:
402,192,14219,1,0,0:0:0:0:
182,192,14369,128,0,14519:0:0:0:0:
256,192,14369,1,0,0:0:0:0:
256,192,14519,128,0,14669:0:0:0:0:
402,192,14519,1,0,0:0:0:0:
109,192,14519,1,0,0:0:0:0:
329,192,14669,128,0,15119:0:0:0:0:
36,192,14669,1,0,0:0:0:0:
109,192,14819,1,0,0:0:0:0:
256,192,14819,1,0,0:0:0:0:
36,192,14969,128,0,15119:0:0:0:0:
182,192,14969,1,0,0:0:0:0:
109,192,15119,128,0,15269:0:0:0:0:
256,192,15119,1,0,0:0:0:0:
182,192,15269,128,0,15419:0:0:0:0:
329,192,15269,1,0,0:0:0:0:
109,192,15419,128,0,15569:0:0:0:0:
402,192,15419,128,0,15569:0:0:0:0:
256,192,15419,1,0,0:0:0:0:
475,192,15569,128,0,15719:0:0:0:0:
36,192,15569,128,0,15719:0:0:0:0:
329,192,15569,1,0,0:0:0:0:
182,192,15719,1,0,0:0:0:0:
36,192,15869,128,0,16019:0:0:0:0:
475,192,15869,128,0,16019:0:0:0:0:
256,192,15869,1,0,0:0:0:0:
109,192,16019,128,0,16169:0:0:0:0:
402,192,16019,128,0,16169:0:0:0:0:
329,192,16019,1,0,0:0:0:0:
182,192,16169,1,0,0:0:0:0:
256,192,16319,128,0,16919:0:0:0:0:
402,192,16319,1,0,0:0:0:0:
109,192,16469,1,0,0:0:0:0:
36,192,16619,128,0,16769:0:0:0:0:
475,192,16619,128,0,16769:0:0:0:0:
329,192,16619,1,0,0:0:0:0:
109,192,16769,128,0,16919:0:0:0:0:
402,192,16769,128,0,16919:0:0:0:0:
182,192,16769,1,0,0:0:0:0:
36,192,16919,1,0,0:0:0:0:
475,192,16919,1,0,0:0:0:0:
36,192,17069,128,0,17369:0:0:0:0:
182,192,17219,128,0,17519:0:0:0:0:
329,192,17219,1,0,0:0:0:0:
329,192,17369,128,0,17519:0:0:0:0:
475,192,17519,128,0,17819:0:0:0:0:
36,192,17519,1,0,0:0:0:0:
329,192,17669,128,0,17969:0:0:0:0:
182,192,17819,128,0,18119:0:0:0:0:
36,192,17819,1,0,0:0:0:0:
475,192,17969,1,0,0:0:0:0:
402,192,18119,1,0,0:0:0:0:
109,192,18119,1,0,0:0:0:0:
182,192,18269,128,0,18419:0:0:0:0:
329,192,18269,128,0,18419:0:0:0:0:
475,192,18419,128,0,18569:0:0:0:0:
36,192,18419,128,0,18569:0:0:0:0:
256,192,18719,128,0,18869:0:0:0:0:
402,192,18719,128,0,18869:0:0:0:0:
182,192,18869,128,0,19019:0:0:0:0:
329,192,18869,128,0,19019:0:0:0:0:
36,192,19019,128,0,19119:0:0:0:0:
182,192,19119,128,0,19219:0:0:0:0:
329,192,19219,128,0,19319:0:0:0:0:
475,192,19319,128,0,19419:0:0:0:0:
36,192,19319,128,0,19419:0:0:0:0:
182,192,19419,128,0,19519:0:0:0:0:
329,192,19519,128,0,19619:0:0:0:0:
475,192,19619,128,0,19719:0:0:0:0:
36,192,19619,128,0,19819:0:0:0:0:
182,192,19719,128,0,19819:0:0:0:0:
329,192,19719,128,0,19919:0:0:0:0:
475,192,19819,128,0,19919:0:0:0:0:
109,192,19819,128,0,20019:0:0:0:0:
256,192,19919,128,0,20119:0:0:0:0:
402,192,20019,128,0,20219:0:0:0:0:
36,192,20119,128,0,20219:0:0:0:0:
475,192,20119,128,0,20219:0:0:0:0:
182,192,20219,1,0,0:0:0:0:
329,192,20219,1,0,0:0:0:0:
36,192,20369,1,0,0:0:0:0:
182,192,20444,1,0,0:0:0:0:
329,192,20519,1,0,0:0:0:0:
475,192,20519,1,0,0:0:0:0:
256,192,20594,1,0,0:0:0:0:
402,192,20594,1,0,0:0:0:0:
182,192,20669,1,0,0:0:0:0:
329,192,20669,1,0,0:0:0:0:
109,192,20744,1,0,0:0:0:0:
256,192,20744,1,0,0:0:0:0:
475,192,20819,128,0,21119:0:0:0:0:
182,192,20819,1,0,0:0:0:0:
36,192,20819,1,0,0:0:0:0:
329,192,20969,128,0,21119:0:0:0:0:
256,192,20969,1,0,0:0:0:0:
182,192,21119,128,0,21194:0:0:0:0:
109,192,21119,1,0,0:0:0:0:
402,192,21119,1,0,0:0:0:0:
36,192,21194,128,0,21269:0:0:0:0:
182,192,21269,128,0,21344:0:0:0:0:
36,192,21344,128,0,21419:0:0:0:0:
182,192,21419,128,0,21719:0:0:0:0:
329,192,21419,1,0,0:0:0:0:
475,192,21569,1,0,0:0:0:0:
402,192,21644,1,0,0:0:0:0:
329,192,21719,128,0,22019:0:0:0:0:
109,192,21719,1,0,0:0:0:0:
475,192,21719,1,0,0:0:0:0:
36,192,21794,1,0,0:0:0:0:
109,192,21869,1,0,0:0:0:0:
182,192,21944,1,0,0:0:0:0:
475,192,22019,128,0,22319:0:0:0:0:
36,192,22019,1,0,0:0:0:0:
256,192,22019,1,0,0:0:0:0:
182,192,22169,1,0,0:0:0:0:
256,192,22244,1,0,0:0:0:0:
329,192,22319,128,0,22394:0:0:0:0:
109,192,22319,1,0,0:0:0:0:
402,192,22319,1,0,0:0:0:0:
256,192,22394,128,0,22469:0:0:0:0:
182,192,22469,128,0,22544:0:0:0:0:
109,192,22544,128,0,22619:0:0:0:0:
36,192,22619,128,0,22919:0:0:0:0:
329,192,22619,1,0,0:0:0:0:
475,192,22619,1,0,0:0:0:0:
475,192,22769,1,0,0:0:0:0:
402,192,22844,1,0,0:0:0:0:
182,192,22919,128,0,22994:0:0:0:0:
329,192,22919,1,0,0:0:0:0:
475,192,22919,1,0,0:0:0:0:
329,192,22994,128,0,23069:0:0:0:0:
182,192,23069,128,0,23144:0:0:0:0:
329,192,23144,128,0,23219:0:0:0:0:
475,192,23219,128,0,23519:0:0:0:0:
182,192,23219,1,0,0:0:0:0:
36,192,23219,1,0,0:0:0:0:
329,192,23369,128,0,23519:0:0:0:0:
109,192,23369,1,0,0:0:0:0:
109,192,23519,128,0,23594:0:0:0:0:
36,192,23519,1,0,0:0:0:0:
402,192,23519,1,0,0:0:0:0:
256,192,23594,128,0,23669:0:0:0:0:
109,192,23669,128,0,23744:0:0:0:0:
256,192,23744,128,0,23819:0:0:0:0:
36,192,23819,128,0,24119:0:0:0:0:
182,192,23819,1,0,0:0:0:0:
402,192,23819,1,0,0:0:0:0:
182,192,23969,128,0,24269:0:0:0:0:
329,192,23969,1,0,0:0:0:0:
402,192,24044,1,0,0:0:0:0:
329,192,24119,128,0,24569:0:0:0:0:
475,192,24119,1,0,0:0:0:0:
109,192,24119,1,0,0:0:0:0:
256,192,24269,1,0,0:0:0:0:
475,192,24419,128,0,24719:0:0:0:0:
402,192,24419,1,0,0:0:0:0:
109,192,24419,1,0,0:0:0:0:
182,192,24569,128,0,25019:0:0:0:0:
36,192,24569,1,0,0:0:0:0:
329,192,24719,128,0,25019:0:0:0:0:
109,192,24719,1,0,0:0:0:0:
402,192,24719,1,0,0:0:0:0:
36,192,24869,128,0,25319:0:0:0:0:
475,192,24869,1,0,0:0:0:0:
402,192,25019,1,0,0:0:0:0:
109,192,25019,1,0,0:0:0:0:
402,192,25169,1,0,0:0:0:0:
256,192,25244,1,0,0:0:0:0:
475,192,25319,128,0,25394:0:0:0:0:
109,192,25319,1,0,0:0:0:0:
402,192,25319,1,0,0:0:0:0:
329,192,25394,128,0,25469:0:0:0:0:
182,192,25469,128,0,25544:0:0:0:0:
36,192,25544,128,0,25619:0:0:0:0:
329,192,25619,128,0,25919:0:0:0:0:
475,192,25619,1,0,0:0:0:0:
182,192,25769,128,0,25919:0:0:0:0:
36,192,25769,1,0,0:0:0:0:
475,192,25919,128,0,25994:0:0:0:0:
402,192,25919,1,0,0:0:0:0:
109,192,25919,1,0,0:0:0:0:
36,192,25994,128,0,26069:0:0:0:0:
475,192,26069,128,0,26144:0:0:0:0:
256,192,26069,1,0,0:0:0:0:
36,192,26144,128,0,26219:0:0:0:0:
329,192,26144,1,0,0:0:0:0:
182,192,26219,128,0,26519:0:0:0:0:
402,192,26219,1,0,0:0:0:0:
109,192,26219,1,0,0:0:0:0:
329,192,26369,128,0,26519:0:0:0:0:
475,192,26369,1,0,0:0:0:0:
402,192,26444,1,0,0:0:0:0:
36,192,26519,128,0,26819:0:0:0:0:
109,192,26519,1,0,0:0:0:0:
475,192,26519,1,0,0:0:0:0:
402,192,26594,1,0,0:0:0:0:
182,192,26669,128,0,26969:0:0:0:0:
329,192,26669,1,0,0:0:0:0:
329,192,26819,128,0,26969:0:0:0:0:
402,192,26819,1,0,0:0:0:0:
475,192,26819,1,0,0:0:0:0:
475,192,26969,128,0,27119:0:0:0:0:
36,192,26969,1,0,0:0:0:0:
109,192,27044,1,0,0:0:0:0:
329,192,27119,128,0,27194:0:0:0:0:
182,192,27119,1,0,0:0:0:0:
36,192,27119,1,0,0:0:0:0:
182,192,27194,128,0,27269:0:0:0:0:
36,192,27269,128,0,27344:0:0:0:0:
329,192,27344,128,0,27419:0:0:0:0:
182,192,27419,128,0,27719:0:0:0:0:
109,192,27419,1,0,0:0:0:0:
402,192,27419,1,0,0:0:0:0:
36,192,27569,1,0,0:0:0:0:
109,192,27644,1,0,0:0:0:0:
402,192,27719,128,0,27794:0:0:0:0:
36,192,27719,1,0,0:0:0:0:
475,192,27719,1,0,0:0:0:0:
109,192,27794,128,0,27869:0:0:0:0:
329,192,27869,128,0,27944:0:0:0:0:
182,192,27944,128,0,28019:0:0:0:0:
329,192,28019,128,0,28319:0:0:0:0:
109,192,28019,1,0,0:0:0:0:
402,192,28019,1,0,0:0:0:0:
182,192,28169,128,0,28319:0:0:0:0:
36,192,28169,1,0,0:0:0:0:
36,192,28319,128,0,28394:0:0:0:0:
109,192,28319,1,0,0:0:0:0:
475,192,28319,1,0,0:0:0:0:
256,192,28394,128,0,28469:0:0:0:0:
109,192,28469,128,0,28544:0:0:0:0:
329,192,28544,128,0,28619:0:0:0:0:
182,192,28619,128,0,28919:0:0:0:0:
36,192,28619,1,0,0:0:0:0:
475,192,28619,1,0,0:0:0:0:
329,192,28769,128,0,29219:0:0:0:0:
109,192,28769,1,0,0:0:0:0:
256,192,28844,1,0,0:0:0:0:
402,192,28919,1,0,0:0:0:0:
36,192,28919,1,0,0:0:0:0:
182,192,29069,128,0,29219:0:0:0:0:
109,192,29069,1,0,0:0:0:0:
256,192,29219,128,0,29519:0:0:0:0:
36,192,29219,1,0,0:0:0:0:
475,192,29219,1,0,0:0:0:0:
402,192,29519,128,0,29594:0:0:0:0:
109,192,29519,1,0,0:0:0:0:
109,192,29594,128,0,29669:0:0:0:0:
329,192,29594,1,0,0:0:0:0:
402,192,29669,128,0,29744:0:0:0:0:
256,192,29669,1,0,0:0:0:0:
109,192,29744,128,0,29819:0:0:0:0:
182,192,29744,1,0,0:0:0:0:
402,192,29819,1,0,0:0:0:0:
36,192,29819,128,0,29969:0:0:0:0:
256,192,29819,1,0,0:0:0:0:
182,192,29969,128,0,30119:0:0:0:0:
329,192,29969,1,0,0:0:0:0:
109,192,30119,128,0,30269:0:0:0:0:
402,192,30119,1,0,0:0:0:0:
256,192,30119,1,0,0:0:0:0:
256,192,30269,128,0,30419:0:0:0:0:
475,192,30269,1,0,0:0:0:0:
402,192,30419,1,0,0:0:0:0:
109,192,30419,1,0,0:0:0:0:
36,192,30569,128,0,30719:0:0:0:0:
329,192,30569,1,0,0:0:0:0:
182,192,30719,128,0,30869:0:0:0:0:
402,192,30719,128,0,30794:0:0:0:0:
109,192,30719,1,0,0:0:0:0:
256,192,30719,1,0,0:0:0:0:
475,192,30794,128,0,30869:0:0:0:0:
329,192,30869,128,0,30944:0:0:0:0:
36,192,30869,1,0,0:0:0:0:
402,192,30944,128,0,31019:0:0:0:0:
36,192,31019,128,0,31244:0:0:0:0:
109,192,31019,1,0,0:0:0:0:
256,192,31019,1,0,0:0:0:0:
329,192,31169,1,0,0:0:0:0:
182,192,31244,128,0,31394:0:0:0:0:
402,192,31244,1,0,0:0:0:0:
475,192,31319,1,0,0:0:0:0:
329,192,31319,1,0,0:0:0:0:
329,192,31469,128,0,31619:0:0:0:0:
36,192,31469,1,0,0:0:0:0:
475,192,31619,128,0,31769:0:0:0:0:
402,192,31619,1,0,0:0:0:0:
109,192,31619,1,0,0:0:0:0:
329,192,31769,128,0,31919:0:0:0:0:
109,192,31769,1,0,0:0:0:0:
36,192,31844,1,0,0:0:0:0:
256,192,31919,128,0,32069:0:0:0:0:
182,192,31919,1,0,0:0:0:0:
109,192,31994,1,0,0:0:0:0:
182,192,32069,128,0,32219:0:0:0:0:
36,192,32069,1,0,0:0:0:0:
402,192,32069,1,0,0:0:0:0:
329,192,32144,1,0,0:0:0:0:
256,192,32219,1,0,0:0:0:0:
109,192,32219,128,0,32444:0:0:0:0:
475,192,32219,1,0,0:0:0:0:
475,192,32369,1,0,0:0:0:0:
256,192,32444,128,0,32594:0:0:0:0:
402,192,32444,1,0,0:0:0:0:
36,192,32519,1,0,0:0:0:0:
475,192,32519,1,0,0:0:0:0:
36,192,32669,128,0,32819:0:0:0:0:
402,192,32669,1,0,0:0:0:0:
329,192,32744,1,0,0:0:0:0:
182,192,32819,128,0,32969:0:0:0:0:
109,192,32819,1,0,0:0:0:0:
256,192,32819,1,0,0:0:0:0:
475,192,32969,1,0,0:0:0:0:
329,192,33044,128,0,33194:0:0:0:0:
402,192,33119,1,0,0:0:0:0:
36,192,33119,1,0,0:0:0:0:
182,192,33194,1,0,0:0:0:0:
475,192,33269,128,0,33419:0:0:0:0:
36,192,33269,1,0,0:0:0:0:
182,192,33344,1,0,0:0:0:0:
36,192,33419,128,0,33569:0:0:0:0:
329,192,33419,1,0,0:0:0:0:
109,192,33419,1,0,0:0:0:0:
182,192,33569,128,0,33719:0:0:0:0:
475,192,33569,1,0,0:0:0:0:
402,192,33644,1,0,0:0:0:0:
36,192,33719,128,0,33869:0:0:0:0:
329,192,33719,1,0,0:0:0:0:
109,192,33719,1,0,0:0:0:0:
182,192,33869,128,0,34019:0:0:0:0:
402,192,33869,1,0,0:0:0:0:
329,192,34019,128,0,34169:0:0:0:0:
109,192,34019,1,0,0:0:0:0:
475,192,34019,1,0,0:0:0:0:
475,192,34169,128,0,34319:0:0:0:0:
36,192,34169,1,0,0:0:0:0:
109,192,34244,1,0,0:0:0:0:
329,192,34319,128,0,34469:0:0:0:0:
182,192,34319,1,0,0:0:0:0:
36,192,34319,1,0,0:0:0:0:
475,192,34469,128,0,34619:0:0:0:0:
109,192,34469,1,0,0:0:0:0:
36,192,34619,128,0,34844:0:0:0:0:
182,192,34619,1,0,0:0:0:0:
402,192,34619,1,0,0:0:0:0:
256,192,34769,1,0,0:0:0:0:
475,192,34919,128,0,35069:0:0:0:0:
329,192,34919,1,0,0:0:0:0:
182,192,34919,1,0,0:0:0:0:
256,192,35069,128,0,35219:0:0:0:0:
36,192,35069,1,0,0:0:0:0:
329,192,35219,128,0,35369:0:0:0:0:
109,192,35219,1,0,0:0:0:0:
402,192,35219,1,0,0:0:0:0:
109,192,35369,128,0,35519:0:0:0:0:
182,192,35369,1,0,0:0:0:0:
182,192,35519,128,0,35669:0:0:0:0:
402,192,35519,128,0,35594:0:0:0:0:
36,192,35519,1,0,0:0:0:0:
475,192,35519,1,0,0:0:0:0:
329,192,35594,128,0,35669:0:0:0:0:
475,192,35669,128,0,35744:0:0:0:0:
402,192,35744,128,0,35819:0:0:0:0:
36,192,35819,128,0,35969:0:0:0:0:
329,192,35819,1,0,0:0:0:0:
182,192,35819,128,0,35969:0:0:0:0:
256,192,35969,1,0,0:0:0:0:
329,192,36044,128,0,36194:0:0:0:0:
475,192,36044,128,0,36194:0:0:0:0:
36,192,36119,1,0,0:0:0:0:
182,192,36119,1,0,0:0:0:0:
475,192,36269,128,0,36419:0:0:0:0:
109,192,36269,1,0,0:0:0:0:
402,192,36419,128,0,36569:0:0:0:0:
256,192,36419,1,0,0:0:0:0:
36,192,36419,1,0,0:0:0:0:
329,192,36569,128,0,36719:0:0:0:0:
182,192,36569,1,0,0:0:0:0:
256,192,36719,128,0,36869:0:0:0:0:
475,192,36719,1,0,0:0:0:0:
109,192,36719,1,0,0:0:0:0:
402,192,36794,1,0,0:0:0:0:
182,192,36869,128,0,37019:0:0:0:0:
329,192,36869,1,0,0:0:0:0:
402,192,36944,1,0,0:0:0:0:
329,192,37019,128,0,37169:0:0:0:0:
475,192,37019,128,0,37169:0:0:0:0:
36,192,37019,1,0,0:0:0:0:
256,192,37019,1,0,0:0:0:0:
182,192,37169,1,0,0:0:0:0:
329,192,37244,128,0,37394:0:0:0:0:
475,192,37244,128,0,37394:0:0:0:0:
36,192,37319,1,0,0:0:0:0:
256,192,37319,1,0,0:0:0:0:
329,192,37469,128,0,37619:0:0:0:0:
475,192,37469,128,0,37619:0:0:0:0:
109,192,37469,1,0,0:0:0:0:
36,192,37619,128,0,37919:0:0:0:0:
182,192,37619,128,0,37919:0:0:0:0:
256,192,37619,1,0,0:0:0:0:
402,192,37769,1,0,0:0:0:0:
329,192,37919,1,0,0:0:0:0:
475,192,37919,1,0,0:0:0:0:
402,192,37994,1,0,0:0:0:0:
256,192,37994,1,0,0:0:0:0:
329,192,38069,1,0,0:0:0:0:
182,192,38069,1,0,0:0:0:0:
256,192,38144,1,0,0:0:0:0:
109,192,38144,1,0,0:0:0:0:
329,192,38219,128,0,38369:0:0:0:0:
475,192,38219,128,0,38369:0:0:0:0:
36,192,38219,1,0,0:0:0:0:
182,192,38219,1,0,0:0:0:0:
36,192,38369,1,0,0:0:0:0:
329,192,38444,128,0,38594:0:0:0:0:
475,192,38444,128,0,38594:0:0:0:0:
109,192,38444,1,0,0:0:0:0:
182,192,38519,1,0,0:0:0:0:
36,192,38519,1,0,0:0:0:0:
329,192,38669,128,0,38819:0:0:0:0:
475,192,38669,128,0,38819:0:0:0:0:
109,192,38669,1,0,0:0:0:0:
36,192,38819,128,0,38969:0:0:0:0:
182,192,38819,128,0,38969:0:0:0:0:
256,192,38819,1,0,0:0:0:0:
402,192,38894,1,0,0:0:0:0:
329,192,38969,1,0,0:0:0:0:
182,192,39044,128,0,39194:0:0:0:0:
402,192,39044,128,0,39119:0:0:0:0:
36,192,39044,128,0,39419:0:0:0:0:
256,192,39044,1,0,0:0:0:0:
329,192,39119,128,0,39194:0:0:0:0:
475,192,39119,1,0,0:0:0:0:
475,192,39194,128,0,39269:0:0:0:0:
402,192,39269,128,0,39419:0:0:0:0:
256,192,39269,1,0,0:0:0:0:
182,192,39419,1,0,0:0:0:0:
329,192,39419,1,0,0:0:0:0:
36,192,39719,1,0,0:0:0:0:
36,192,40019,1,0,0:0:0:0:
36,192,40319,1,0,0:0:0:0:
36,192,40619,1,0,0:0:0:0:
182,192,40769,1,0,0:0:0:0:
256,192,40769,1,0,0:0:0:0:
329,192,40769,1,0,0:0:0:0:
36,192,40919,1,0,0:0:0:0:
36,192,41219,1,0,0:0:0:0:
36,192,41519,1,0,0:0:0:0:
36,192,41819,1,0,0:0:0:0:
475,192,41819,1,0,0:0:0:0:
256,192,41819,1,0,0:0:0:0:
329,192,41969,1,0,0:0:0:0:
475,192,41969,1,0,0:0:0:0:
36,192,42119,1,0,0:0:0:0:
182,192,42119,1,0,0:0:0:0:
329,192,42194,1,0,0:0:0:0:
475,192,42194,1,0,0:0:0:0:
36,192,42269,1,0,0:0:0:0:
182,192,42269,1,0,0:0:0:0:
475,192,42419,1,0,0:0:0:0:
329,192,42569,1,0,0:0:0:0:
475,192,42569,1,0,0:0:0:0:
36,192,42719,1,0,0:0:0:0:
182,192,42719,1,0,0:0:0:0:
182,192,42869,1,0,0:0:0:0:
329,192,42869,1,0,0:0:0:0:
329,192,43019,1,0,0:0:0:0:
475,192,43019,1,0,0:0:0:0:
36,192,43169,1,0,0:0:0:0:
109,192,43169,1,0,0:0:0:0:
182,192,43244,1,0,0:0:0:0:
329,192,43244,1,0,0:0:0:0:
402,192,43319,1,0,0:0:0:0:
475,192,43319,1,0,0:0:0:0:
402,192,43469,1,0,0:0:0:0:
475,192,43469,1,0,0:0:0:0:
182,192,43544,1,0,0:0:0:0:
329,192,43544,1,0,0:0:0:0:
36,192,43619,1,0,0:0:0:0:
109,192,43619,1,0,0:0:0:0:
36,192,43769,1,0,0:0:0:0:
475,192,43769,1,0,0:0:0:0:
109,192,43844,1,0,0:0:0:0:
402,192,43844,1,0,0:0:0:0:
182,192,43919,128,0,43994:0:0:0:0:
329,192,43919,128,0,43994:0:0:0:0:
36,192,43919,1,0,0:0:0:0:
475,192,43919,1,0,0:0:0:0:
36,192,44069,1,0,0:0:0:0:
475,192,44069,1,0,0:0:0:0:
109,192,44144,1,0,0:0:0:0:
402,192,44144,1,0,0:0:0:0:
182,192,44219,1,0,0:0:0:0:
329,192,44219,1,0,0:0:0:0:
256,192,44219,128,0,44519:0:0:0:0:
402,192,44369,1,0,0:0:0:0:
36,192,44519,128,0,44669:0:0:0:0:
329,192,44519,1,0,0:0:0:0:
109,192,44519,1,0,0:0:0:0:
182,192,44669,128,0,44819:0:0:0:0:
475,192,44669,1,0,0:0:0:0:
402,192,44744,1,0,0:0:0:0:
329,192,44819,128,0,44969:0:0:0:0:
36,192,44819,1,0,0:0:0:0:
475,192,44819,1,0,0:0:0:0:
109,192,44969,1,0,0:0:0:0:
475,192,45119,128,0,45419:0:0:0:0:
36,192,45119,1,0,0:0:0:0:
256,192,45119,1,0,0:0:0:0:
109,192,45269,1,0,0:0:0:0:
182,192,45419,1,0,0:0:0:0:
329,192,45419,1,0,0:0:0:0:
36,192,45569,1,0,0:0:0:0:
109,192,45644,1,0,0:0:0:0:
182,192,45719,128,0,45869:0:0:0:0:
36,192,45719,1,0,0:0:0:0:
329,192,45719,1,0,0:0:0:0:
329,192,45869,128,0,46019:0:0:0:0:
109,192,45869,1,0,0:0:0:0:
36,192,46019,128,0,46169:0:0:0:0:
182,192,46019,1,0,0:0:0:0:
475,192,46019,1,0,0:0:0:0:
182,192,46169,128,0,46319:0:0:0:0:
402,192,46169,1,0,0:0:0:0:
329,192,46319,128,0,46619:0:0:0:0:
36,192,46319,1,0,0:0:0:0:
475,192,46319,1,0,0:0:0:0:
109,192,46469,1,0,0:0:0:0:
475,192,46619,128,0,46919:0:0:0:0:
36,192,46619,1,0,0:0:0:0:
182,192,46619,1,0,0:0:0:0:
109,192,46769,1,0,0:0:0:0:
329,192,46919,128,0,47069:0:0:0:0:
36,192,46919,1,0,0:0:0:0:
182,192,46919,1,0,0:0:0:0:
182,192,47069,128,0,47219:0:0:0:0:
475,192,47069,1,0,0:0:0:0:
402,192,47144,1,0,0:0:0:0:
36,192,47219,128,0,47369:0:0:0:0:
329,192,47219,1,0,0:0:0:0:
109,192,47219,1,0,0:0:0:0:
256,192,47369,1,0,0:0:0:0:
182,192,47519,128,0,47819:0:0:0:0:
329,192,47519,1,0,0:0:0:0:
475,192,47519,1,0,0:0:0:0:
402,192,47669,1,0,0:0:0:0:
36,192,47819,128,0,49019:0:0:0:0:
109,192,47819,1,0,0:0:0:0:
329,192,47819,1,0,0:0:0:0:
256,192,47969,1,0,0:0:0:0:
475,192,48119,128,0,48419:0:0:0:0:
109,192,48119,1,0,0:0:0:0:
329,192,48119,1,0,0:0:0:0:
182,192,48269,1,0,0:0:0:0:
329,192,48419,128,0,48719:0:0:0:0:
109,192,48419,1,0,0:0:0:0:
256,192,48419,1,0,0:0:0:0:
402,192,48569,1,0,0:0:0:0:
182,192,48719,128,0,49019:0:0:0:0:
256,192,48719,1,0,0:0:0:0:
475,192,48719,1,0,0:0:0:0:
402,192,48869,1,0,0:0:0:0:
256,192,49019,128,0,50219:0:0:0:0:
402,192,49019,128,0,49319:0:0:0:0:
109,192,49019,1,0,0:0:0:0:
329,192,49019,1,0,0:0:0:0:
36,192,49169,1,0,0:0:0:0:
109,192,49319,128,0,49469:0:0:0:0:
182,192,49319,1,0,0:0:0:0:
475,192,49319,1,0,0:0:0:0:
402,192,49469,128,0,49619:0:0:0:0:
329,192,49469,1,0,0:0:0:0:
109,192,49619,128,0,49769:0:0:0:0:
36,192,49619,1,0,0:0:0:0:
182,192,49619,1,0,0:0:0:0:
329,192,49769,1,0,0:0:0:0:
402,192,49919,128,0,50219:0:0:0:0:
36,192,49919,1,0,0:0:0:0:
475,192,49919,1,0,0:0:0:0:
109,192,50069,1,0,0:0:0:0:
475,192,50219,128,0,52544:0:0:0:0:
36,192,50219,1,0,0:0:0:0:
182,192,50219,1,0,0:0:0:0:
109,192,50369,1,0,0:0:0:0:
182,192,50444,1,0,0:0:0:0:
36,192,50519,128,0,50819:0:0:0:0:
256,192,50519,1,0,0:0:0:0:
402,192,50519,1,0,0:0:0:0:
329,192,50669,1,0,0:0:0:0:
182,192,50819,128,0,51119:0:0:0:0:
109,192,50819,1,0,0:0:0:0:
256,192,50819,1,0,0:0:0:0:
402,192,50969,1,0,0:0:0:0:
329,192,51119,128,0,51419:0:0:0:0:
36,192,51119,1,0,0:0:0:0:
256,192,51119,1,0,0:0:0:0:
109,192,51269,1,0,0:0:0:0:
36,192,51419,128,0,52544:0:0:0:0:
182,192,51419,128,0,51719:0:0:0:0:
402,192,51419,1,0,0:0:0:0:
256,192,51569,1,0,0:0:0:0:
402,192,51719,128,0,51869:0:0:0:0:
329,192,51719,1,0,0:0:0:0:
109,192,51719,1,0,0:0:0:0:
109,192,51869,128,0,52019:0:0:0:0:
256,192,51869,1,0,0:0:0:0:
402,192,52019,128,0,52169:0:0:0:0:
182,192,52019,1,0,0:0:0:0:
329,192,52019,1,0,0:0:0:0:
109,192,52169,1,0,0:0:0:0:
256,192,52244,1,0,0:0:0:0:
182,192,52319,128,0,52544:0:0:0:0:
329,192,52319,128,0,52544:0:0:0:0:
402,192,52319,1,0,0:0:0:0:
109,192,52319,1,0,0:0:0:0:
36,192,53819,128,0,53969:0:0:0:0:
109,192,53819,1,0,0:0:0:0:
256,192,53819,1,0,0:0:0:0:
402,192,53819,1,0,0:0:0:0:
475,192,53969,128,0,54119:0:0:0:0:
109,192,54044,1,0,0:0:0:0:
36,192,54119,1,0,0:0:0:0:
182,192,54119,1,0,0:0:0:0:
109,192,54194,1,0,0:0:0:0:
256,192,54194,1,0,0:0:0:0:
182,192,54269,1,0,0:0:0:0:
329,192,54269,1,0,0:0:0:0:
256,192,54344,1,0,0:0:0:0:
402,192,54344,1,0,0:0:0:0:
36,192,54419,128,0,54569:0:0:0:0:
329,192,54419,1,0,0:0:0:0:
475,192,54419,1,0,0:0:0:0:
256,192,54569,128,0,54719:0:0:0:0:
109,192,54569,1,0,0:0:0:0:
109,192,54719,128,0,54869:0:0:0:0:
475,192,54719,128,0,55019:0:0:0:0:
329,192,54719,1,0,0:0:0:0:
329,192,54869,128,0,55019:0:0:0:0:
182,192,54869,1,0,0:0:0:0:
182,192,55019,128,0,55169:0:0:0:0:
36,192,55019,128,0,55319:0:0:0:0:
402,192,55019,1,0,0:0:0:0:
256,192,55169,1,0,0:0:0:0:
182,192,55319,128,0,55919:0:0:0:0:
329,192,55319,1,0,0:0:0:0:
329,192,55619,128,0,55919:0:0:0:0:
36,192,55619,1,0,0:0:0:0:
475,192,55619,1,0,0:0:0:0:
475,192,55919,1,0,0:0:0:0:
36,192,55919,1,0,0:0:0:0:
109,192,56019,1,0,0:0:0:0:
402,192,56019,1,0,0:0:0:0:
182,192,56119,1,0,0:0:0:0:
329,192,56119,1,0,0:0:0:0:
475,192,56219,128,0,56519:0:0:0:0:
36,192,56219,1,0,0:0:0:0:
402,192,56219,1,0,0:0:0:0:
256,192,56319,128,0,56619:0:0:0:0:
36,192,56419,128,0,56719:0:0:0:0:
475,192,56619,128,0,56919:0:0:0:0:
256,192,56719,128,0,57019:0:0:0:0:
36,192,56819,128,0,57119:0:0:0:0:
109,192,56819,1,0,0:0:0:0:
402,192,56819,1,0,0:0:0:0:
475,192,57019,128,0,57419:0:0:0:0:
256,192,57119,128,0,57419:0:0:0:0:
36,192,57219,128,0,57419:0:0:0:0:
109,192,57419,1,0,0:0:0:0:
402,192,57419,1,0,0:0:0:0:
182,192,57419,128,0,57644:0:0:0:0:
329,192,57419,128,0,57644:0:0:0:0:
109,192,57719,1,0,0:0:0:0:
402,192,57719,1,0,0:0:0:0:
182,192,57794,1,0,0:0:0:0:
329,192,57794,1,0,0:0:0:0:
402,192,57869,1,0,0:0:0:0:
109,192,57869,1,0,0:0:0:0:
329,192,57944,1,0,0:0:0:0:
182,192,57944,1,0,0:0:0:0:
475,192,58019,128,0,58319:0:0:0:0:
36,192,58019,128,0,58319:0:0:0:0:
109,192,58019,1,0,0:0:0:0:
402,192,58019,1,0,0:0:0:0:
256,192,58169,1,0,0:0:0:0:
182,192,58319,128,0,58394:0:0:0:0:
329,192,58319,128,0,58394:0:0:0:0:
329,192,58469,128,0,58544:0:0:0:0:
182,192,58469,128,0,58544:0:0:0:0:
329,192,58619,128,0,58769:0:0:0:0:
182,192,58619,128,0,58769:0:0:0:0:
36,192,58619,1,0,0:0:0:0:
475,192,58619,1,0,0:0:0:0:
36,192,58769,128,0,58919:0:0:0:0:
475,192,58769,128,0,58919:0:0:0:0:
256,192,58844,1,0,0:0:0:0:
329,192,58919,128,0,58994:0:0:0:0:
182,192,58994,128,0,59069:0:0:0:0:
329,192,59069,128,0,59144:0:0:0:0:
182,192,59144,128,0,59219:0:0:0:0:
36,192,59219,128,0,59369:0:0:0:0:
475,192,59219,128,0,59369:0:0:0:0:
109,192,59219,1,0,0:0:0:0:
402,192,59219,1,0,0:0:0:0:
329,192,59369,128,0,59519:0:0:0:0:
182,192,59369,128,0,59519:0:0:0:0:
475,192,59519,128,0,59594:0:0:0:0:
36,192,59519,128,0,59594:0:0:0:0:
109,192,59594,128,0,59669:0:0:0:0:
402,192,59594,128,0,59669:0:0:0:0:
256,192,59669,128,0,59819:0:0:0:0:
329,192,59819,128,0,59969:0:0:0:0:
475,192,59819,128,0,59969:0:0:0:0:
109,192,59819,1,0,0:0:0:0:
182,192,59969,128,0,60119:0:0:0:0:
36,192,59969,128,0,60119:0:0:0:0:
256,192,60119,128,0,60194:0:0:0:0:
402,192,60119,1,0,0:0:0:0:
329,192,60194,128,0,60269:0:0:0:0:
402,192,60269,128,0,60344:0:0:0:0:
109,192,60269,1,0,0:0:0:0:
475,192,60344,128,0,60419:0:0:0:0:
329,192,60419,128,0,60719:0:0:0:0:
182,192,60419,1,0,0:0:0:0:
36,192,60419,1,0,0:0:0:0:
182,192,60569,128,0,60869:0:0:0:0:
475,192,60719,128,0,60794:0:0:0:0:
329,192,60794,128,0,60869:0:0:0:0:
36,192,60869,128,0,60944:0:0:0:0:
182,192,60944,128,0,61019:0:0:0:0:
329,192,61019,128,0,61319:0:0:0:0:
109,192,61019,1,0,0:0:0:0:
402,192,61019,1,0,0:0:0:0:
256,192,61169,128,0,61469:0:0:0:0:
109,192,61244,1,0,0:0:0:0:
182,192,61319,128,0,61619:0:0:0:0:
329,192,61469,128,0,61769:0:0:0:0:
256,192,61619,128,0,61919:0:0:0:0:
36,192,61619,1,0,0:0:0:0:
475,192,61619,1,0,0:0:0:0:
182,192,61769,128,0,62069:0:0:0:0:
329,192,61919,128,0,62219:0:0:0:0:
256,192,62069,128,0,62219:0:0:0:0:
402,192,62219,1,0,0:0:0:0:
109,192,62219,1,0,0:0:0:0:
182,192,62219,1,0,0:0:0:0:
475,192,62519,128,0,62594:0:0:0:0:
182,192,62519,1,0,0:0:0:0:
329,192,62519,1,0,0:0:0:0:
36,192,62594,128,0,62669:0:0:0:0:
402,192,62669,128,0,62744:0:0:0:0:
256,192,62669,1,0,0:0:0:0:
109,192,62744,128,0,62819:0:0:0:0:
182,192,62819,128,0,63419:0:0:0:0:
329,192,62819,128,0,63419:0:0:0:0:
36,192,62819,1,0,0:0:0:0:
475,192,62819,1,0,0:0:0:0:
109,192,62969,1,0,0:0:0:0:
402,192,62969,1,0,0:0:0:0:
36,192,63419,1,0,0:0:0:0:
475,192,63419,1,0,0:0:0:0:
256,192,63569,1,0,0:0:0:0:
109,192,63719,128,0,63794:0:0:0:0:
475,192,63719,1,0,0:0:0:0:
36,192,63719,1,0,0:0:0:0:
402,192,63794,128,0,63869:0:0:0:0:
329,192,63794,1,0,0:0:0:0:
109,192,63869,128,0,63944:0:0:0:0:
256,192,63869,1,0,0:0:0:0:
402,192,63944,128,0,64019:0:0:0:0:
182,192,63944,1,0,0:0:0:0:
329,192,64019,128,0,64319:0:0:0:0:
36,192,64019,1,0,0:0:0:0:
475,192,64019,1,0,0:0:0:0:
182,192,64169,128,0,64619:0:0:0:0:
109,192,64169,1,0,0:0:0:0:
256,192,64244,1,0,0:0:0:0:
402,192,64319,1,0,0:0:0:0:
329,192,64469,128,0,64619:0:0:0:0:
475,192,64469,1,0,0:0:0:0:
36,192,64619,128,0,65219:0:0:0:0:
402,192,64619,1,0,0:0:0:0:
109,192,64619,1,0,0:0:0:0:
182,192,64769,128,0,65069:0:0:0:0:
329,192,64769,1,0,0:0:0:0:
475,192,64919,1,0,0:0:0:0:
402,192,65069,1,0,0:0:0:0:
182,192,65219,128,0,65519:0:0:0:0:
329,192,65219,1,0,0:0:0:0:
329,192,65369,128,0,65519:0:0:0:0:
475,192,65519,1,0,0:0:0:0:
402,192,65594,1,0,0:0:0:0:
329,192,65669,1,0,0:0:0:0:
256,192,65744,1,0,0:0:0:0:
36,192,65819,128,0,66019:0:0:0:0:
182,192,65819,1,0,0:0:0:0:
329,192,65819,1,0,0:0:0:0:
475,192,65919,128,0,66119:0:0:0:0:
182,192,66019,128,0,66219:0:0:0:0:
329,192,66119,128,0,66319:0:0:0:0:
109,192,66119,1,0,0:0:0:0:
402,192,66119,1,0,0:0:0:0:
36,192,66219,128,0,66419:0:0:0:0:
475,192,66319,128,0,66519:0:0:0:0:
182,192,66419,128,0,66619:0:0:0:0:
402,192,66419,1,0,0:0:0:0:
109,192,66419,1,0,0:0:0:0:
329,192,66519,128,0,66719:0:0:0:0:
36,192,66619,128,0,66819:0:0:0:0:
475,192,66719,128,0,66919:0:0:0:0:
109,192,66719,1,0,0:0:0:0:
402,192,66719,1,0,0:0:0:0:
182,192,66819,128,0,67019:0:0:0:0:
329,192,66919,128,0,67019:0:0:0:0:
109,192,67019,128,0,67319:0:0:0:0:
402,192,67019,128,0,67319:0:0:0:0:
475,192,67019,1,0,0:0:0:0:
36,192,67019,1,0,0:0:0:0:
256,192,67169,1,0,0:0:0:0:
256,192,67319,128,0,67469:0:0:0:0:
36,192,67319,1,0,0:0:0:0:
475,192,67319,1,0,0:0:0:0:
36,192,67469,1,0,0:0:0:0:
109,192,67544,1,0,0:0:0:0:
329,192,67619,128,0,67919:0:0:0:0:
182,192,67619,1,0,0:0:0:0:
475,192,67619,1,0,0:0:0:0:
475,192,67919,128,0,68219:0:0:0:0:
36,192,67919,1,0,0:0:0:0:
182,192,67919,1,0,0:0:0:0:
329,192,68069,128,0,68219:0:0:0:0:
109,192,68069,1,0,0:0:0:0:
36,192,68219,128,0,68369:0:0:0:0:
182,192,68219,1,0,0:0:0:0:
256,192,68369,128,0,68519:0:0:0:0:
402,192,68369,1,0,0:0:0:0:
109,192,68519,128,0,68669:0:0:0:0:
475,192,68519,1,0,0:0:0:0:
329,192,68669,128,0,68819:0:0:0:0:
182,192,68669,1,0,0:0:0:0:
182,192,68819,128,0,68969:0:0:0:0:
402,192,68819,1,0,0:0:0:0:
402,192,68969,128,0,69119:0:0:0:0:
36,192,68969,1,0,0:0:0:0:
256,192,69119,128,0,69269:0:0:0:0:
109,192,69119,1,0,0:0:0:0:
475,192,69269,128,0,69419:0:0:0:0:
36,192,69269,128,0,69419:0:0:0:0:
329,192,69269,1,0,0:0:0:0:
182,192,69419,128,0,69719:0:0:0:0:
402,192,69419,1,0,0:0:0:0:
109,192,69419,1,0,0:0:0:0:
329,192,69569,128,0,69719:0:0:0:0:
475,192,69569,1,0,0:0:0:0:
36,192,69719,128,0,69794:0:0:0:0:
402,192,69719,1,0,0:0:0:0:
256,192,69794,128,0,69869:0:0:0:0:
109,192,69869,128,0,69944:0:0:0:0:
329,192,69944,128,0,70019:0:0:0:0:
182,192,70019,128,0,70319:0:0:0:0:
36,192,70019,128,0,70319:0:0:0:0:
475,192,70019,1,0,0:0:0:0:
402,192,70169,1,0,0:0:0:0:
329,192,70244,1,0,0:0:0:0:
256,192,70319,1,0,0:0:0:0:
475,192,70319,1,0,0:0:0:0:
402,192,70394,1,0,0:0:0:0:
329,192,70469,1,0,0:0:0:0:
256,192,70544,1,0,0:0:0:0:
329,192,70619,128,0,70919:0:0:0:0:
475,192,70619,128,0,70919:0:0:0:0:
182,192,70619,1,0,0:0:0:0:
36,192,70919,128,0,71069:0:3:0:0:
182,192,70919,128,0,71069:0:3:0:0:
256,192,70919,1,0,0:0:0:0:
329,192,71069,128,0,71219:0:3:0:0:
475,192,71069,128,0,71219:0:3:0:0:
36,192,71219,128,0,71519:0:0:0:0:
256,192,71219,1,0,0:0:0:0:
182,192,71319,128,0,71519:0:0:0:0:
475,192,71369,1,0,0:0:0:0:
402,192,71444,1,0,0:0:0:0:
475,192,71519,128,0,71819:0:0:0:0:
329,192,71519,128,0,71719:0:0:0:0:
256,192,71519,1,0,0:0:0:0:
36,192,71669,1,0,0:0:0:0:
109,192,71744,1,0,0:0:0:0:
36,192,71819,128,0,73019:0:0:0:0:
182,192,71819,128,0,71894:0:0:0:0:
329,192,71819,128,0,71894:0:0:0:0:
256,192,71819,1,0,0:0:0:0:
256,192,71969,1,0,0:0:0:0:
182,192,72119,1,0,0:0:0:0:
329,192,72119,1,0,0:0:0:0:
475,192,72119,128,0,73019:0:0:0:0:
182,192,72419,128,0,72494:0:0:0:0:
329,192,72419,128,0,72494:0:0:0:0:
256,192,72419,1,0,0:0:0:0:
402,192,72569,1,0,0:0:0:0:
182,192,72719,128,0,72794:0:0:0:0:
329,192,72719,128,0,72794:0:0:0:0:
256,192,72719,1,0,0:0:0:0:
109,192,72869,1,0,0:0:0:0:
182,192,73019,1,0,0:0:0:0:
329,192,73019,1,0,0:0:0:0:
256,192,73169,1,0,0:0:0:0:
36,192,73319,1,0,0:0:0:0:
182,192,73319,1,0,0:0:0:0:
256,192,73469,1,0,0:0:0:0:
329,192,73619,1,0,0:0:0:0:
475,192,73619,1,0,0:0:0:0:
256,192,73769,1,0,0:0:0:0:
475,192,73919,128,0,74069:0:0:0:0:
36,192,73919,1,0,0:0:0:0:
182,192,73919,1,0,0:0:0:0:
329,192,74069,128,0,74219:0:0:0:0:
109,192,74069,1,0,0:0:0:0:
36,192,74219,1,0,0:0:0:0:
256,192,74219,1,0,0:0:0:0:
109,192,74369,1,0,0:0:0:0:
329,192,74519,128,0,74669:0:0:0:0:
36,192,74519,1,0,0:0:0:0:
182,192,74519,1,0,0:0:0:0:
182,192,74669,128,0,74819:0:0:0:0:
475,192,74669,1,0,0:0:0:0:
256,192,74819,1,0,0:0:0:0:
402,192,74819,1,0,0:0:0:0:
329,192,74969,1,0,0:0:0:0:
182,192,75119,1,0,0:0:0:0:
402,192,75119,1,0,0:0:0:0:
256,192,75269,1,0,0:0:0:0:
36,192,75419,128,0,75719:0:0:0:0:
109,192,75419,1,0,0:0:0:0:
329,192,75419,1,0,0:0:0:0:
182,192,75569,1,0,0:0:0:0:
329,192,75719,1,0,0:0:0:0:
475,192,75719,1,0,0:0:0:0:
256,192,75794,1,0,0:0:0:0:
402,192,75794,1,0,0:0:0:0:
329,192,75869,1,0,0:0:0:0:
182,192,75869,1,0,0:0:0:0:
256,192,75944,1,0,0:0:0:0:
109,192,75944,1,0,0:0:0:0:
36,192,76019,128,0,76619:0:0:0:0:
182,192,76019,1,0,0:0:0:0:
329,192,76019,1,0,0:0:0:0:
475,192,76169,128,0,76619:0:0:0:0:
402,192,76169,1,0,0:0:0:0:
109,192,76169,1,0,0:0:0:0:
182,192,76244,1,0,0:0:0:0:
329,192,76244,1,0,0:0:0:0:
256,192,76319,1,0,0:0:0:0:
329,192,76619,128,0,76919:0:0:0:0:
402,192,76619,1,0,0:0:0:0:
109,192,76619,1,0,0:0:0:0:
36,192,76769,1,0,0:0:0:0:
109,192,76844,1,0,0:0:0:0:
182,192,76919,128,0,77219:0:0:0:0:
475,192,76994,1,0,0:0:0:0:
402,192,77069,1,0,0:0:0:0:
329,192,77219,128,0,77519:0:0:0:0:
36,192,77219,1,0,0:0:0:0:
475,192,77219,1,0,0:0:0:0:
109,192,77369,1,0,0:0:0:0:
182,192,77519,128,0,77819:0:0:0:0:
36,192,77519,1,0,0:0:0:0:
475,192,77519,1,0,0:0:0:0:
329,192,77669,1,0,0:0:0:0:
402,192,77819,128,0,77969:0:0:0:0:
109,192,77819,128,0,77969:0:0:0:0:
36,192,77819,1,0,0:0:0:0:
475,192,77819,1,0,0:0:0:0:
329,192,78119,128,0,78219:0:0:0:0:
475,192,78119,128,0,78219:0:0:0:0:
182,192,78119,1,0,0:0:0:0:
402,192,78219,128,0,78319:0:0:0:0:
256,192,78219,128,0,78319:0:0:0:0:
329,192,78319,128,0,78419:0:0:0:0:
182,192,78319,128,0,78419:0:0:0:0:
36,192,78419,128,0,78569:0:0:0:0:
109,192,78419,1,0,0:0:0:0:
475,192,78419,1,0,0:0:0:0:
182,192,78569,128,0,78719:0:0:0:0:
256,192,78569,1,0,0:0:0:0:
402,192,78569,1,0,0:0:0:0:
329,192,78719,128,0,78869:0:0:0:0:
475,192,78719,128,0,78869:0:0:0:0:
256,192,78869,128,0,79019:0:0:0:0:
109,192,78869,128,0,79019:0:0:0:0:
475,192,79019,128,0,79619:0:0:0:0:
36,192,79019,1,0,0:0:0:0:
402,192,79019,1,0,0:0:0:0:
329,192,79169,128,0,79619:0:0:0:0:
182,192,79169,1,0,0:0:0:0:
182,192,79319,128,0,79619:0:0:0:0:
36,192,79319,1,0,0:0:0:0:
36,192,79469,128,0,79619:0:0:0:0:
256,192,79469,1,0,0:0:0:0:
402,192,79619,1,0,0:0:0:0:
109,192,79619,1,0,0:0:0:0:
475,192,79769,128,0,79844:0:0:0:0:
402,192,79844,128,0,79919:0:0:0:0:
329,192,79919,128,0,79994:0:0:0:0:
256,192,79994,128,0,80069:0:0:0:0:
182,192,80069,128,0,80219:0:0:0:0:
36,192,80069,128,0,80219:0:0:0:0:
475,192,80219,128,0,80519:0:0:0:0:
402,192,80219,1,0,0:0:0:0:
256,192,80219,1,0,0:0:0:0:
109,192,80369,1,0,0:0:0:0:
329,192,80519,128,0,80669:0:0:0:0:
36,192,80519,1,0,0:0:0:0:
182,192,80519,1,0,0:0:0:0:
182,192,80669,128,0,80819:0:0:0:0:
475,192,80669,1,0,0:0:0:0:
36,192,80819,128,0,80969:0:0:0:0:
256,192,80819,1,0,0:0:0:0:
402,192,80819,1,0,0:0:0:0:
182,192,80969,128,0,81119:0:0:0:0:
475,192,80969,1,0,0:0:0:0:
329,192,81119,128,0,81269:0:0:0:0:
109,192,81119,1,0,0:0:0:0:
402,192,81119,1,0,0:0:0:0:
475,192,81269,128,0,81419:0:0:0:0:
256,192,81269,1,0,0:0:0:0:
36,192,81419,128,0,81719:0:0:0:0:
109,192,81419,1,0,0:0:0:0:
402,192,81419,1,0,0:0:0:0:
182,192,81569,128,0,81869:0:0:0:0:
256,192,81569,1,0,0:0:0:0:
329,192,81719,128,0,82019:0:0:0:0:
402,192,81719,1,0,0:0:0:0:
475,192,81869,128,0,82169:0:0:0:0:
36,192,81869,128,0,82169:0:0:0:0:
109,192,81869,1,0,0:0:0:0:
182,192,82019,128,0,82319:0:0:0:0:
256,192,82019,1,0,0:0:0:0:
329,192,82169,128,0,82469:0:0:0:0:
402,192,82169,1,0,0:0:0:0:
475,192,82319,128,0,82619:0:0:0:0:
36,192,82319,1,0,0:0:0:0:
36,192,82469,128,0,82619:0:0:0:0:
182,192,82469,1,0,0:0:0:0:
182,192,82619,128,0,82919:0:0:0:0:
329,192,82619,1,0,0:0:0:0:
402,192,82769,1,0,0:0:0:0:
475,192,82919,128,0,82994:0:0:0:0:
36,192,82919,1,0,0:0:0:0:
256,192,82919,1,0,0:0:0:0:
329,192,82994,128,0,83069:0:0:0:0:
402,192,83069,128,0,83144:0:0:0:0:
256,192,83144,128,0,83219:0:0:0:0:
36,192,83219,128,0,83519:0:0:0:0:
109,192,83219,1,0,0:0:0:0:
475,192,83219,1,0,0:0:0:0:
182,192,83369,1,0,0:0:0:0:
182,192,83519,128,0,83819:0:0:0:0:
256,192,83519,1,0,0:0:0:0:
36,192,83669,128,0,83819:0:0:0:0:
329,192,83819,128,0,83894:0:0:0:0:
475,192,83819,128,0,83894:0:0:0:0:
256,192,83819,1,0,0:0:0:0:
36,192,84119,128,0,84419:0:0:0:0:
109,192,84119,128,0,84419:0:0:0:0:
256,192,84119,1,0,0:0:0:0:
402,192,84419,128,0,84719:0:0:0:0:
475,192,84419,128,0,84719:0:0:0:0:
182,192,84419,1,0,0:0:0:0:
329,192,84419,1,0,0:0:0:0:
256,192,84569,1,0,0:0:0:0:
109,192,84719,1,0,0:0:0:0:
36,192,84719,1,0,0:0:0:0:
182,192,84794,1,0,0:0:0:0:
256,192,84869,1,0,0:0:0:0:
329,192,84944,1,0,0:0:0:0:
36,192,85019,128,0,85319:0:0:0:0:
109,192,85019,128,0,85319:0:0:0:0:
402,192,85019,1,0,0:0:0:0:
475,192,85019,1,0,0:0:0:0:
475,192,85319,1,0,0:0:0:0:
329,192,85319,1,0,0:0:0:0:
402,192,85394,1,0,0:0:0:0:
256,192,85394,1,0,0:0:0:0:
329,192,85469,1,0,0:0:0:0:
182,192,85469,1,0,0:0:0:0:
256,192,85544,1,0,0:0:0:0:
109,192,85544,1,0,0:0:0:0:
475,192,85619,128,0,85919:0:0:0:0:
182,192,85619,1,0,0:0:0:0:
36,192,85619,1,0,0:0:0:0:
329,192,85919,128,0,86069:0:0:0:0:
256,192,85919,128,0,86069:0:0:0:0:
402,192,85919,1,0,0:0:0:0:
109,192,86069,128,0,86219:0:0:0:0:
36,192,86069,128,0,86219:0:0:0:0:
182,192,86069,1,0,0:0:0:0:
329,192,86219,128,0,86294:0:0:0:0:
475,192,86219,128,0,86294:0:0:0:0:
329,192,86369,128,0,86444:0:0:0:0:
182,192,86369,128,0,86444:0:0:0:0:
182,192,86519,128,0,86819:0:0:0:0:
36,192,86519,128,0,86819:0:0:0:0:
402,192,86819,128,0,87419:0:0:0:0:
256,192,86819,128,0,86969:0:0:0:0:
182,192,86969,128,0,87119:0:0:0:0:
109,192,87119,128,0,87269:0:0:0:0:
36,192,87269,128,0,87419:0:0:0:0:
475,192,87419,128,0,90869:0:0:0:0:
182,192,87419,1,0,0:0:0:0:
329,192,87419,1,0,0:0:0:0:
36,192,87644,1,0,0:0:0:0:
182,192,87644,1,0,0:0:0:0:
329,192,87719,128,0,87869:0:0:0:0:
182,192,87869,128,0,88019:0:0:0:0:
36,192,88019,128,0,88169:0:0:0:0:
256,192,88019,1,0,0:0:0:0:
402,192,88019,1,0,0:0:0:0:
182,192,88169,128,0,88319:0:0:0:0:
329,192,88319,128,0,88544:0:0:0:0:
182,192,88619,1,0,0:0:0:0:
329,192,88619,1,0,0:0:0:0:
36,192,88919,1,0,0:0:0:0:
182,192,88919,1,0,0:0:0:0:
36,192,89219,128,0,89369:0:0:0:0:
256,192,89219,1,0,0:0:0:0:
402,192,89219,1,0,0:0:0:0:
182,192,89369,128,0,89519:0:0:0:0:
329,192,89519,128,0,89819:0:0:0:0:
109,192,89519,1,0,0:0:0:0:
256,192,89519,1,0,0:0:0:0:
36,192,89819,1,0,0:0:0:0:
182,192,89819,1,0,0:0:0:0:
182,192,90044,1,0,0:0:0:0:
329,192,90044,1,0,0:0:0:0:
36,192,90119,128,0,90269:0:0:0:0:
182,192,90269,128,0,90419:0:0:0:0:
329,192,90419,128,0,90569:0:0:0:0:
36,192,90419,1,0,0:0:0:0:
402,192,90419,1,0,0:0:0:0:
182,192,90719,1,0,0:0:0:0:
329,192,90719,1,0,0:0:0:0:
329,192,90869,128,0,91019:0:0:0:0:
182,192,90869,128,0,91319:0:0:0:0:
36,192,91019,1,0,0:0:0:0:
475,192,91019,1,0,0:0:0:0:
36,192,91169,128,0,91319:0:0:0:0:
329,192,91319,128,0,92219:0:0:0:0:
256,192,91319,1,0,0:0:0:0:
475,192,91319,1,0,0:0:0:0:
109,192,91469,1,0,0:0:0:0:
36,192,91619,1,0,0:0:0:0:
182,192,91619,1,0,0:0:0:0:
109,192,91769,1,0,0:0:0:0:
36,192,91919,1,0,0:0:0:0:
256,192,91919,1,0,0:0:0:0:
182,192,92069,128,0,92219:0:0:0:0:
109,192,92069,1,0,0:0:0:0:
475,192,92219,128,0,94619:0:0:0:0:
36,192,92219,128,0,92444:0:0:0:0:
256,192,92219,1,0,0:0:0:0:
402,192,92219,1,0,0:0:0:0:
182,192,92444,128,0,92669:0:0:0:0:
256,192,92444,1,0,0:0:0:0:
402,192,92444,1,0,0:0:0:0:
402,192,92669,128,0,92819:0:0:0:0:
256,192,92819,128,0,92969:0:0:0:0:
36,192,92819,1,0,0:0:0:0:
182,192,92819,1,0,0:0:0:0:
36,192,93119,128,0,93269:0:0:0:0:
256,192,93119,1,0,0:0:0:0:
402,192,93119,1,0,0:0:0:0:
182,192,93269,128,0,93419:0:0:0:0:
329,192,93269,1,0,0:0:0:0:
329,192,93419,128,0,93644:0:0:0:0:
36,192,93419,1,0,0:0:0:0:
402,192,93419,1,0,0:0:0:0:
182,192,93644,128,0,93869:0:0:0:0:
36,192,93719,1,0,0:0:0:0:
402,192,93719,1,0,0:0:0:0:
36,192,93869,128,0,94019:0:0:0:0:
329,192,94019,128,0,94319:0:0:0:0:
109,192,94019,1,0,0:0:0:0:
256,192,94019,1,0,0:0:0:0:
36,192,94169,128,0,94244:0:0:0:0:
109,192,94244,128,0,94319:0:0:0:0:
182,192,94319,128,0,94619:0:0:0:0:
402,192,94319,1,0,0:0:0:0:
329,192,94619,128,0,97019:0:0:0:0:
36,192,94619,128,0,94844:0:0:0:0:
402,192,94619,1,0,0:0:0:0:
182,192,94844,128,0,95069:0:0:0:0:
256,192,94844,1,0,0:0:0:0:
109,192,94844,1,0,0:0:0:0:
36,192,95069,128,0,95219:0:0:0:0:
182,192,95219,128,0,95369:0:0:0:0:
256,192,95219,1,0,0:0:0:0:
402,192,95219,1,0,0:0:0:0:
475,192,95369,128,0,95444:0:0:0:0:
402,192,95444,128,0,95519:0:0:0:0:
182,192,95519,128,0,95669:0:0:0:0:
36,192,95669,128,0,95819:0:0:0:0:
182,192,95819,128,0,96119:0:0:0:0:
256,192,95819,1,0,0:0:0:0:
475,192,95819,1,0,0:0:0:0:
475,192,95969,128,0,96119:0:0:0:0:
36,192,96119,128,0,96269:0:0:0:0:
109,192,96119,1,0,0:0:0:0:
402,192,96119,1,0,0:0:0:0:
182,192,96269,128,0,96419:0:0:0:0:
256,192,96269,1,0,0:0:0:0:
475,192,96419,128,0,96569:0:0:0:0:
36,192,96419,1,0,0:0:0:0:
402,192,96419,1,0,0:0:0:0:
36,192,96569,128,0,96719:0:0:0:0:
182,192,96569,1,0,0:0:0:0:
109,192,96719,128,0,96869:0:0:0:0:
256,192,96719,1,0,0:0:0:0:
182,192,96869,128,0,97019:0:0:0:0:
36,192,97019,128,0,97319:0:0:0:0:
109,192,97019,1,0,0:0:0:0:
475,192,97019,1,0,0:0:0:0:
182,192,97319,128,0,97469:0:0:0:0:
475,192,97319,1,0,0:0:0:0:
329,192,97319,1,0,0:0:0:0:
329,192,97469,128,0,97619:0:0:0:0:
182,192,97619,128,0,97769:0:0:0:0:
36,192,97619,1,0,0:0:0:0:
475,192,97619,1,0,0:0:0:0:
329,192,97769,128,0,97919:0:0:0:0:
182,192,97919,128,0,98069:0:0:0:0:
475,192,97919,1,0,0:0:0:0:
36,192,97919,1,0,0:0:0:0:
329,192,98069,128,0,98219:0:0:0:0:
475,192,98219,128,0,98519:0:0:0:0:
36,192,98219,1,0,0:0:0:0:
182,192,98219,1,0,0:0:0:0:
329,192,98369,128,0,98519:0:0:0:0:
36,192,98519,128,0,98819:0:0:0:0:
182,192,98519,128,0,98669:0:0:0:0:
109,192,98519,1,0,0:0:0:0:
402,192,98519,1,0,0:0:0:0:
329,192,98819,128,0,98969:0:0:0:0:
475,192,98819,128,0,98969:0:0:0:0:
109,192,98819,1,0,0:0:0:0:
256,192,98819,1,0,0:0:0:0:
475,192,99119,128,0,99269:0:0:0:0:
329,192,99119,128,0,99269:0:0:0:0:
36,192,99119,1,0,0:0:0:0:
182,192,99119,1,0,0:0:0:0:
475,192,99419,128,0,99569:0:0:0:0:
109,192,99419,1,0,0:0:0:0:
256,192,99419,1,0,0:0:0:0:
36,192,99569,128,0,99719:0:0:0:0:
402,192,99719,128,0,99869:0:0:0:0:
182,192,99719,1,0,0:0:0:0:
329,192,99719,1,0,0:0:0:0:
109,192,99869,128,0,100019:0:0:0:0:
329,192,100019,128,0,100169:0:0:0:0:
36,192,100019,1,0,0:0:0:0:
475,192,100019,1,0,0:0:0:0:
182,192,100169,128,0,100319:0:0:0:0:
402,192,100319,128,0,100619:0:0:0:0:
36,192,100319,1,0,0:0:0:0:
256,192,100319,1,0,0:0:0:0:
109,192,100469,128,0,100619:0:0:0:0:
329,192,100619,128,0,100919:0:0:0:0:
182,192,100619,1,0,0:0:0:0:
475,192,100619,1,0,0:0:0:0:
475,192,100769,128,0,100919:0:0:0:0:
182,192,100919,128,0,101219:0:0:0:0:
36,192,100919,1,0,0:0:0:0:
402,192,100919,1,0,0:0:0:0:
36,192,101069,128,0,101219:0:0:0:0:
109,192,101219,128,0,101819:0:0:0:0:
402,192,101219,128,0,101819:0:0:0:0:
256,192,101219,1,0,0:0:0:0:
475,192,101219,1,0,0:0:0:0:
329,192,101519,1,0,0:0:0:0:
182,192,101519,1,0,0:0:0:0:
475,192,101819,128,0,101969:0:0:0:0:
256,192,101819,1,0,0:0:0:0:
36,192,101819,1,0,0:0:0:0:
402,192,101969,128,0,102119:0:0:0:0:
329,192,102119,128,0,102269:0:0:0:0:
36,192,102119,1,0,0:0:0:0:
182,192,102119,1,0,0:0:0:0:
256,192,102269,128,0,102419:0:0:0:0:
36,192,102419,128,0,102644:0:0:0:0:
109,192,102419,1,0,0:0:0:0:
402,192,102419,1,0,0:0:0:0:
182,192,102644,128,0,102869:0:0:0:0:
329,192,102719,1,0,0:0:0:0:
475,192,102719,1,0,0:0:0:0:
329,192,102869,128,0,103019:0:0:0:0:
36,192,103019,128,0,103169:0:0:0:0:
109,192,103019,1,0,0:0:0:0:
475,192,103019,1,0,0:0:0:0:
109,192,103169,128,0,103319:0:0:0:0:
182,192,103319,128,0,103469:0:0:0:0:
329,192,103319,1,0,0:0:0:0:
475,192,103319,1,0,0:0:0:0:
256,192,103469,128,0,103619:0:0:0:0:
475,192,103469,128,0,103844:0:0:0:0:
329,192,103619,128,0,103844:0:0:0:0:
36,192,103619,1,0,0:0:0:0:
182,192,103619,1,0,0:0:0:0:
182,192,103844,128,0,104069:0:0:0:0:
36,192,103919,1,0,0:0:0:0:
475,192,103919,1,0,0:0:0:0:
36,192,104069,128,0,104219:0:0:0:0:
475,192,104219,128,0,104519:0:0:0:0:
182,192,104219,1,0,0:0:0:0:
329,192,104219,1,0,0:0:0:0:
329,192,104519,128,0,104819:0:0:0:0:
36,192,104519,1,0,0:0:0:0:
182,192,104519,1,0,0:0:0:0:
182,192,104819,128,0,105119:0:0:0:0:
475,192,104819,1,0,0:0:0:0:
36,192,104819,1,0,0:0:0:0:
36,192,105119,128,0,105419:0:0:0:0:
256,192,105119,1,0,0:0:0:0:
402,192,105119,1,0,0:0:0:0:
475,192,105419,128,0,105494:0:0:0:0:
256,192,105419,1,0,0:0:0:0:
109,192,105419,1,0,0:0:0:0:
402,192,105494,128,0,105569:0:0:0:0:
329,192,105569,128,0,105644:0:0:0:0:
182,192,105569,1,0,0:0:0:0:
256,192,105644,128,0,105719:0:0:0:0:
36,192,105719,128,0,105794:0:0:0:0:
109,192,105719,1,0,0:0:0:0:
402,192,105719,1,0,0:0:0:0:
109,192,105794,128,0,105869:0:0:0:0:
182,192,105869,128,0,105944:0:0:0:0:
329,192,105869,1,0,0:0:0:0:
256,192,105944,128,0,106019:0:0:0:0:
475,192,106019,128,0,106094:0:0:0:0:
402,192,106019,1,0,0:0:0:0:
109,192,106019,1,0,0:0:0:0:
402,192,106094,128,0,106169:0:0:0:0:
329,192,106169,128,0,106244:0:0:0:0:
182,192,106169,1,0,0:0:0:0:
256,192,106244,128,0,106319:0:0:0:0:
36,192,106319,128,0,106394:0:0:0:0:
109,192,106319,1,0,0:0:0:0:
402,192,106319,1,0,0:0:0:0:
109,192,106394,128,0,106469:0:0:0:0:
182,192,106469,128,0,106544:0:0:0:0:
329,192,106469,1,0,0:0:0:0:
256,192,106544,128,0,106619:0:0:0:0:
475,192,106619,128,0,107819:0:0:0:0:
36,192,106619,128,0,106919:0:0:0:0:
402,192,106619,1,0,0:0:0:0:
109,192,106619,1,0,0:0:0:0:
182,192,106769,128,0,106919:0:0:0:0:
256,192,106769,1,0,0:0:0:0:
402,192,106919,128,0,107069:0:0:0:0:
329,192,106919,1,0,0:0:0:0:
109,192,106919,1,0,0:0:0:0:
256,192,107069,128,0,107219:0:0:0:0:
182,192,107069,1,0,0:0:0:0:
36,192,107219,128,0,107519:0:0:0:0:
109,192,107219,1,0,0:0:0:0:
329,192,107219,1,0,0:0:0:0:
182,192,107369,1,0,0:0:0:0:
182,192,107519,128,0,107819:0:0:0:0:
256,192,107519,1,0,0:0:0:0:
402,192,107519,1,0,0:0:0:0:
329,192,107669,1,0,0:0:0:0:
329,192,107819,128,0,109019:0:0:0:0:
36,192,107819,128,0,108119:0:0:0:0:
109,192,107819,1,0,0:0:0:0:
402,192,107819,1,0,0:0:0:0:
182,192,107969,128,0,108419:0:0:0:0:
256,192,107969,1,0,0:0:0:0:
109,192,108119,1,0,0:0:0:0:
475,192,108119,1,0,0:0:0:0:
256,192,108269,1,0,0:0:0:0:
36,192,108419,128,0,108644:0:0:0:0:
109,192,108419,1,0,0:0:0:0:
475,192,108419,1,0,0:0:0:0:
182,192,108719,128,0,108944:0:0:0:0:
109,192,108719,1,0,0:0:0:0:
475,192,108719,1,0,0:0:0:0:
36,192,109019,128,0,110219:0:0:0:0:
182,192,109019,128,0,109319:0:0:0:0:
109,192,109019,1,0,0:0:0:0:
475,192,109019,1,0,0:0:0:0:
329,192,109169,128,0,109319:0:0:0:0:
402,192,109169,1,0,0:0:0:0:
475,192,109319,128,0,109619:0:0:0:0:
256,192,109319,1,0,0:0:0:0:
109,192,109319,1,0,0:0:0:0:
329,192,109469,1,0,0:0:0:0:
402,192,109619,128,0,109919:0:0:0:0:
109,192,109619,1,0,0:0:0:0:
256,192,109619,1,0,0:0:0:0:
182,192,109769,1,0,0:0:0:0:
329,192,109919,128,0,110219:0:0:0:0:
109,192,109919,1,0,0:0:0:0:
256,192,109919,1,0,0:0:0:0:
182,192,110069,1,0,0:0:0:0:
182,192,110219,128,0,111419:0:0:0:0:
475,192,110219,128,0,110519:0:0:0:0:
109,192,110219,1,0,0:0:0:0:
402,192,110219,1,0,0:0:0:0:
329,192,110369,128,0,110519:0:0:0:0:
256,192,110369,1,0,0:0:0:0:
402,192,110519,128,0,110744:0:0:0:0:
36,192,110519,1,0,0:0:0:0:
109,192,110519,1,0,0:0:0:0:
329,192,110669,1,0,0:0:0:0:
329,192,110819,128,0,111044:0:0:0:0:
475,192,110819,1,0,0:0:0:0:
256,192,110819,1,0,0:0:0:0:
256,192,111119,128,0,111344:0:0:0:0:
402,192,111119,1,0,0:0:0:0:
109,192,111119,1,0,0:0:0:0:
475,192,111419,128,0,111494:0:0:0:0:
36,192,111419,1,0,0:0:0:0:
329,192,111419,1,0,0:0:0:0:
402,192,111494,128,0,111569:0:0:0:0:
329,192,111569,128,0,111644:0:0:0:0:
109,192,111569,1,0,0:0:0:0:
256,192,111644,128,0,111719:0:0:0:0:
402,192,111719,128,0,111794:0:0:0:0:
36,192,111719,1,0,0:0:0:0:
182,192,111719,1,0,0:0:0:0:
329,192,111794,128,0,111869:0:0:0:0:
256,192,111869,128,0,111944:0:0:0:0:
475,192,111869,1,0,0:0:0:0:
182,192,111944,128,0,112019:0:0:0:0:
329,192,112019,128,0,112094:0:0:0:0:
36,192,112019,1,0,0:0:0:0:
402,192,112019,1,0,0:0:0:0:
256,192,112094,128,0,112169:0:0:0:0:
182,192,112169,128,0,112244:0:0:0:0:
475,192,112169,1,0,0:0:0:0:
109,192,112244,128,0,112319:0:0:0:0:
256,192,112319,128,0,112394:0:0:0:0:
402,192,112319,1,0,0:0:0:0:
36,192,112319,1,0,0:0:0:0:
182,192,112394,128,0,112469:0:0:0:0:
109,192,112469,128,0,112544:0:0:0:0:
329,192,112469,1,0,0:0:0:0:
36,192,112544,128,0,112619:0:0:0:0:
475,192,112619,128,0,112769:0:0:0:0:
109,192,112619,1,0,0:0:0:0:
256,192,112619,1,0,0:0:0:0:
402,192,112694,128,0,112844:0:0:0:0:
329,192,112769,128,0,112919:0:0:0:0:
182,192,112844,128,0,112994:0:0:0:0:
109,192,112919,128,0,113069:0:0:0:0:
256,192,112919,1,0,0:0:0:0:
36,192,112994,128,0,113144:0:0:0:0:
475,192,113069,128,0,113219:0:0:0:0:
402,192,113144,128,0,113294:0:0:0:0:
329,192,113219,128,0,113369:0:0:0:0:
256,192,113219,1,0,0:0:0:0:
182,192,113294,128,0,113444:0:0:0:0:
109,192,113369,128,0,113519:0:0:0:0:
36,192,113444,128,0,113594:0:0:0:0:
475,192,113519,128,0,113669:0:0:0:0:
256,192,113519,1,0,0:0:0:0:
402,192,113594,128,0,113744:0:0:0:0:
329,192,113669,128,0,113819:0:0:0:0:
182,192,113669,128,0,113819:0:0:0:0:
36,192,113819,128,0,113894:0:0:0:0:
256,192,113819,1,0,0:0:0:0:
475,192,113894,128,0,113969:0:0:0:0:
109,192,113969,128,0,114044:0:0:0:0:
402,192,114044,128,0,114119:0:0:0:0:
182,192,114119,128,0,114194:0:0:0:0:
36,192,114119,1,0,0:0:0:0:
475,192,114119,1,0,0:0:0:0:
329,192,114194,128,0,114269:0:0:0:0:
109,192,114269,128,0,114344:0:0:0:0:
402,192,114344,128,0,114419:0:0:0:0:
36,192,114419,128,0,114494:0:0:0:0:
182,192,114419,1,0,0:0:0:0:
329,192,114419,1,0,0:0:0:0:
475,192,114494,128,0,114569:0:0:0:0:
109,192,114569,128,0,114644:0:0:0:0:
402,192,114644,128,0,114719:0:0:0:0:
182,192,114719,128,0,114794:0:0:0:0:
36,192,114719,1,0,0:0:0:0:
475,192,114719,1,0,0:0:0:0:
329,192,114794,128,0,114869:0:0:0:0:
109,192,114869,128,0,114944:0:0:0:0:
402,192,114944,128,0,115019:0:0:0:0:
36,192,115019,128,0,115094:0:0:0:0:
256,192,115019,1,0,0:0:0:0:
475,192,115019,1,0,0:0:0:0:
182,192,115094,128,0,115169:0:0:0:0:
329,192,115169,128,0,115244:0:0:0:0:
475,192,115244,128,0,115319:0:0:0:0:
329,192,115319,128,0,115394:0:0:0:0:
36,192,115319,1,0,0:0:0:0:
182,192,115319,1,0,0:0:0:0:
182,192,115394,128,0,115469:0:0:0:0:
36,192,115469,128,0,115544:0:0:0:0:
256,192,115544,128,0,115619:0:0:0:0:
109,192,115619,128,0,115919:0:0:0:0:
329,192,115619,1,0,0:0:0:0:
475,192,115619,1,0,0:0:0:0:
256,192,115769,128,0,116069:0:0:0:0:
402,192,115919,128,0,116219:0:0:0:0:
36,192,115919,1,0,0:0:0:0:
475,192,115919,1,0,0:0:0:0:
475,192,116219,128,0,117419:0:0:0:0:
36,192,116219,128,0,119069:0:0:0:0:
329,192,116219,128,0,118019:0:0:0:0:
182,192,116219,128,0,118619:0:0:0:0:
