osu file format v14

[General]
AudioFilename: audio.mp3
AudioLeadIn: 0
PreviewTime: -1
Countdown: 1
SampleSet: None
StackLeniency: 0.7
Mode: 0
LetterboxInBreaks: 0
WidescreenStoryboard: 0

[Editor]
DistanceSpacing: 1.7
BeatDivisor: 3
GridSize: 4
TimelineZoom: 1

[Metadata]
Title:Dopamine
TitleUnicode:Dopamine
Artist:U1 overground
ArtistUnicode:U1 overground
Creator:Kysteria
Version:EEE
Source:
Tags:
BeatmapID:1092094
BeatmapSetID:514052

[Difficulty]
HPDrainRate:3
CircleSize:4.3
OverallDifficulty:8
ApproachRate:9.5
SliderMultiplier:1.6
SliderTickRate:1

[Events]
//Background and Video events
0,0,"deod2.jpg",0,0
//Break Periods
//Storyboard Layer 0 (Background)
//Storyboard Layer 1 (Fail)
//Storyboard Layer 2 (Pass)
//Storyboard Layer 3 (Foreground)
//Storyboard Sound Samples

[TimingPoints]
1018.60081876751,300,4,2,0,100,1,0
1468,-142.857142857143,4,2,0,100,0,0
10618,-111.111111111111,4,2,0,100,0,0
20218,-90.9090909090909,4,2,0,100,0,0
22018,-66.6666666666667,4,2,0,100,0,0
22318,-90.9090909090909,4,2,0,100,0,0
23818,-71.4285714285714,4,2,0,100,0,0
24118,-90.9090909090909,4,2,0,100,0,0
24568,-55.5555555555556,4,2,0,100,0,0
25318,-83.3333333333333,4,2,0,100,0,0
29218,-142.857142857143,4,2,0,100,0,0
29518,-83.3333333333333,4,2,0,100,0,0
58018,-111.111111111111,4,2,0,100,0,0
58318,-100,4,2,0,100,0,0
61018,-50,4,2,0,100,0,0
62218,-100,4,2,0,100,0,0
62818,-142.857142857143,4,2,0,100,0,0
63418,-100,4,2,0,100,0,0
70618,-111.111111111111,4,2,0,100,0,0
71818,-83.3333333333333,4,2,0,100,0,0
76318,-111.111111111111,4,2,0,100,0,0
76618,-83.3333333333333,4,2,0,100,0,0
86518,-111.111111111111,4,2,0,100,0,0
86818,-90.9090909090909,4,2,0,100,0,0
87418,-142.857142857143,4,2,0,100,0,0
97018,-100,4,2,0,100,0,0

[HitObjects]
88,104,1018,6,0,L|84:56,4,40
185,194,1468,2,0,P|237:214|301:182,1,111.999996582031
332,72,1918,2,0,L|304:72,2,27.9999991455078
288,196,2218,1,0,0:0:0:0:
288,196,2368,2,0,L|424:188,1,111.999996582031
472,220,2818,6,0,P|476:196|468:148,1,55.9999982910157
220,160,3118,2,0,P|212:196|220:228,1,55.9999982910157
388,292,3418,6,0,B|336:312|336:312|264:300,1,111.999996582031
152,304,3868,2,0,B|204:284|204:284|276:296,1,111.999996582031
68,336,4318,1,0,0:0:0:0:
68,336,4768,2,0,L|56:200,1,111.999996582031
116,92,5218,6,0,L|192:88,1,55.9999982910157
196,252,5518,2,0,L|272:260,1,55.9999982910157
336,72,5818,6,0,P|320:124|344:184,1,111.999996582031
452,176,6268,2,0,P|468:123|451:71,1,111.999996582031
256,264,6718,6,0,L|256:308,3,27.9999991455078
152,336,7018,1,0,0:0:0:0:
152,336,7168,2,0,L|140:208,1,111.999996582031
52,108,7618,2,0,L|44:188,1,55.9999982910157
256,268,7918,2,0,L|244:188,1,55.9999982910157
368,28,8218,6,0,L|360:164,1,111.999996582031
444,232,8668,2,0,P|408:256|320:252,1,111.999996582031
192,256,9118,2,0,P|232:240|296:252,1,83.9999974365235
176,264,9418,2,0,L|60:256,1,111.999996582031
28,188,9868,5,0,0:0:0:0:
64,288,10018,1,0,0:0:0:0:
88,88,10168,1,0,0:0:0:0:
244,196,10318,5,0,0:0:0:0:
88,72,10468,1,0,0:0:0:0:
168,236,10618,6,0,L|256:244,1,71.9999978027344
395,145,10918,2,0,L|303:153,1,71.9999978027344
317,50,11218,2,0,P|336:99|322:150,1,107.999996704102
426,216,11518,2,0,P|412:165|431:116,1,107.999996704102
332,296,11818,5,0,0:0:0:0:
160,308,11968,1,0,0:0:0:0:
160,308,12043,1,0,0:0:0:0:
160,308,12118,2,0,L|168:256,1,35.9999989013672
92,120,12268,5,0,0:0:0:0:
256,96,12418,1,0,0:0:0:0:
72,224,12568,2,0,L|80:284,1,35.9999989013672
312,192,12718,1,0,0:0:0:0:
128,320,12868,1,0,0:0:0:0:
352,328,13018,6,0,P|364:288|352:232,1,71.9999978027344
356,248,13243,1,0,0:0:0:0:
348,236,13318,1,0,0:0:0:0:
156,148,13468,1,0,0:0:0:0:
244,60,13618,2,0,L|240:172,1,107.999996704102
216,332,13918,2,0,L|208:244,1,71.9999978027344
328,304,14218,6,0,P|388:312|428:308,1,71.9999978027344
412,308,14443,1,0,0:0:0:0:
424,300,14518,2,0,L|436:252,1,35.9999989013672
500,132,14668,2,0,B|472:100|440:96|440:96|404:104|380:144,1,143.999995605469
288,304,15043,5,0,0:0:0:0:
288,304,15118,2,0,P|232:320|224:320,1,35.9999989013672
132,304,15268,2,0,P|116:296|96:276,1,35.9999989013672
208,133,15418,2,0,P|216:186|208:240,1,107.999996704102
196,252,15718,1,0,0:0:0:0:
300,216,15868,5,0,0:0:0:0:
110,186,16018,2,0,B|104:152|104:152|112:116,1,71.9999978027344
160,32,16318,1,0,0:0:0:0:
160,32,16468,1,0,0:0:0:0:
392,216,16618,6,0,B|356:228|356:228|292:220,1,71.9999978027344
244,140,16843,1,0,0:0:0:0:
244,140,16918,2,0,L|236:196,1,35.9999989013672
248,292,17068,2,0,L|240:248,1,35.9999989013672
84,144,17218,1,0,0:0:0:0:
112,296,17368,1,0,0:0:0:0:
104,308,17443,1,0,0:0:0:0:
96,320,17518,2,0,L|105:249,1,71.9999978027344
332,228,17818,6,0,L|344:96,1,107.999996704102
340,104,18118,1,0,0:0:0:0:
376,328,18268,1,0,0:0:0:0:
192,252,18418,2,0,P|136:244|96:252,1,71.9999978027344
216,340,18643,1,0,0:0:0:0:
216,340,18718,2,0,L|296:316,1,71.9999978027344
384,172,19018,6,0,P|336:164|320:172,1,47.9999985351563
344,240,19218,1,0,0:0:0:0:
196,232,19318,2,0,P|184:196|184:164,1,47.9999985351563
268,192,19518,1,0,0:0:0:0:
200,320,19618,2,0,L|132:328,1,47.9999985351563
263,269,19818,5,0,0:0:0:0:
267,164,19918,1,0,0:0:0:0:
240,80,20018,2,0,P|232:56|212:16,1,47.9999985351563
256,48,20218,6,0,L|256:164,1,88.000002685547
328,284,20518,2,0,P|352:256|352:224,1,44.0000013427735
168,248,20668,2,0,P|184:280|204:288,1,44.0000013427735
256,232,20818,5,0,0:0:0:0:
256,232,20968,1,0,0:0:0:0:
128,252,21118,5,0,0:0:0:0:
75,218,21193,1,0,0:0:0:0:
25,254,21268,1,0,0:0:0:0:
41,315,21343,1,0,0:0:0:0:
102,322,21418,2,0,B|131:288|131:288|137:238,1,88.000002685547
212,56,21718,6,0,L|220:124,1,44.0000013427735
304,156,21868,2,0,L|292:220,1,44.0000013427735
312,308,22018,2,0,B|256:332|256:332|176:300,1,120.000004577637
68,88,22318,5,2,0:0:0:0:
60,164,22393,1,2,0:0:0:0:
52,236,22468,1,2,0:0:0:0:
44,312,22543,1,2,0:0:0:0:
32,332,22618,2,0,B|72:348|72:348|168:328,1,132.00000402832
408,316,22918,6,0,P|388:328|352:328,1,44.0000013427735
240,264,23068,2,0,P|264:252|300:260,1,44.0000013427735
372,160,23218,5,0,0:0:0:0:
324,320,23368,2,0,L|328:248,1,44.0000013427735
336,72,23518,1,0,0:0:0:0:
320,80,23593,1,0,0:0:0:0:
304,88,23668,1,0,0:0:0:0:
288,96,23743,1,0,0:0:0:0:
272,104,23818,2,0,B|260:160|260:160|296:216,1,111.999996582031
236,272,24118,6,0,P|176:284|132:272,1,88.000002685547
60,208,24343,1,0,0:0:0:0:
60,208,24418,2,0,L|128:204,1,44.0000013427735
68,352,24568,1,0,0:0:0:0:
188,184,24718,2,0,B|220:116|220:116|176:28,1,143.999995605469
200,200,25018,2,0,L|404:192,1,143.999995605469
432,72,25318,6,0,P|420:104|416:128,1,47.9999985351563
420,200,25468,2,0,P|428:224|448:256,1,47.9999985351563
500,316,25618,1,0,0:0:0:0:
328,356,25768,1,0,0:0:0:0:
272,128,25918,5,2,0:0:0:0:
228,112,25993,1,2,0:0:0:0:
180,132,26068,1,2,0:0:0:0:
144,120,26143,1,2,0:0:0:0:
92,136,26218,6,0,B|84:160|84:160|88:236,1,95.9999970703126
112,320,26443,1,0,0:0:0:0:
112,320,26518,2,0,P|136:328|180:328,1,47.9999985351563
380,292,26668,2,0,P|336:284|304:292,1,47.9999985351563
240,356,26818,2,0,L|232:236,1,95.9999970703126
124,64,27118,5,0,0:0:0:0:
195,70,27193,1,0,0:0:0:0:
267,77,27268,1,0,0:0:0:0:
339,84,27343,1,0,0:0:0:0:
410,90,27418,2,0,L|520:80,1,95.9999970703126
410,242,27643,5,0,0:0:0:0:
410,242,27718,2,0,P|400:210|416:161,1,47.9999985351563
352,302,27868,2,0,P|333:294|316:274,1,47.9999985351563
238,270,28093,1,0,0:0:0:0:
483,267,28168,1,0,0:0:0:0:
120,204,28318,5,0,0:0:0:0:
120,204,28393,1,0,0:0:0:0:
120,204,28468,1,0,0:0:0:0:
120,204,28543,1,0,0:0:0:0:
120,204,28618,6,0,L|176:212,1,47.9999985351563
328,196,28768,2,0,L|252:212,1,47.9999985351563
142,314,28918,1,0,0:0:0:0:
259,95,29068,1,0,0:0:0:0:
256,352,29218,6,0,L|256:252,1,83.9999974365235
388,116,29518,5,0,0:0:0:0:
372,161,29593,1,0,0:0:0:0:
342,198,29668,1,0,0:0:0:0:
300,220,29743,1,0,0:0:0:0:
248,228,29818,2,0,P|196:224|144:200,1,95.9999970703126
64,56,30118,5,0,0:0:0:0:
156,176,30268,2,0,L|168:288,1,95.9999970703126
84,356,30568,1,0,0:0:0:0:
248,272,30718,2,0,P|316:256|376:264,1,95.9999970703126
380,128,31018,2,0,P|452:144|504:184,1,95.9999970703126
472,248,31243,1,0,0:0:0:0:
472,248,31318,1,0,0:0:0:0:
224,320,31468,5,0,0:0:0:0:
292,116,31618,2,0,P|296:80|288:36,1,47.9999985351563
220,184,31768,1,0,0:0:0:0:
352,200,31918,2,0,P|316:192|268:196,1,47.9999985351563
136,200,32068,2,0,P|92:216|68:240,1,47.9999985351563
40,328,32218,6,0,P|36:252|60:208,1,95.9999970703126
120,100,32443,1,0,0:0:0:0:
120,100,32518,2,0,L|112:232,1,95.9999970703126
164,340,32818,2,0,P|224:356|336:324,1,143.999995605469
296,160,33118,5,0,0:0:0:0:
280,188,33193,1,0,0:0:0:0:
280,224,33268,1,0,0:0:0:0:
296,252,33343,1,0,0:0:0:0:
324,276,33418,2,0,P|260:264|200:284,1,95.9999970703126
56,248,33718,2,0,P|100:204|120:156,1,95.9999970703126
212,337,34018,6,0,P|200:301|204:257,1,47.9999985351563
272,165,34168,1,0,0:0:0:0:
272,165,34243,1,0,0:0:0:0:
272,165,34318,2,0,P|272:188|267:212,1,47.9999985351563
184,96,34468,1,0,0:0:0:0:
352,32,34618,6,0,L|488:44,1,95.9999970703126
480,116,34843,1,0,0:0:0:0:
480,116,34918,2,0,L|348:104,1,95.9999970703126
332,172,35218,2,0,L|468:184,1,95.9999970703126
456,308,35518,5,0,0:0:0:0:
379,304,35593,1,0,0:0:0:0:
304,308,35668,1,0,0:0:0:0:
228,329,35743,1,0,0:0:0:0:
164,368,35818,6,0,B|124:372|124:372|64:348,1,95.9999970703126
40,288,36043,1,0,0:0:0:0:
40,288,36118,2,0,L|32:176,1,95.9999970703126
209,256,36418,1,0,0:0:0:0:
16,68,36568,1,0,0:0:0:0:
156,241,36718,5,0,0:0:0:0:
227,237,36793,1,0,0:0:0:0:
299,234,36868,1,0,0:0:0:0:
369,230,36943,1,0,0:0:0:0:
444,228,37018,2,0,L|436:275,1,47.9999985351563
301,322,37168,1,0,0:0:0:0:
301,322,37243,2,0,L|293:253,1,47.9999985351563
377,138,37468,1,0,0:0:0:0:
224,149,37618,2,0,P|160:106|138:67,1,95.9999970703126
216,256,37918,5,0,0:0:0:0:
185,293,37993,1,0,0:0:0:0:
145,318,38068,1,0,0:0:0:0:
98,328,38143,1,0,0:0:0:0:
48,320,38218,2,0,P|120:304|180:328,1,95.9999970703126
220,356,38443,1,0,0:0:0:0:
220,356,38518,1,0,0:0:0:0:
56,216,38668,1,0,0:0:0:0:
344,200,38818,6,0,L|332:260,1,47.9999985351563
292,116,38968,1,0,0:0:0:0:
372,88,39043,1,0,0:0:0:0:
444,136,39118,2,0,P|472:152|508:152,1,47.9999985351563
216,76,39268,1,0,0:0:0:0:
256,242,39418,5,0,0:0:0:0:
164,232,41818,5,0,0:0:0:0:
117,137,41968,1,0,0:0:0:0:
258,185,42118,1,0,0:0:0:0:
258,185,42193,1,0,0:0:0:0:
258,185,42268,1,0,0:0:0:0:
348,232,42418,5,0,0:0:0:0:
395,137,42568,1,0,0:0:0:0:
424,264,42718,1,0,0:0:0:0:
328,80,42868,1,0,0:0:0:0:
296,316,43018,2,0,P|236:336|196:336,1,95.9999970703126
136,304,43243,1,0,0:0:0:0:
136,304,43318,1,0,0:0:0:0:
180,216,43468,5,0,0:0:0:0:
104,212,43543,1,0,0:0:0:0:
48,264,43618,1,0,0:0:0:0:
96,84,43768,5,0,0:0:0:0:
188,56,43843,1,0,0:0:0:0:
272,92,43918,2,0,L|312:132,1,47.9999985351563
80,320,44068,5,0,0:0:0:0:
72,240,44143,1,0,0:0:0:0:
64,164,44218,2,0,P|108:212|204:172,1,143.999995605469
240,156,44518,1,0,0:0:0:0:
352,300,44668,1,0,0:0:0:0:
192,340,44818,6,0,P|188:304|200:276,1,47.9999985351563
288,236,44968,2,0,P|312:204|348:184,1,47.9999985351563
432,224,45118,1,0,0:0:0:0:
168,140,45268,2,0,L|156:80,2,47.9999985351563
168,140,45718,6,0,L|168:236,2,95.9999970703126
376,288,46168,5,0,0:0:0:0:
376,288,46243,1,0,0:0:0:0:
376,288,46318,2,0,B|415:256|415:256|384:188,1,95.9999970703126
416,96,46618,2,0,B|432:76|432:76|356:60|288:76|288:76|308:108,1,191.999994140625
256,312,47068,5,0,0:0:0:0:
224,184,47218,2,0,P|204:184|148:204,1,47.9999985351563
140,312,47368,2,0,P|136:268|124:240,1,47.9999985351563
115,96,47518,2,0,P|112:119|112:143,1,47.9999985351563
20,223,47668,2,0,P|43:221|67:215,1,47.9999985351563
176,189,48118,6,0,P|200:184|224:184,1,47.9999985351563
312,188,48268,2,0,P|352:196|392:220,1,47.9999985351563
444,256,48418,2,0,P|448:300|448:372,1,95.9999970703126
412,136,48718,2,0,P|408:92|408:20,1,95.9999970703126
301,314,49018,6,0,B|312:336|312:336|236:336|172:312|172:312|192:296,1,191.999994140625
256,192,49468,1,0,0:0:0:0:
111,256,49618,2,0,P|100:277|95:300,1,47.9999985351563
340,196,49768,2,0,P|345:172|356:151,1,47.9999985351563
172,196,49918,2,0,P|167:172|156:151,1,47.9999985351563
400,256,50068,2,0,P|411:277|416:300,1,47.9999985351563
248,276,50518,6,0,P|256:236|256:196,1,47.9999985351563
256,156,50668,2,0,P|253:132|247:108,1,47.9999985351563
184,48,50818,1,0,0:0:0:0:
104,132,50968,5,0,0:0:0:0:
332,104,51118,1,0,0:0:0:0:
208,52,51268,1,0,0:0:0:0:
184,204,51418,2,0,L|188:328,1,95.9999970703126
400,300,51718,2,0,P|412:240|392:188,1,95.9999970703126
292,164,52018,5,0,0:0:0:0:
224,72,52168,1,0,0:0:0:0:
160,176,52318,2,0,P|138:182|114:184,1,47.9999985351563
352,64,52468,2,0,P|375:65|398:72,1,47.9999985351563
80,80,53818,6,0,P|116:72|156:80,1,47.9999985351563
256,80,53968,2,0,P|220:72|180:80,1,47.9999985351563
164,200,54118,1,0,0:0:0:0:
164,200,54193,1,0,0:0:0:0:
164,200,54268,1,0,0:0:0:0:
164,200,54343,1,0,0:0:0:0:
164,200,54418,2,0,P|196:212|220:216,1,47.9999985351563
460,252,54568,1,0,0:0:0:0:
391,164,54718,6,0,P|382:186|379:209,1,47.9999985351563
415,343,54867,2,0,P|399:327|390:305,1,47.9999985351563
256,312,55018,1,0,0:0:0:0:
412,200,55168,1,0,0:0:0:0:
312,304,55318,2,0,B|272:340|192:284|164:324,1,143.999995605469
112,360,55618,2,0,P|100:304|172:240,1,143.999995605469
228,228,55918,5,0,0:0:0:0:
228,228,56018,1,0,0:0:0:0:
228,228,56118,1,0,0:0:0:0:
228,228,56218,2,0,P|244:156|240:128,2,63.9999980468751
156,136,56518,2,0,P|152:92|160:48,2,63.9999980468751
312,64,56818,2,0,P|316:24|308:-16,2,63.9999980468751
312,144,57118,1,0,0:0:0:0:
396,180,57218,1,0,0:0:0:0:
472,136,57318,1,0,0:0:0:0:
400,176,57418,2,0,P|384:240|384:344,1,143.999995605469
456,292,57718,5,0,0:0:0:0:
376,272,57793,1,0,0:0:0:0:
300,292,57868,1,0,0:0:0:0:
224,304,57943,1,0,0:0:0:0:
152,280,58018,2,0,B|128:288|128:288|80:272|80:272|20:280,1,107.999996704102
36,196,58318,2,0,L|32:120,1,40
248,220,58468,2,0,L|248:168,1,40
320,56,58618,6,0,L|240:48,1,80
416,100,58918,1,0,0:0:0:0:
416,100,58993,1,0,0:0:0:0:
416,100,59068,1,0,0:0:0:0:
416,100,59143,1,0,0:0:0:0:
416,100,59218,2,0,P|432:132|424:204,1,80
456,304,59518,6,0,L|400:296,1,40
288,284,59668,2,0,L|352:292,1,40
200,272,59818,1,0,0:0:0:0:
32,252,60118,5,0,0:0:0:0:
108,244,60193,1,0,0:0:0:0:
184,236,60268,1,0,0:0:0:0:
259,229,60343,1,0,0:0:0:0:
328,236,60418,2,0,L|436:252,1,80
472,136,60718,5,0,0:0:0:0:
440,128,60793,1,0,0:0:0:0:
404,120,60868,1,0,0:0:0:0:
368,112,60943,1,0,0:0:0:0:
328,100,61018,2,0,L|336:188,1,80
304,212,61168,2,0,L|312:104,1,80
300,64,61318,2,0,L|308:152,1,80
276,176,61468,2,0,L|284:68,1,80
224,56,61618,6,0,L|112:56,1,80
92,60,61768,2,0,L|196:76,1,80
196,88,61918,2,0,L|116:88,1,80
64,92,62068,2,0,L|144:104,1,80
148,220,62218,2,0,P|156:280|140:336,1,120
120,340,62518,1,0,0:0:0:0:
96,297,62593,1,0,0:0:0:0:
126,258,62668,1,0,0:0:0:0:
173,272,62743,1,0,0:0:0:0:
176,328,62818,6,0,B|224:320|224:320|280:336|280:336|368:320,1,195.999994018555
440,296,63418,2,0,P|448:264|444:232,1,40
376,56,63568,2,0,P|368:80|376:112,1,40
352,192,63718,6,0,L|248:216,1,95.9999970703126
259,214,63943,1,0,0:0:0:0:
259,214,64018,1,0,0:0:0:0:
201,133,64168,1,0,0:0:0:0:
258,325,64318,1,0,0:0:0:0:
52,320,64468,1,0,0:0:0:0:
304,200,64618,1,0,0:0:0:0:
132,324,64768,6,0,B|128:296|128:296|132:248,1,40
216,160,64918,2,0,B|192:216|192:216|216:288,1,120
301,272,65218,2,0,B|320:216|320:216|296:160,1,120
352,76,65518,5,0,0:0:0:0:
384,64,65593,1,0,0:0:0:0:
424,64,65668,1,0,0:0:0:0:
460,80,65743,1,0,0:0:0:0:
488,104,65818,6,0,L|472:188,1,53.3333333333333
458,257,66018,1,0,0:0:0:0:
492,320,66118,2,0,P|436:328|412:312,1,53.3333333333333
320,306,66318,1,0,0:0:0:0:
371,249,66418,2,0,P|348:234|323:227,1,53.3333333333333
196,236,66618,1,0,0:0:0:0:
192,312,66718,2,0,P|152:300|136:260,1,53.3333333333333
128,168,66918,1,0,0:0:0:0:
88,100,67018,6,2,L|236:92,1,120,2|2,0:1|0:1,0:1:0:0:
336,84,67318,1,2,0:1:0:0:
320,88,67393,1,2,0:1:0:0:
280,148,67468,1,2,0:1:0:0:
300,156,67543,1,2,0:1:0:0:
396,128,67618,2,2,P|412:96|356:16,1,120,2|2,0:1|0:1,0:1:0:0:
396,252,67918,6,0,L|392:312,1,40
408,264,68068,2,0,L|404:328,1,40
420,212,68218,6,0,L|484:240,1,47.9999985351563
300,164,68368,2,0,L|252:140,1,47.9999985351563
336,252,68518,6,0,L|316:308,1,47.9999985351563
384,128,68668,2,0,L|400:68,1,47.9999985351563
366,268,68818,2,0,L|368:307,1,40
353,107,68968,2,0,L|350:67,1,40
400,280,69118,2,0,L|412:317,1,40
316,92,69269,2,0,L|301:53,1,40
264,176,69418,2,0,P|208:204|136:168,1,120
96,140,69718,5,0,0:0:0:0:
168,112,69793,1,0,0:0:0:0:
224,164,69868,1,0,0:0:0:0:
205,244,69943,1,0,0:0:0:0:
123,253,70018,2,0,P|75:249|123:261,1,120
340,332,70318,5,0,0:0:0:0:
332,312,70393,1,0,0:0:0:0:
352,240,70468,1,0,0:0:0:0:
344,224,70543,1,0,0:0:0:0:
364,152,70618,2,0,P|376:192|352:112,1,107.999996704102
100,136,70918,2,0,P|147:160|200:152,1,107.999996704102
176,40,71218,5,0,0:0:0:0:
248,72,71318,1,0,0:0:0:0:
296,136,71418,1,0,0:0:0:0:
224,284,71518,1,0,0:0:0:0:
236,204,71618,1,0,0:0:0:0:
304,160,71718,1,0,0:0:0:0:
384,176,71818,6,0,P|396:212|392:264,1,47.9999985351563
328,328,71968,1,0,0:0:0:0:
444,216,72118,2,0,P|444:280|408:344,1,95.9999970703126
204,332,72418,6,0,L|80:332,1,95.9999970703126
204,332,72718,2,0,L|80:332,1,95.9999970703126
68,76,73018,6,0,B|148:48|212:100,1,143.999995605469
252,176,73318,1,0,0:0:0:0:
76,304,73468,2,0,L|68:232,1,47.9999985351563
64,176,73768,1,0,0:0:0:0:
264,324,73918,2,0,P|332:340|360:336,1,95.9999970703126
440,120,74218,6,0,L|320:116,1,95.9999970703126
140,136,74518,2,0,P|148:160|176:184,1,47.9999985351563
192,272,74668,2,0,P|224:276|264:260,1,47.9999985351563
200,60,74818,2,0,P|120:56|64:100,1,143.999995605469
36,164,75118,2,0,L|56:336,1,143.999995605469
208,316,75418,6,0,P|280:332|372:320,1,143.999995605469
420,284,75718,1,0,0:0:0:0:
420,284,75793,1,0,0:0:0:0:
420,284,75868,1,0,0:0:0:0:
420,284,75943,1,0,0:0:0:0:
420,284,76018,2,0,P|432:236|428:208,1,47.9999985351563
248,144,76168,2,0,P|240:172|248:220,1,47.9999985351563
396,124,76318,2,0,P|412:80|376:108,1,107.999996704102
264,128,76618,6,0,P|204:144|144:132,1,95.9999970703126
48,120,76843,2,0,P|120:120|168:160,1,95.9999970703126
220,232,77068,1,0,0:0:0:0:
132,256,77218,2,0,P|112:308|124:376,1,95.9999970703126
312,256,77518,2,0,P|312:208|293:164,1,95.9999970703126
400,96,77818,6,0,L|392:224,1,95.9999970703126
448,304,78118,1,0,0:0:0:0:
376,224,78218,1,0,0:0:0:0:
480,204,78318,1,0,0:0:0:0:
440,312,78418,6,0,B|396:328|396:328|320:312,1,95.9999970703126
151,150,78718,6,0,P|169:164|179:186,1,47.9999985351563
120,337,78868,2,0,P|128:305|160:289,1,47.9999985351563
263,278,79018,1,0,0:0:0:0:
54,235,79168,5,0,0:0:0:0:
62,243,79243,1,0,0:0:0:0:
62,243,79318,2,0,L|66:167,1,47.9999985351563
267,141,79468,2,0,L|263:217,1,47.9999985351563
438,196,79618,2,0,L|431:319,1,95.9999970703126
360,329,79843,1,0,0:0:0:0:
286,297,79918,1,0,0:0:0:0:
213,335,79993,1,0,0:0:0:0:
148,300,80068,1,0,0:0:0:0:
83,338,80143,1,0,0:0:0:0:
112,324,80218,6,0,P|104:264|124:216,1,95.9999970703126
188,204,80443,1,0,0:0:0:0:
188,204,80518,1,0,0:0:0:0:
44,176,80668,1,0,0:0:0:0:
272,92,80818,2,0,P|284:120|284:168,1,47.9999985351563
228,320,80968,1,0,0:0:0:0:
120,212,81118,5,0,0:0:0:0:
112,132,81193,1,0,0:0:0:0:
104,56,81268,1,0,0:0:0:0:
448,180,81418,6,0,L|444:244,1,47.9999985351563
440,328,81568,1,0,0:0:0:0:
354,271,81718,2,0,L|352:224,1,47.9999985351563
344,80,81868,2,0,L|332:160,1,47.9999985351563
260,176,82018,6,0,L|268:248,1,47.9999985351563
284,340,82168,1,0,0:0:0:0:
176,312,82318,2,0,L|180:240,1,47.9999985351563
172,149,82468,1,0,0:0:0:0:
80,112,82618,6,0,P|64:168|72:216,1,95.9999970703126
176,312,82918,1,0,0:0:0:0:
160,280,82993,1,0,0:0:0:0:
120,264,83068,1,0,0:0:0:0:
80,280,83143,1,0,0:0:0:0:
64,320,83218,2,0,L|108:360,1,47.9999985351563
296,324,83368,1,0,0:0:0:0:
188,212,83518,6,0,P|184:180|200:132,1,47.9999985351563
268,56,83668,2,0,P|268:80|272:72,1,95.9999970703126
101,80,83968,1,0,0:0:0:0:
264,244,84118,2,0,P|224:288|130:265,1,143.999995605469
184,212,84418,2,0,P|114:204|69:257,1,143.999995605469
120,336,84718,5,0,0:0:0:0:
208,328,84793,1,0,0:0:0:0:
296,320,84868,1,0,0:0:0:0:
384,312,84943,1,0,0:0:0:0:
472,304,85018,2,0,P|488:256|440:292,1,143.999995605469
168,340,85318,5,0,0:0:0:0:
160,316,85393,1,0,0:0:0:0:
188,232,85468,1,0,0:0:0:0:
180,220,85543,1,0,0:0:0:0:
192,136,85618,1,0,0:0:0:0:
264,332,85918,6,0,P|272:336|320:336,1,47.9999985351563
84,264,86068,2,0,P|68:268|20:300,1,47.9999985351563
308,192,86218,1,0,0:0:0:0:
44,136,86368,1,0,0:0:0:0:
284,64,86518,2,0,P|332:56|376:68,1,71.9999978027344
44,136,86818,5,0,0:0:0:0:
308,192,86968,1,0,0:0:0:0:
8,208,87118,1,0,0:0:0:0:
352,128,87268,1,0,0:0:0:0:
112,32,87418,5,0,0:0:0:0:
112,32,87643,1,0,0:0:0:0:
112,352,88018,5,0,0:0:0:0:
256,32,88618,5,0,0:0:0:0:
112,352,89218,5,0,0:0:0:0:
400,32,89818,5,0,0:0:0:0:
400,32,90043,1,0,0:0:0:0:
112,352,90418,5,0,0:0:0:0:
400,352,91018,5,0,0:0:0:0:
256,348,91468,5,0,0:0:0:0:
112,352,91618,5,0,0:0:0:0:
256,348,91768,1,0,0:0:0:0:
112,32,92218,5,0,0:0:0:0:
112,32,92443,1,0,0:0:0:0:
112,352,92818,5,0,0:0:0:0:
256,32,93418,5,0,0:0:0:0:
112,352,94018,5,0,0:0:0:0:
384,44,94618,5,0,0:0:0:0:
384,44,94843,1,0,0:0:0:0:
112,352,95218,5,0,0:0:0:0:
392,352,95818,5,0,0:0:0:0:
256,352,96268,1,0,0:0:0:0:
112,352,96418,5,0,0:0:0:0:
256,352,96568,1,0,0:0:0:0:
136,148,97018,5,0,0:0:0:0:
116,288,97168,1,0,0:0:0:0:
72,56,97318,1,0,0:0:0:0:
224,236,97468,5,0,0:0:0:0:
300,252,97543,1,0,0:0:0:0:
364,212,97618,1,0,0:0:0:0:
264,344,97768,1,0,0:0:0:0:
312,100,97918,5,0,0:0:0:0:
472,160,98068,1,0,0:0:0:0:
200,100,98368,5,0,0:0:0:0:
40,160,98518,1,0,0:0:0:0:
40,160,98818,2,0,P|32:208|40:264,1,80
56,312,99118,6,0,P|80:340|104:352,1,40
152,356,99268,2,0,P|188:356|220:348,1,40
216,212,99418,6,0,P|236:160|260:132,1,80
312,104,99643,1,0,0:0:0:0:
388,120,99718,1,0,0:0:0:0:
176,104,99868,1,0,0:0:0:0:
104,88,99943,1,0,0:0:0:0:
32,68,100018,5,0,0:0:0:0:
80,164,100168,1,0,0:0:0:0:
160,8,100318,1,0,0:0:0:0:
220,228,100468,1,0,0:0:0:0:
220,228,100768,5,0,0:0:0:0:
152,304,100918,2,0,P|120:260|120:220,1,80
416,238,101218,6,0,L|296:250,1,120
60,256,101518,2,0,L|104:253,1,40
172,248,101668,2,0,L|216:245,1,40
472,288,101818,5,0,0:0:0:0:
292,200,101968,1,0,0:0:0:0:
368,364,102118,1,0,0:0:0:0:
376,332,102193,1,0,0:0:0:0:
384,304,102268,1,0,0:0:0:0:
336,120,102418,2,0,L|332:52,1,40
450,114,102568,1,0,0:0:0:0:
224,128,102718,2,0,L|220:32,2,80
100,248,103168,1,0,0:0:0:0:
128,168,103318,5,0,0:0:0:0:
88,161,103393,1,0,0:0:0:0:
51,175,103468,1,0,0:0:0:0:
25,204,103543,1,0,0:0:0:0:
16,252,103618,2,0,P|44:308|76:328,1,80
136,348,103843,2,0,L|236:344,1,80
304,352,104068,1,0,0:0:0:0:
432,80,104218,6,0,L|316:88,1,80
244,172,104518,2,0,P|212:156|192:136,1,40
120,160,104668,2,0,P|112:128|112:96,1,40
24,84,104818,6,0,P|60:40|104:20,1,80
192,64,105043,1,0,0:0:0:0:
244,84,105118,1,0,0:0:0:0:
304,80,105193,1,0,0:0:0:0:
356,52,105268,1,0,0:0:0:0:
304,188,105418,6,0,P|288:240|288:248,1,40
416,328,105568,1,0,0:0:0:0:
464,272,105643,1,0,0:0:0:0:
416,212,105718,2,0,P|396:236|392:256,1,40
320,344,105868,2,0,P|336:304|336:280,1,40
208,188,106018,6,0,P|224:240|224:248,1,40
96,328,106168,1,0,0:0:0:0:
48,272,106243,1,0,0:0:0:0:
96,212,106318,2,0,P|116:236|120:256,1,40
192,344,106468,2,0,P|176:304|176:280,1,40
216,84,106618,6,0,B|256:44|256:44|304:88,1,120
344,200,106918,1,0,0:0:0:0:
372,212,106993,1,0,0:0:0:0:
408,200,107068,1,0,0:0:0:0:
136,192,107218,5,0,0:0:0:0:
256,192,107368,1,0,0:0:0:0:
24,188,107518,1,0,0:0:0:0:
256,192,107668,2,0,L|256:32,1,160
340,112,108118,1,0,0:0:0:0:
164,112,108418,5,0,0:0:0:0:
164,112,108718,1,0,0:0:0:0:
164,112,108868,1,0,0:0:0:0:
88,260,109018,6,0,P|112:272|152:264,1,40
251,248,109168,2,0,P|231:247|212:252,1,40
344,304,109318,1,0,0:0:0:0:
416,260,109393,1,0,0:0:0:0:
416,180,109468,1,0,0:0:0:0:
464,120,109543,1,0,0:0:0:0:
464,120,109618,2,0,L|368:108,2,80
144,224,110068,6,0,L|136:52,1,160
44,128,110518,2,0,L|52:224,1,80
332,240,110818,6,0,L|328:184,1,40
244,276,110968,2,0,L|240:216,1,40
384,88,111118,6,0,L|384:128,1,40
460,144,111268,2,0,L|460:192,1,40
416,316,111418,6,0,P|380:328|344:324,1,40
192,172,111568,1,0,0:0:0:0:
256,116,111643,1,0,0:0:0:0:
324,156,111718,2,0,L|316:220,1,40
172,340,111868,5,0,0:0:0:0:
144,264,111943,1,0,0:0:0:0:
184,196,112018,2,0,P|200:200|232:240,1,40
340,340,112168,5,0,0:0:0:0:
368,264,112243,1,0,0:0:0:0:
328,196,112318,2,0,P|312:200|280:240,1,40
256,332,112468,2,0,L|256:280,1,40
256,68,112618,2,0,L|256:144,1,40
124,136,112768,5,0,0:0:0:0:
88,144,112843,1,0,0:0:0:0:
64,120,112918,1,0,0:0:0:0:
72,84,112993,1,0,0:0:0:0:
104,68,113068,1,0,0:0:0:0:
136,92,113143,1,0,0:0:0:0:
100,108,113218,2,0,P|88:168|96:224,1,80
101,300,113443,5,0,0:0:0:0:
148,322,113518,1,0,0:0:0:0:
199,314,113593,1,0,0:0:0:0:
242,279,113668,1,0,0:0:0:0:
300,258,113743,1,0,0:0:0:0:
345,268,113818,2,0,P|368:275|405:271,1,40
288,300,113968,5,0,0:0:0:0:
280,280,114043,1,0,0:0:0:0:
280,260,114118,1,0,0:0:0:0:
288,232,114193,1,0,0:0:0:0:
312,212,114268,1,0,0:0:0:0:
328,184,114343,1,0,0:0:0:0:
340,156,114418,2,0,L|328:104,1,40
48,200,114568,2,0,P|49:219|56:238,1,40
455,238,114718,2,0,P|462:219|464:200,1,40
120,52,114868,2,0,P|128:84|124:112,1,40
120,336,115018,5,0,0:0:0:0:
136,344,115093,1,0,0:0:0:0:
152,352,115168,1,0,0:0:0:0:
256,200,115318,1,0,0:0:0:0:
256,216,115393,1,0,0:0:0:0:
256,236,115468,1,0,0:0:0:0:
392,336,115618,1,0,0:0:0:0:
376,344,115693,1,0,0:0:0:0:
360,352,115768,1,0,0:0:0:0:
256,312,115918,5,0,0:0:0:0:
256,252,115993,1,0,0:0:0:0:
256,192,116068,1,0,0:0:0:0:
256,132,116143,1,0,0:0:0:0:
256,72,116218,1,0,0:0:0:0:
