osu file format v14

[General]
AudioFilename: audio.mp3
AudioLeadIn: 0
PreviewTime: 52542
Countdown: 0
SampleSet: Soft
StackLeniency: 0.7
Mode: 2
LetterboxInBreaks: 0
WidescreenStoryboard: 1

[Editor]
Bookmarks: 20142,24942,29742,34542,39342,53742,63342,72942,80142,87342,96942,106542,116142
DistanceSpacing: 1.8
BeatDivisor: 4
GridSize: 32
TimelineZoom: 2.9

[Metadata]
Title:Dopamine
TitleUnicode:ドーパミン
Artist:U1 overground
ArtistUnicode:U1 overground
Creator:Kukkai
Version:Zonda's Cup
Source:jubeat saucer fulfill
Tags:big_h_zonda_kit big h zonda kit 050 bighzonda bigh Vaqu Lacrima Myle rhythm video game electronic instrumental dubstep u1-asami 浅見祐一 yuichi asami dancedancerevolution 2014 sound voltex gravity wars plus
BeatmapID:4366710
BeatmapSetID:1928802

[Difficulty]
HPDrainRate:2
CircleSize:2.5
OverallDifficulty:6
ApproachRate:6
SliderMultiplier:1.2
SliderTickRate:0.5

[Events]
//Background and Video events
0,0,"u1.jpg",0,0
//Break Periods
//Storyboard Layer 0 (Background)
//Storyboard Layer 1 (Fail)
//Storyboard Layer 2 (Pass)
//Storyboard Layer 3 (Foreground)
//Storyboard Layer 4 (Overlay)
//Storyboard Sound Samples

[TimingPoints]
936,300,4,2,1,50,1,0
10536,-100,4,2,1,60,0,0
20136,-100,4,2,1,70,0,0
39336,-100,4,2,1,50,0,0
41736,-100,4,2,1,60,0,0
42936,-100,4,2,1,65,0,0
44136,-100,4,2,1,70,0,0
45036,-100,4,2,1,70,0,0
45336,-100,4,2,1,70,0,0
47436,-100,4,2,1,70,0,0
47736,-100,4,2,1,70,0,0
49836,-100,4,2,1,70,0,0
50136,-100,4,2,1,70,0,0
52236,-100,4,2,1,70,0,0
52536,-100,4,2,1,70,0,0
53736,-100,4,2,1,70,0,1
62736,-100,4,2,1,70,0,0
63336,-100,4,2,1,70,0,1
72936,-100,4,2,1,70,0,0
75336,-100,4,2,1,70,0,1
80136,-100,4,2,1,70,0,0
82536,-100,4,2,1,70,0,1
86136,-100,4,2,1,70,0,0
87336,-100,4,2,1,60,0,0
96936,-100,4,2,1,70,0,0
106536,-100,4,2,1,70,0,1
116136,-100,4,2,1,50,0,0

[Colours]
Combo1 : 255,255,151
Combo2 : 255,128,128
Combo3 : 210,170,255
Combo4 : 255,164,255

[HitObjects]
177,280,936,6,0,P|144:201|307:288,1,480,2|0,0:2|0:2,0:0:0:0:
85,286,2736,2,0,L|70:153,1,120,2|2,0:2|0:2,0:0:0:0:
192,122,3336,6,0,L|329:112,1,120,2|0,0:2|0:2,0:0:0:0:
131,119,4086,2,0,P|100:151|146:226,1,120,0|0,0:2|0:2,0:0:0:0:
180,217,4536,6,0,P|195:174|97:154,1,180,0|0,0:2|0:2,0:0:0:0:
335,280,5736,6,0,P|368:201|205:288,1,480,2|0,0:2|0:2,0:0:0:0:
427,286,7536,2,0,L|442:153,1,120,2|2,0:2|0:2,0:0:0:0:
320,122,8136,6,0,L|183:112,2,120,2|0|0,0:2|0:2|0:2,0:0:0:0:
383,126,8886,2,0,P|414:158|368:233,1,120,0|0,0:2|0:2,0:0:0:0:
332,217,9336,6,0,P|317:174|415:154,1,180,2|2,0:2|0:2,0:0:0:0:
438,214,9936,1,0,0:2:0:0:
415,154,10086,2,0,P|383:129|342:137,1,60,0|2,0:2|0:2,0:0:0:0:
220,218,10536,5,6,1:2:0:0:
342,239,10836,2,0,P|366:200|246:241,1,360,0|2,1:2|1:2,0:0:0:0:
359,219,12036,5,0,1:2:0:0:
238,211,12336,2,0,L|205:89,1,120,2|2,1:2|1:2,0:0:0:0:
326,79,12936,6,0,P|359:86|250:238,1,360,2|2,1:2|1:2,0:0:0:0:
145,233,14136,6,0,L|332:219,2,180,2|2|2,1:2|0:2|1:2,0:0:0:0:
262,98,15336,6,0,P|292:175|173:97,1,360,2|2,1:2|1:2,0:0:0:0:
274,93,16536,6,0,L|416:111,1,120,2|0,1:2|1:2,0:0:0:0:
274,93,17136,2,0,L|132:111,1,120,2|2,1:2|1:2,0:0:0:0:
275,159,17736,6,0,P|249:238|188:102,1,360,2|0,1:2|1:2,0:0:0:0:
256,192,18936,12,2,19836,0:2:0:0:
112,146,20136,6,0,L|250:146,1,120,4|0,1:1|1:2,0:0:0:0:
352,139,20736,1,0,1:2:0:0:
232,146,21036,1,2,1:1:0:0:
353,237,21336,6,0,L|215:237,1,120,0|0,1:2|1:2,0:0:0:0:
113,230,21936,1,0,1:2:0:0:
233,237,22236,1,2,1:2:0:0:
113,230,22536,6,0,P|69:198|121:146,1,120,0|0,1:2|1:2,0:0:0:0:
216,157,23136,1,0,1:2:0:0:
341,156,23436,1,2,1:3:0:0:
216,157,23736,6,0,P|172:189|224:241,1,120,0|0,1:2|1:2,0:0:0:0:
319,230,24336,1,0,1:2:0:0:
444,231,24636,1,0,1:2:0:0:
300,158,24936,6,0,L|159:149,1,120,4|0,1:1|1:2,0:0:0:0:
59,141,25536,1,0,1:2:0:0:
180,150,25836,1,2,1:1:0:0:
60,63,26136,6,0,L|201:54,1,120,0|0,1:2|1:2,0:0:0:0:
301,46,26736,1,0,1:2:0:0:
180,55,27036,1,2,1:2:0:0:
300,243,27336,6,0,P|350:216|355:153,1,120,0|0,1:2|1:2,0:0:0:0:
235,140,27936,2,0,L|360:126,1,120,0|2,1:2|1:3,0:0:0:0:
234,243,28536,2,0,L|224:161,1,60,0|0,1:2|3:2,0:0:0:0:
289,176,28836,2,0,L|299:94,1,60,0|0,1:2|3:2,0:0:0:0:
234,106,29136,2,0,L|104:101,1,120,0|2,3:2|0:2,0:0:0:0:
258,256,29736,6,0,L|390:250,1,120,4|0,1:1|1:2,0:0:0:0:
258,173,30336,2,0,L|126:167,1,120,0|2,1:2|1:1,0:0:0:0:
259,63,30936,6,0,P|305:91|220:221,1,240,0|0,1:2|1:2,0:0:0:0:
118,220,31836,1,2,1:2:0:0:
239,214,32136,6,0,L|488:210,1,240,0|0,1:2|1:2,0:0:0:0:
358,154,33036,1,2,1:3:0:0:
482,208,33336,6,0,L|499:73,1,120,0|0,1:2|1:2,0:0:0:0:
373,269,33936,2,0,L|356:134,1,120,0|0,1:2|1:2,0:0:0:0:
236,152,34536,6,0,L|382:143,1,120,4|0,1:1|1:2,0:0:0:0:
236,152,35136,2,0,L|90:143,1,120,0|2,1:2|1:1,0:0:0:0:
239,267,35736,6,0,P|313:258|349:112,1,240,0|0,1:2|1:2,0:0:0:0:
232,123,36636,1,2,1:2:0:0:
351,116,36936,6,0,L|86:102,1,240,0|0,1:2|1:2,0:0:0:0:
231,93,37836,1,2,1:3:0:0:
112,232,38136,6,0,L|259:237,1,120,0|0,1:2|1:2,0:0:0:0:
355,229,38736,1,2,1:2:0:0:
416,228,38886,1,2,0:2:0:0:
440,156,39036,1,0,1:2:0:0:
416,229,39186,1,0,3:2:0:0:
347,229,39336,6,0,P|350:51|352:229,1,540,4|8,0:1|0:1,0:0:0:0:
256,192,41736,12,12,43836,0:2:0:0:
209,205,44136,6,0,L|69:192,1,120,4|0,1:1|1:2,0:0:0:0:
149,154,44586,1,2,0:2:0:0:
210,138,44736,2,0,L|345:133,2,120,2|2|0,1:2|1:2|1:2,0:0:0:0:
88,253,45636,6,0,L|61:176,2,60,0|0|0,1:2|3:2|1:2,0:0:0:0:
209,256,46236,1,0,1:2:0:0:
330,256,46536,6,0,L|470:243,1,120,2|0,1:2|1:2,0:0:0:0:
390,205,46986,1,2,0:2:0:0:
329,189,47136,2,0,L|194:184,2,120,2|2|0,1:2|1:2|1:2,0:0:0:0:
451,304,48036,6,0,L|478:227,2,60,0|0|0,1:2|3:2|1:2,0:0:0:0:
330,307,48636,1,0,1:2:0:0:
210,231,48936,6,0,L|350:218,1,120,2|0,1:2|1:2,0:0:0:0:
270,180,49386,1,2,0:2:0:0:
209,164,49536,2,0,L|74:159,2,120,2|2|0,1:2|1:2|1:2,0:0:0:0:
331,279,50436,6,0,L|358:202,2,60,0|0|0,1:2|3:2|1:2,0:0:0:0:
210,282,51036,1,0,1:2:0:0:
83,278,51336,6,0,P|59:254|95:168,1,120,2|0,1:2|1:2,0:0:0:0:
136,160,51786,1,2,0:2:0:0:
198,159,51936,1,2,1:2:0:0:
321,118,52236,2,0,L|324:201,1,60,2|2,1:2|0:2,0:0:0:0:
109,154,53736,6,0,L|247:149,3,120,4|2|8|0,1:1|0:3|3:1|3:2,0:0:0:0:
351,242,54936,6,0,L|380:116,1,120,0|0,1:2|3:2,0:0:0:0:
257,91,55536,2,0,L|130:89,1,120,8|0,3:1|3:2,0:0:0:0:
258,203,56136,5,0,1:2:0:0:
378,205,56436,1,0,1:2:0:0:
415,101,56736,1,8,3:1:0:0:
378,205,57036,1,0,3:2:0:0:
259,202,57336,6,0,L|392:201,1,120,0|0,1:2|3:2,0:0:0:0:
318,157,57786,1,0,1:2:0:0:
258,126,57936,2,0,L|133:112,1,120,8|0,3:1|3:2,0:0:0:0:
118,49,58386,1,0,3:2:0:0:
189,48,58536,6,0,L|265:46,1,60,0|0,1:2|3:2,0:0:0:0:
189,48,58836,2,0,L|113:46,2,60,2|2|8,0:1|0:1|3:1,0:0:0:0:
310,56,59436,2,0,L|321:135,1,60,0|0,3:2|3:2,0:0:0:0:
257,171,59736,6,0,L|387:161,1,120,0|2,1:2|0:2,0:0:0:0:
254,258,60336,2,0,L|384:248,1,120,8|0,3:1|3:2,0:0:0:0:
254,203,60936,5,0,1:2:0:0:
134,205,61236,1,0,1:2:0:0:
97,101,61536,1,8,3:1:0:0:
134,205,61836,1,0,3:2:0:0:
253,202,62136,6,0,L|120:201,1,120,0|0,1:2|3:2,0:0:0:0:
194,157,62586,1,0,3:2:0:0:
133,128,62736,2,0,L|379:119,1,240,8|4,3:1|1:1,0:0:0:0:
254,220,63636,5,2,1:3:0:0:
133,128,63936,1,0,1:2:0:0:
254,220,64236,1,0,1:2:0:0:
133,128,64536,6,0,L|122:-5,1,120,0|0,1:2|1:2,0:0:0:0:
247,17,65136,1,0,1:2:0:0:
123,8,65436,1,0,1:2:0:0:
246,21,65736,5,0,1:2:0:0:
298,127,66036,1,0,1:2:0:0:
246,220,66336,1,0,1:2:0:0:
126,242,66636,1,0,1:2:0:0:
246,220,66936,6,0,L|378:217,1,120,0|0,1:2|1:2,0:0:0:0:
425,187,67386,1,0,3:2:0:0:
365,217,67536,2,0,L|246:220,1,120,0|0,1:2|1:2,0:0:0:0:
366,266,68136,5,4,1:1:0:0:
326,157,68436,1,0,1:2:0:0:
214,131,68736,1,0,1:2:0:0:
131,210,69036,1,0,1:2:0:0:
155,283,69336,6,0,L|303:276,1,120,0|2,1:2|1:2,0:0:0:0:
216,213,69786,1,2,3:2:0:0:
156,193,69936,2,0,L|136:64,1,120,0|0,1:2|1:1,0:0:0:0:
261,47,70536,6,0,L|391:56,1,120,0|0,1:2|1:2,0:0:0:0:
320,123,70986,1,0,3:2:0:0:
261,134,71136,2,0,L|131:143,1,120,0|0,1:2|1:2,0:0:0:0:
261,271,71736,6,0,L|280:198,1,60,0|0,1:2|3:2,0:0:0:0:
213,190,72036,1,0,1:2:0:0:
334,152,72336,2,0,L|353:79,1,60,0|0,1:0|3:2,0:0:0:0:
286,71,72636,2,0,L|305:-2,1,60,0|0,1:0|3:2,0:0:0:0:
374,283,72936,6,0,P|359:216|238:172,2,180,4|2|2,1:1|0:2|1:2,0:0:0:0:
255,292,74136,6,0,P|187:276|145:158,1,180,2|2,1:2|3:2,0:0:0:0:
200,108,74736,2,0,P|240:131|224:211,1,120,2|2,1:2|1:2,0:0:0:0:
92,259,75336,6,0,L|234:263,1,120,4|0,1:1|3:2,0:0:0:0:
273,216,75786,1,0,3:2:0:0:
211,262,75936,2,0,L|92:259,1,120,8|0,3:1|3:2,0:0:0:0:
214,182,76536,6,0,L|234:47,1,120,0|0,1:2|0:0,0:0:0:0:
111,212,77136,2,0,L|131:77,1,120,8|0,3:1|3:2,0:0:0:0:
252,68,77736,6,0,L|120:59,1,120,0|0,1:2|3:2,0:0:0:0:
112,33,78136,1,0,3:2:0:0:
132,59,78236,1,0,3:2:0:0:
177,65,78336,2,0,L|323:74,1,120,8|0,0:1|3:2,0:0:0:0:
236,150,78786,1,0,3:2:0:0:
300,245,78936,6,0,P|318:148|189:78,1,240,0|8,1:2|3:1,0:0:0:0:
151,74,79686,1,2,0:1:0:0:
213,74,79836,1,2,0:1:0:0:
355,241,80136,6,0,P|387:198|341:144,1,120,0|2,1:2|1:2,0:0:0:0:
294,138,80586,1,2,0:2:0:0:
355,147,80736,2,0,P|387:194|355:241,1,120,2|0,1:2|1:2,0:0:0:0:
235,219,81336,5,2,1:2:0:0:
355,196,81636,1,2,1:2:0:0:
444,139,81936,1,2,1:2:0:0:
390,56,82236,1,2,1:2:0:0:
270,136,82536,6,0,L|132:131,3,120,4|0|8|0,1:1|3:2|3:1|3:2,0:0:0:0:
28,224,83736,6,0,L|-1:98,1,120,0|0,1:2|3:2,0:0:0:0:
122,73,84336,2,0,L|249:71,1,120,8|0,3:1|3:2,0:0:0:0:
121,185,84936,5,0,1:2:0:0:
61,137,85236,1,0,3:2:0:0:
182,127,85536,1,8,3:1:0:0:
303,123,85836,1,0,3:2:0:0:
362,78,86136,6,0,L|229:79,1,120,0|0,3:0|3:2,0:0:0:0:
303,123,86586,1,0,3:2:0:0:
243,151,86736,2,0,L|118:165,1,120,0|0,3:0|3:0,0:0:0:0:
268,268,87336,6,0,P|327:255|216:223,1,360,2|2,1:2|0:2,0:0:0:0:
333,197,88536,2,0,L|79:177,1,240,2|8,1:2|0:1,0:0:0:0:
217,111,89436,1,2,0:2:0:0:
339,86,89736,6,0,L|191:74,2,120,2|2|8,1:2|0:2|0:1,0:0:0:0:
474,215,90786,1,0,0:2:0:0:
494,266,90936,6,0,P|454:268|361:113,1,240,2|8,1:2|0:1,0:0:0:0:
480,112,91836,1,0,0:2:0:0:
358,120,92136,6,0,P|296:101|114:137,1,240,2|8,1:2|0:1,0:0:0:0:
247,191,93036,1,2,0:2:0:0:
131,317,93336,2,0,P|82:277|145:122,1,240,2|8,1:2|0:1,0:0:0:0:
350,106,94536,6,0,P|278:116|363:191,1,240,2|8,1:2|0:1,0:0:0:0:
469,182,95436,1,2,0:2:0:0:
350,250,95736,6,0,L|99:258,1,240,2|8,1:2|0:1,0:0:0:0:
380,288,96936,6,0,L|391:152,1,120,4|2,1:1|1:2,0:0:0:0:
269,157,97536,2,0,L|126:151,1,120,2|2,1:2|1:2,0:0:0:0:
87,249,98136,6,0,L|223:250,1,120,0|2,1:2|1:2,0:0:0:0:
330,237,98736,2,0,L|341:101,1,120,2|2,1:2|1:2,0:0:0:0:
220,169,99336,6,0,L|209:33,1,120,2|2,1:2|1:2,0:0:0:0:
330,30,99936,2,0,L|465:29,1,120,2|2,1:2|1:2,0:0:0:0:
388,136,100536,6,0,L|245:134,1,120,0|2,1:2|1:2,0:0:0:0:
146,150,101136,2,0,L|131:288,1,120,2|2,1:2|1:2,0:0:0:0:
256,192,101736,12,2,106236,1:2:0:0:
132,284,106536,6,0,L|121:151,1,120,4|2,1:1|1:2,0:0:0:0:
198,169,106986,2,0,L|209:36,1,120,2|2,0:2|0:2,0:0:0:0:
137,48,107436,1,2,1:2:0:0:
259,249,107736,6,0,P|345:228|362:130,1,180,2|0,1:2|0:2,0:0:0:0:
306,137,108336,2,0,L|171:131,1,120,2|2,1:2|1:2,0:0:0:0:
310,255,108936,6,0,L|322:121,1,120,2|2,1:2|1:2,0:0:0:0:
259,131,109386,1,2,0:2:0:0:
200,129,109536,2,0,L|188:-5,1,120,2|2,1:2|1:2,0:0:0:0:
311,31,110136,6,0,L|443:39,3,120,2|2|2|2,1:2|1:2|1:2|1:2,0:0:0:0:
310,123,111336,6,0,P|295:180|313:253,1,120,2|2,1:2|1:2,0:0:0:0:
379,183,111786,2,0,P|394:240|376:313,1,120,0|0,0:2|0:2,0:0:0:0:
309,295,112236,1,2,1:2:0:0:
184,215,112536,6,0,L|318:211,2,120,2|2|2,1:2|1:2|1:2,0:0:0:0:
124,215,113286,1,0,0:2:0:0:
65,216,113436,1,2,1:2:0:0:
209,120,113736,6,0,P|262:125|307:179,1,120,4|2,1:2|1:2,0:0:0:0:
233,201,114186,2,0,P|180:206|135:260,1,120,0|0,0:2|0:2,0:0:0:0:
208,274,114636,1,2,1:2:0:0:
352,212,114936,6,0,P|405:207|450:153,1,120,4|6,1:2|1:2,0:0:0:0:
376,131,115386,2,0,P|323:126|278:72,1,120,0|2,0:2|0:2,0:0:0:0:
351,58,115836,1,6,1:2:0:0:
188,186,116136,5,4,1:1:0:0:
