osu file format v14

[General]
AudioFilename: audio.mp3
AudioLeadIn: 0
PreviewTime: 52542
Countdown: 0
SampleSet: Soft
StackLeniency: 0.7
Mode: 2
LetterboxInBreaks: 0
WidescreenStoryboard: 1

[Editor]
Bookmarks: 20142,24942,29742,34542,39342,53742,63342,72942,80142,87342,96942,106542,116142
DistanceSpacing: 1
BeatDivisor: 4
GridSize: 4
TimelineZoom: 2.300001

[Metadata]
Title:Dopamine
TitleUnicode:ドーパミン
Artist:U1 overground
ArtistUnicode:U1 overground
Creator:Kukkai
Version:Vaqu's Overdose
Source:jubeat saucer fulfill
Tags:big_h_zonda_kit big h zonda kit 050 bighzonda bigh Vaqu Lacrima Myle rhythm video game electronic instrumental dubstep u1-asami 浅見祐一 yuichi asami dancedancerevolution 2014 sound voltex gravity wars plus
BeatmapID:4009560
BeatmapSetID:1928802

[Difficulty]
HPDrainRate:5
CircleSize:4.1
OverallDifficulty:9.4
ApproachRate:9.4
SliderMultiplier:1.95
SliderTickRate:2

[Events]
//Background and Video events
0,0,"u1.jpg",0,0
//Break Periods
//Storyboard Layer 0 (Background)
//Storyboard Layer 1 (Fail)
//Storyboard Layer 2 (Pass)
//Storyboard Layer 3 (Foreground)
//Storyboard Layer 4 (Overlay)
//Storyboard Sound Samples

[TimingPoints]
936,300,4,2,1,50,1,0
10536,-100,4,2,1,60,0,0
20136,-100,4,2,1,70,0,0
20736,-40,4,2,1,70,0,0
21036,-66.6666666666667,4,2,1,70,0,0
21336,-100,4,2,1,70,0,0
39336,-100,4,2,1,50,0,0
41736,-100,4,2,1,60,0,0
42936,-100,4,2,1,65,0,0
44136,-100,4,2,1,70,0,0
45036,-45.4545454545455,4,2,1,70,0,0
45336,-100,4,2,1,70,0,0
47436,-45.4545454545455,4,2,1,70,0,0
47736,-100,4,2,1,70,0,0
49836,-45.4545454545455,4,2,1,70,0,0
50136,-100,4,2,1,70,0,0
52236,-45.4545454545455,4,2,1,70,0,0
52536,-100,4,2,1,70,0,0
52611,-100,4,2,1,5,0,0
53736,-45.4545454545455,4,2,1,70,0,1
54036,-100,4,2,1,70,0,1
57036,-33.3333333333333,4,2,1,70,0,1
57336,-100,4,2,1,70,0,1
58536,-45.4545454545455,4,2,1,70,0,1
58836,-100,4,2,1,70,0,1
62736,-100,4,2,1,70,0,0
63336,-100,4,2,1,70,0,1
66636,-33.3333333333333,4,2,1,70,0,1
66936,-100,4,2,1,70,0,1
72936,-100,4,2,1,70,0,0
75336,-100,4,2,1,70,0,1
80136,-100,4,2,1,70,0,0
82536,-100,4,2,1,70,0,1
86136,-100,4,2,1,70,0,0
87336,-100,4,2,1,60,0,0
96936,-100,4,2,1,70,0,0
106536,-100,4,2,1,70,0,1
116136,-100,4,2,1,50,0,0

[Colours]
Combo1 : 255,255,151
Combo2 : 255,128,128
Combo3 : 210,170,255
Combo4 : 255,164,255

[HitObjects]
255,252,936,5,2,0:2:0:0:
213,219,1011,1,0,0:2:0:0:
257,193,1086,1,0,0:2:0:0:
302,177,1161,1,0,0:2:0:0:
256,138,1236,1,0,0:2:0:0:
153,76,1386,5,2,0:2:0:0:
153,124,1461,1,0,0:2:0:0:
153,173,1536,1,0,0:2:0:0:
289,190,1686,1,0,0:2:0:0:
151,219,1836,1,2,0:2:0:0:
150,267,1911,1,0,0:2:0:0:
150,316,1986,1,0,0:2:0:0:
386,328,2136,6,0,L|384:217,1,97.5,0|2,0:2|0:2,0:0:0:0:
252,183,2436,1,0,0:2:0:0:
252,134,2511,1,0,0:2:0:0:
252,85,2586,1,0,0:2:0:0:
372,80,2736,1,2,0:2:0:0:
323,80,2811,1,0,0:2:0:0:
274,80,2886,1,0,0:2:0:0:
380,92,3036,1,2,0:2:0:0:
428,92,3111,1,0,0:2:0:0:
477,92,3186,1,0,0:2:0:0:
256,195,3336,6,0,L|319:195,1,48.75,2|0,0:2|0:2,0:0:0:0:
353,194,3486,1,0,0:2:0:0:
231,193,3636,1,0,0:2:0:0:
353,194,3786,1,2,0:2:0:0:
354,242,3861,1,0,0:2:0:0:
355,291,3936,1,0,0:2:0:0:
224,304,4086,1,0,0:2:0:0:
360,308,4236,1,2,0:2:0:0:
409,307,4311,1,0,0:2:0:0:
360,308,4386,1,0,0:2:0:0:
98,309,4536,5,0,0:2:0:0:
219,280,4686,1,2,0:2:0:0:
265,274,4761,1,0,0:2:0:0:
289,233,4836,1,0,0:2:0:0:
270,190,4911,1,0,0:2:0:0:
224,179,4986,1,0,0:2:0:0:
335,113,5136,2,0,L|422:113,1,48.75,2|0,0:2|0:2,0:0:0:0:
433,112,5286,1,0,0:2:0:0:
311,52,5436,2,0,L|224:52,1,48.75,2|0,0:2|0:2,0:0:0:0:
213,51,5586,1,0,0:2:0:0:
478,152,5736,6,0,L|479:226,1,48.75,2|0,0:2|0:2,0:0:0:0:
433,222,5886,1,0,0:2:0:0:
316,223,6036,1,0,0:2:0:0:
433,222,6186,2,0,L|435:165,1,48.75,2|0,0:2|0:2,0:0:0:0:
386,153,6336,1,0,0:2:0:0:
266,147,6486,1,0,0:2:0:0:
386,153,6636,1,2,0:2:0:0:
434,155,6711,1,0,0:2:0:0:
483,157,6786,1,0,0:2:0:0:
266,147,6936,5,0,0:2:0:0:
378,102,7086,2,0,L|428:103,2,48.75,2|0|0,0:2|0:2|0:2,0:0:0:0:
261,100,7386,1,0,0:2:0:0:
137,77,7536,1,2,0:2:0:0:
185,77,7611,1,0,0:2:0:0:
234,77,7686,1,0,0:2:0:0:
116,168,7836,1,2,0:2:0:0:
164,167,7911,1,0,0:2:0:0:
213,167,7986,1,0,0:2:0:0:
7,252,8136,6,0,L|71:252,1,48.75,2|0,0:2|0:2,0:0:0:0:
103,251,8286,1,0,0:2:0:0:
236,251,8436,1,0,0:2:0:0:
103,251,8586,2,0,L|51:251,1,48.75,2|0,0:2|0:2,0:0:0:0:
58,193,8736,1,0,0:2:0:0:
192,193,8886,1,0,0:2:0:0:
337,191,9036,2,0,L|223:190,1,97.5,2|0,0:2|0:2,0:0:0:0:
458,183,9336,6,0,L|466:126,1,48.75,2|0,0:2|0:2,0:0:0:0:
394,117,9486,2,0,L|379:65,1,48.75,0|0,0:2|0:2,0:0:0:0:
461,66,9636,1,0,0:2:0:0:
349,47,9786,6,0,L|290:36,1,48.75,2|0,0:2|0:2,0:0:0:0:
444,27,9936,2,0,L|362:15,1,48.75,0|0,0:2|0:2,0:0:0:0:
249,68,10086,2,0,L|186:72,1,48.75,0|0,0:2|0:2,0:0:0:0:
440,100,10236,2,0,L|373:104,1,48.75,2|0,0:2|0:2,0:0:0:0:
199,128,10386,2,0,L|251:136,1,48.75,0|0,0:2|0:2,0:0:0:0:
446,155,10536,6,0,L|445:262,1,97.5,6|0,1:2|0:2,0:0:0:0:
387,252,10761,1,2,0:2:0:0:
328,253,10836,1,0,1:2:0:0:
193,251,10986,1,2,0:2:0:0:
328,253,11136,1,2,1:2:0:0:
271,253,11211,1,0,0:2:0:0:
210,252,11286,1,0,0:2:0:0:
328,174,11436,2,0,L|450:177,1,97.5,0|0,1:2|0:2,0:0:0:0:
207,121,11736,5,2,1:2:0:0:
325,120,11886,2,0,L|381:119,2,48.75,0|2|0,0:2|0:2|1:2,0:0:0:0:
207,121,12186,1,2,0:2:0:0:
436,120,12336,2,0,L|441:174,1,48.75,2|0,1:2|0:0,0:0:0:0:
396,184,12486,1,2,0:2:0:0:
170,222,12636,2,0,L|295:225,1,97.5,2|2,1:2|0:2,0:0:0:0:
30,322,12936,6,0,L|145:321,1,97.5,2|0,1:2|0:2,0:0:0:0:
284,263,13161,2,0,L|180:264,1,97.5,2|0,0:2|0:0,0:0:0:0:
31,256,13386,1,2,0:2:0:0:
146,189,13536,2,0,L|252:189,1,97.5,2|0,1:2|0:2,0:0:0:0:
108,106,13836,2,0,L|284:108,1,146.25,2|0,1:2|0:2,0:0:0:0:
441,103,14136,6,0,L|449:209,1,97.5,2|0,1:2|0:2,0:0:0:0:
296,234,14361,2,0,L|297:342,1,97.5,2|0,0:2|0:0,0:0:0:0:
448,332,14586,2,0,L|450:264,1,48.75,2|0,0:2|0:2,0:0:0:0:
277,235,14736,2,0,L|161:237,1,97.5,2|2,1:2|0:2,0:0:0:0:
397,137,15036,1,2,1:2:0:0:
445,133,15111,1,0,0:2:0:0:
494,129,15186,1,2,0:2:0:0:
242,90,15336,6,0,L|353:93,1,97.5,2|0,1:2|0:2,0:0:0:0:
290,117,15561,1,2,0:2:0:0:
231,137,15636,1,0,1:2:0:0:
347,200,15786,1,2,0:2:0:0:
126,200,15936,1,2,1:2:0:0:
174,199,16011,1,0,0:2:0:0:
223,199,16086,1,0,0:2:0:0:
107,103,16236,2,0,L|212:103,1,97.5,2|0,1:2|0:2,0:0:0:0:
468,108,16536,5,2,1:2:0:0:
350,104,16686,2,0,L|296:103,2,48.75,0|2|0,0:2|0:2|1:2,0:0:0:0:
468,108,16986,1,2,0:2:0:0:
232,170,17136,2,0,L|375:168,1,97.5,2|2,1:2|0:2,0:0:0:0:
211,256,17436,2,0,L|143:256,2,48.75,2|0|2,1:2|0:0|0:2,0:0:0:0:
439,260,17736,6,0,L|444:132,1,97.5,2|0,1:2|0:2,0:0:0:0:
295,133,17961,2,0,L|283:-9,1,97.5,2|0,0:2|0:0,0:0:0:0:
439,39,18186,2,0,L|376:37,1,48.75,2|0,0:2|0:2,0:0:0:0:
229,58,18336,2,0,L|99:57,1,97.5,2|0,1:2|0:2,0:0:0:0:
356,157,18636,2,0,L|431:158,2,48.75,0|0|0,1:2|0:0|0:2,0:0:0:0:
112,155,18936,6,0,B|95:246|101:227,2,65,2|2|2,0:2|0:2|0:2,0:0:0:0:
184,145,19236,6,0,B|247:218,2,65,2|2|2,0:2|0:2|0:2,0:0:0:0:
103,149,19536,6,0,B|40:163,2,65,2|2|2,0:2|0:2|0:2,0:0:0:0:
176,102,19836,6,0,L|261:113,2,65,2|2|2,0:2|0:2|0:2,0:0:0:0:
342,318,20136,6,0,P|387:294|349:220,1,146.25,4|0,1:1|3:2,0:0:0:0:
174,181,20436,2,0,L|113:177,1,48.75,0|0,1:2|3:2,0:0:0:0:
284,126,20586,2,0,L|349:124,1,48.75,0|0,3:2|3:2,0:0:0:0:
176,61,20736,2,0,L|426:61,1,243.75,0|0,1:2|3:2,0:0:0:0:
176,156,21036,2,0,L|96:156,1,73.1250027894975,2|2,1:1|0:1,0:0:0:0:
272,248,21186,2,0,L|352:248,1,73.1250027894975,2|2,0:1|0:1,0:0:0:0:
191,78,21336,6,0,L|73:77,1,97.5,0|0,1:2|3:2,0:0:0:0:
235,78,21561,1,0,3:2:0:0:
368,76,21636,1,0,1:2:0:0:
380,127,21711,1,0,3:2:0:0:
242,197,21786,1,0,3:2:0:0:
234,256,21861,1,0,3:2:0:0:
406,297,21936,2,0,L|278:291,1,97.5,0|0,1:2|3:2,0:0:0:0:
96,160,22236,1,2,1:2:0:0:
164,156,22311,1,2,0:2:0:0:
384,144,22386,1,2,0:2:0:0:
316,132,22461,1,2,0:2:0:0:
107,46,22536,6,0,L|233:39,1,97.5,0|0,1:2|3:2,0:0:0:0:
341,48,22761,1,0,3:2:0:0:
204,40,22836,1,0,1:2:0:0:
155,43,22911,1,0,3:2:0:0:
107,46,22986,1,0,3:2:0:0:
325,143,23136,2,0,L|435:145,1,97.5,0|0,1:2|3:2,0:0:0:0:
151,280,23436,5,2,1:3:0:0:
107,251,23511,1,2,0:3:0:0:
104,198,23586,1,2,0:3:0:0:
155,166,23661,1,2,0:3:0:0:
364,112,23736,6,0,L|465:111,1,97.5,0|0,1:2|3:2,0:0:0:0:
412,145,23961,1,0,3:2:0:0:
208,167,24036,2,0,L|344:167,1,97.5,0|0,1:2|3:2,0:0:0:0:
73,94,24336,1,0,1:2:0:0:
316,92,24486,1,0,3:2:0:0:
82,249,24636,1,0,1:2:0:0:
58,245,24673,1,0,3:2:0:0:
39,230,24711,1,0,3:2:0:0:
30,207,24748,1,0,3:2:0:0:
34,184,24786,1,0,3:2:0:0:
50,165,24823,1,0,3:2:0:0:
72,157,24861,1,0,3:2:0:0:
336,266,24936,6,0,P|376:225|331:152,1,146.25,4|0,1:1|3:2,0:0:0:0:
187,125,25236,2,0,L|127:127,1,48.75,0|0,1:2|3:2,0:0:0:0:
292,76,25386,2,0,L|343:73,1,48.75,0|0,3:2|3:2,0:0:0:0:
189,167,25536,2,0,L|45:173,1,97.5,0|0,1:2|3:2,0:0:0:0:
191,102,25836,2,0,L|247:99,1,48.75,2|2,1:1|0:1,0:0:0:0:
385,86,25986,2,0,L|457:80,1,48.75,2|2,0:1|0:1,0:0:0:0:
196,284,26136,6,0,P|147:255|91:229,1,97.5,0|0,1:2|3:2,0:0:0:0:
151,206,26361,1,0,3:2:0:0:
288,155,26436,2,0,L|296:91,1,48.75,0|0,1:2|3:2,0:0:0:0:
245,94,26586,1,0,3:2:0:0:
21,78,26736,2,0,L|139:75,1,97.5,0|0,1:2|3:2,0:0:0:0:
375,59,27036,5,2,1:2:0:0:
326,55,27111,1,2,0:2:0:0:
142,58,27186,1,2,0:2:0:0:
88,48,27261,1,2,0:2:0:0:
291,262,27336,6,0,P|339:224|299:193,1,97.5,0|0,1:2|3:2,0:0:0:0:
283,193,27561,1,0,3:2:0:0:
128,136,27636,2,0,L|118:87,1,48.75,0|0,1:2|3:2,0:0:0:0:
160,68,27786,1,0,3:2:0:0:
452,186,27936,2,0,L|322:189,1,97.5,0|0,1:2|3:2,0:0:0:0:
91,255,28236,2,0,L|88:165,1,48.75,2|2,1:3|0:3,0:0:0:0:
240,168,28386,2,0,L|298:166,1,48.75,2|2,0:3|0:3,0:0:0:0:
454,164,28536,6,0,P|459:106|377:59,1,146.25,0|0,1:2|3:2,0:0:0:0:
164,65,28836,2,0,L|85:63,1,48.75,0|0,1:2|3:2,0:0:0:0:
281,98,28986,2,0,L|333:103,1,48.75,0|0,3:2|3:2,0:0:0:0:
104,269,29136,2,0,L|88:166,1,97.5,0|0,3:2|3:2,0:0:0:0:
311,172,29436,1,2,0:2:0:0:
364,160,29511,1,2,0:2:0:0:
224,116,29586,1,2,0:2:0:0:
175,107,29661,1,2,0:2:0:0:
373,50,29736,6,0,L|384:164,1,97.5,4|0,1:1|3:2,0:0:0:0:
290,169,30036,1,0,1:2:0:0:
28,183,30186,2,0,L|22:282,1,97.5,0|0,3:2|1:2,0:0:0:0:
112,310,30486,1,0,3:2:0:0:
351,126,30636,1,2,1:1:0:0:
400,123,30711,1,2,0:1:0:0:
228,102,30786,1,2,0:1:0:0:
213,60,30861,1,2,0:1:0:0:
388,53,30936,6,0,L|388:154,1,97.5,0|0,1:2|3:2,0:0:0:0:
295,170,31236,2,0,L|393:173,1,97.5,0|0,1:2|3:2,0:0:0:0:
375,135,31461,1,0,3:2:0:0:
192,201,31536,2,0,L|171:68,1,97.5,0|0,1:2|3:2,0:0:0:0:
398,80,31836,1,2,1:2:0:0:
405,40,31911,1,2,0:2:0:0:
350,135,31986,1,2,0:2:0:0:
290,116,32061,1,2,0:2:0:0:
69,245,32136,6,0,P|23:214|93:145,1,146.25,0|0,1:2|3:2,0:0:0:0:
225,121,32436,2,0,L|327:120,1,97.5,0|0,1:2|3:2,0:0:0:0:
221,58,32736,2,0,L|98:52,1,97.5,0|0,1:2|3:2,0:0:0:0:
347,218,33036,2,0,L|350:157,1,48.75,2|2,1:3|0:3,0:0:0:0:
286,143,33186,2,0,L|280:86,1,48.75,2|2,0:3|0:3,0:0:0:0:
446,161,33336,6,0,P|495:112|421:75,1,146.25,0|0,1:2|3:2,0:0:0:0:
259,62,33636,2,0,L|150:66,1,97.5,0|0,1:2|3:2,0:0:0:0:
336,289,33936,2,0,L|353:170,1,97.5,0|0,1:2|0:2,0:0:0:0:
118,176,34236,2,0,L|111:67,1,97.5,0|0,1:2|3:2,0:0:0:0:
376,235,34536,6,0,L|384:123,1,97.5,4|0,1:1|3:2,0:0:0:0:
237,145,34761,2,0,L|226:42,1,97.5,0|0,3:2|3:2,0:0:0:0:
360,33,34986,1,0,3:2:0:0:
467,192,35136,2,0,L|455:366,1,146.25,0|0,1:2|3:2,0:0:0:0:
278,303,35436,2,0,L|223:293,1,48.75,2|2,1:1|0:1,0:0:0:0:
278,303,35586,2,0,L|333:292,1,48.75,2|2,0:1|0:1,0:0:0:0:
170,204,35736,6,0,L|51:187,1,97.5,0|0,1:2|3:2,0:0:0:0:
307,162,36036,1,0,1:2:0:0:
346,142,36111,2,0,L|354:86,1,48.75,0|0,3:2|3:2,0:0:0:0:
233,78,36336,2,0,L|248:199,1,97.5,0|0,1:2|3:2,0:0:0:0:
466,287,36636,2,0,L|476:220,1,48.75,2|2,1:2|0:2,0:0:0:0:
438,200,36786,2,0,L|373:195,1,48.75,2|2,0:2|0:2,0:0:0:0:
181,203,36936,6,0,L|171:91,1,97.5,0|0,1:2|3:2,0:0:0:0:
330,92,37161,2,0,L|437:79,1,97.5,0|0,3:2|3:2,0:0:0:0:
234,33,37386,1,0,3:2:0:0:
125,61,37536,2,0,L|134:173,1,97.5,0|0,1:2|3:2,0:0:0:0:
403,203,37836,2,0,L|492:213,1,48.75,2|2,1:3|0:3,0:0:0:0:
403,203,37986,2,0,L|332:197,1,48.75,2|2,0:3|0:3,0:0:0:0:
203,192,38136,6,0,L|185:78,1,97.5,0|0,1:2|3:2,0:0:0:0:
222,77,38361,1,0,3:2:0:0:
384,165,38436,2,0,L|398:65,1,97.5,0|0,1:2|3:2,0:0:0:0:
150,168,38736,2,0,L|77:161,1,48.75,2|2,1:2|0:2,0:0:0:0:
235,102,38886,2,0,L|309:95,1,48.75,2|2,0:2|0:2,0:0:0:0:
429,67,39036,2,0,L|372:56,1,48.75,0|0,1:2|0:0,0:0:0:0:
222,43,39186,2,0,L|158:37,1,48.75,0|0,3:2|3:2,0:0:0:0:
358,173,39336,5,4,0:1:0:0:
256,192,39411,12,0,41436,0:2:0:0:
161,91,41736,6,0,L|261:92,1,97.5,12|8,0:2|0:2,0:0:0:0:
160,164,42036,2,0,L|241:164,1,48.75,8|8,0:2|0:2,0:0:0:0:
258,165,42186,1,8,0:2:0:0:
160,164,42336,1,8,0:2:0:0:
417,168,42486,2,0,L|421:68,1,97.5,8|8,0:2|0:2,0:0:0:0:
317,62,42786,1,8,0:2:0:0:
69,137,42936,6,0,L|69:33,1,97.5,12|8,0:2|0:2,0:0:0:0:
113,39,43161,1,8,0:2:0:0:
292,276,43236,2,0,L|322:145,1,97.5,8|8,0:2|0:2,0:0:0:0:
271,172,43461,1,8,0:2:0:0:
103,244,43536,2,0,L|47:158,1,97.5,12|8,0:2|0:2,0:0:0:0:
78,147,43761,1,8,0:2:0:0:
304,288,43836,2,0,L|399:249,1,97.5,12|8,0:2|0:2,0:0:0:0:
352,210,44061,1,8,0:2:0:0:
180,252,44136,6,0,P|115:212|183:156,1,146.25,4|0,1:1|0:2,0:0:0:0:
277,137,44436,2,0,L|385:135,1,97.5,0|2,1:2|0:2,0:0:0:0:
152,87,44736,1,2,1:2:0:0:
48,90,44886,1,2,0:2:0:0:
301,81,45036,2,0,L|84:81,1,214.500006546021,2|2,1:2|0:2,0:0:0:0:
373,277,45336,6,0,P|416:240|367:171,1,146.25,0|0,1:2|0:0,0:0:0:0:
177,142,45636,2,0,L|139:140,1,24.375,0|0,1:2|3:2,0:0:0:0:
328,73,45786,2,0,L|358:70,1,24.375,0|0,3:2|3:2,0:0:0:0:
172,142,45936,2,0,L|57:146,1,97.5,0|0,1:2|0:2,0:0:0:0:
181,202,46236,2,0,L|297:209,1,97.5,0|0,1:2|0:2,0:0:0:0:
502,216,46536,6,0,L|487:57,1,146.25,2|0,1:2|0:2,0:0:0:0:
347,93,46836,2,0,L|338:197,1,97.5,0|2,1:2|0:2,0:0:0:0:
236,222,47136,2,0,L|345:214,1,97.5,2|2,1:2|0:2,0:0:0:0:
118,208,47436,2,0,L|350:215,1,214.500006546021,2|2,1:2|0:2,0:0:0:0:
114,268,47736,6,0,L|101:142,1,97.5,0|0,1:2|0:0,0:0:0:0:
155,168,47961,1,0,0:0:0:0:
302,167,48036,2,0,L|308:137,1,24.375,0|0,1:2|3:2,0:0:0:0:
112,95,48186,2,0,L|106:57,1,24.375,0|0,3:2|3:2,0:0:0:0:
312,55,48336,2,0,L|323:181,1,97.5,0|0,1:2|0:2,0:0:0:0:
212,302,48636,2,0,L|199:143,1,146.25,0|0,1:2|0:0,0:0:0:0:
39,175,48936,6,0,L|46:15,1,146.25,2|0,1:2|0:2,0:0:0:0:
189,209,49236,2,0,L|199:82,1,97.5,0|2,1:2|0:2,0:0:0:0:
301,85,49536,2,0,L|199:76,1,97.5,2|2,1:2|0:2,0:0:0:0:
420,48,49836,2,0,L|192:35,1,214.500006546021,2|2,1:2|0:2,0:0:0:0:
418,104,50136,6,0,L|416:208,1,97.5,0|0,1:2|0:0,0:0:0:0:
153,240,50436,2,0,L|186:235,1,24.375,0|0,1:2|3:2,0:0:0:0:
416,201,50586,2,0,L|379:195,1,24.375,0|0,3:2|3:2,0:0:0:0:
136,58,50736,2,0,L|32:58,1,97.5,0|0,1:2|0:2,0:0:0:0:
278,70,51036,2,0,L|387:66,1,97.5,0|0,1:2|0:2,0:0:0:0:
131,220,51336,6,0,P|87:177|131:113,1,146.25,2|0,1:2|0:2,0:0:0:0:
300,183,51636,2,0,L|310:75,1,97.5,0|2,1:2|0:2,0:0:0:0:
220,63,51936,2,0,L|344:67,1,97.5,2|2,1:2|0:2,0:0:0:0:
100,136,52236,2,0,L|334:138,1,214.500006546021,2|2,1:2|0:2,0:0:0:0:
101,191,52536,6,0,B|2:191|2:191|197:191|197:191|101:192|101:192|81:239|81:239|117:267|117:267|77:299|77:299|101:343,1,585,0|0,0:0|0:0,0:0:0:0:
161,106,53736,6,0,L|443:108,1,214.500006546021,4|0,1:1|3:2,0:0:0:0:
159,156,54036,2,0,L|97:155,1,48.75,2|2,0:3|0:3,0:0:0:0:
112,106,54186,2,0,L|161:106,1,48.75,2|2,0:3|0:3,0:0:0:0:
296,161,54336,2,0,L|406:160,1,97.5,8|0,3:1|3:2,0:0:0:0:
182,241,54636,2,0,L|50:241,1,97.5,0|0,3:2|3:2,0:0:0:0:
296,241,54936,5,0,1:2:0:0:
181,200,55086,2,0,L|56:199,1,97.5,0|0,3:2|3:2,0:0:0:0:
59,185,55273,1,0,3:2:0:0:
48,159,55311,1,0,3:2:0:0:
54,137,55348,1,0,3:2:0:0:
89,116,55386,1,0,3:2:0:0:
124,108,55423,1,0,3:2:0:0:
164,115,55461,1,0,3:2:0:0:
198,133,55498,1,0,0:0:0:0:
360,236,55536,6,0,P|399:205|347:126,1,146.25,8|0,3:1|3:2,0:0:0:0:
193,100,55836,1,0,3:2:0:0:
257,96,55936,1,0,3:2:0:0:
322,93,56036,1,0,3:2:0:0:
155,181,56136,6,0,L|79:175,2,65,0|0|0,1:2|3:2|3:2,0:0:0:0:
241,182,56436,2,0,L|319:173,2,65,0|0|0,1:2|3:2|3:2,0:0:0:0:
75,185,56736,2,0,L|-4:181,2,65,8|0|0,3:1|3:2|3:2,0:0:0:0:
254,184,57036,2,0,L|481:176,2,195.00000743866,0|0|0,3:2|3:2|3:2,0:0:0:0:
65,187,57336,6,0,P|25:144|75:63,1,146.25,0|0,1:2|3:2,0:0:0:0:
216,72,57636,2,0,L|265:73,1,48.75,0|0,3:2|3:2,0:0:0:0:
314,73,57786,2,0,L|259:73,1,48.75,0|0,1:2|3:2,0:0:0:0:
429,240,57936,2,0,P|473:201|414:151,1,146.25,8|0,3:1|3:2,0:0:0:0:
239,146,58236,2,0,L|121:145,1,97.5,0|0,3:2|3:2,0:0:0:0:
256,94,58536,6,0,L|491:97,1,214.500006546021,0|0,1:2|3:2,0:0:0:0:
216,259,58836,2,0,L|206:197,1,48.75,2|2,0:1|0:1,0:0:0:0:
283,190,58986,2,0,L|289:139,1,48.75,2|2,0:1|0:1,0:0:0:0:
110,121,59136,2,0,L|4:112,1,97.5,8|0,3:1|3:2,0:0:0:0:
35,78,59361,1,0,3:2:0:0:
269,73,59436,2,0,L|347:71,2,48.75,0|0|0,3:2|3:2|3:2,0:0:0:0:
24,149,59736,6,0,L|185:153,1,146.25,0|0,1:2|3:2,0:0:0:0:
330,103,60036,2,0,L|382:103,1,48.75,2|2,0:2|0:2,0:0:0:0:
229,60,60186,2,0,L|162:60,1,48.75,2|2,0:2|0:2,0:0:0:0:
403,320,60336,2,0,P|441:286|388:200,1,146.25,8|0,3:1|3:2,0:0:0:0:
232,178,60636,2,0,L|172:179,2,48.75,0|0|0,3:2|3:2|3:2,0:0:0:0:
470,197,60936,6,0,L|475:77,1,97.5,0|0,1:2|3:2,0:0:0:0:
261,90,61236,2,0,L|146:94,1,97.5,0|0,1:2|3:2,0:0:0:0:
277,145,61536,2,0,L|378:150,1,97.5,8|0,3:1|3:2,0:0:0:0:
152,197,61836,2,0,L|34:208,1,97.5,0|0,3:2|3:2,0:0:0:0:
396,331,62136,6,0,P|444:276|378:236,1,146.25,0|0,1:2|3:2,0:0:0:0:
245,197,62436,2,0,L|234:122,1,48.75,0|0,3:2|3:2,0:0:0:0:
286,124,62586,1,0,3:2:0:0:
42,29,62736,2,0,L|40:348,1,292.5,8|0,3:1|0:0,0:0:0:0:
407,274,63336,6,0,L|410:140,1,97.5,4|0,1:1|3:2,0:0:0:0:
186,150,63636,2,0,L|180:78,1,48.75,2|2,1:3|3:3,0:0:0:0:
231,77,63786,1,2,3:3:0:0:
16,308,63936,2,0,L|9:206,1,97.5,0|0,1:2|3:2,0:0:0:0:
251,202,64236,2,0,L|129:190,1,97.5,0|0,1:2|3:2,0:0:0:0:
387,125,64536,6,0,L|510:117,1,97.5,0|0,1:2|3:2,0:0:0:0:
236,278,64836,1,0,1:2:0:0:
212,275,64873,1,0,3:2:0:0:
191,261,64911,1,0,3:2:0:0:
179,241,64948,1,0,3:2:0:0:
177,216,64986,1,0,3:2:0:0:
186,194,65023,1,0,3:2:0:0:
203,178,65061,1,0,3:2:0:0:
227,171,65098,1,0,0:0:0:0:
403,172,65136,6,0,L|411:71,1,97.5,0|0,1:2|0:0,0:0:0:0:
175,39,65436,1,0,1:2:0:0:
126,41,65511,1,0,3:2:0:0:
126,41,65586,1,0,3:2:0:0:
174,38,65661,1,0,3:2:0:0:
378,53,65736,6,0,L|446:56,2,65,0|0|0,1:2|3:2|3:2,0:0:0:0:
284,85,66036,2,0,L|200:93,2,65,0|0|0,1:2|3:2|3:2,0:0:0:0:
447,103,66336,2,0,L|521:105,2,65,0|0|0,1:2|3:2|3:2,0:0:0:0:
232,134,66636,2,0,L|29:138,2,195.00000743866,0|0|0,1:2|3:2|3:2,0:0:0:0:
442,263,66936,6,0,P|478:186|437:114,1,146.25,0|0,1:2|3:2,0:0:0:0:
265,94,67236,2,0,L|197:92,1,48.75,0|0,1:2|3:2,0:0:0:0:
295,48,67386,2,0,L|364:47,1,48.75,0|0,3:2|3:2,0:0:0:0:
187,219,67536,2,0,L|133:51,1,146.25,0|0,1:2|3:2,0:0:0:0:
343,57,67836,2,0,L|219:57,1,97.5,0|0,1:2|3:2,0:0:0:0:
486,254,68136,6,0,L|488:151,1,97.5,4|0,1:1|3:2,0:0:0:0:
150,111,68436,2,0,L|248:103,1,97.5,0|0,1:2|3:2,0:0:0:0:
366,87,68736,2,0,L|245:77,1,97.5,0|0,1:2|3:2,0:0:0:0:
35,60,69036,2,0,L|163:52,1,97.5,0|0,1:2|3:2,0:0:0:0:
392,254,69336,6,0,L|408:143,1,97.5,0|0,1:2|3:2,0:0:0:0:
355,133,69561,1,0,3:2:0:0:
132,85,69636,2,0,L|203:83,1,48.75,2|2,1:2|3:2,0:0:0:0:
325,74,69786,2,0,L|382:68,1,48.75,2|2,3:2|3:2,0:0:0:0:
176,246,69936,2,0,P|127:205|179:166,1,146.25,0|0,1:2|3:2,0:0:0:0:
376,167,70236,2,0,L|445:167,2,48.75,0|0|0,1:1|3:1|3:1,0:0:0:0:
145,131,70536,6,0,L|317:130,1,146.25,0|0,1:2|3:2,0:0:0:0:
136,224,70836,2,0,L|136:88,1,97.5,0|0,1:2|3:2,0:0:0:0:
416,145,71136,2,0,L|494:143,2,65,0|0|0,1:2|3:2|3:2,0:0:0:0:
238,101,71436,1,0,1:2:0:0:
336,95,71536,1,0,3:2:0:0:
434,87,71636,1,0,3:2:0:0:
241,193,71736,6,0,L|121:194,1,97.5,0|0,1:2|3:2,0:0:0:0:
355,200,72036,1,0,1:2:0:0:
358,175,72073,1,0,3:2:0:0:
356,151,72111,1,0,3:2:0:0:
347,129,72148,1,0,3:2:0:0:
332,109,72186,1,0,3:2:0:0:
313,94,72223,1,0,3:2:0:0:
291,84,72261,1,0,3:2:0:0:
267,81,72298,1,0,0:0:0:0:
104,119,72336,6,0,L|-3:117,1,97.5,0|0,1:0|3:2,0:0:0:0:
247,193,72636,2,0,L|354:188,1,97.5,0|0,1:0|3:2,0:0:0:0:
101,320,72936,6,0,L|89:207,1,97.5,4|0,1:1|0:2,0:0:0:0:
215,178,73236,1,0,1:2:0:0:
455,157,73386,2,0,L|467:27,1,97.5,2|0,0:2|1:2,0:0:0:0:
348,166,73686,1,2,0:2:0:0:
122,106,73836,2,0,L|21:109,1,97.5,2|2,1:2|0:2,0:0:0:0:
323,263,74136,6,0,L|331:147,1,97.5,2|0,1:2|0:2,0:0:0:0:
227,133,74436,2,0,L|329:129,1,97.5,2|2,1:2|3:2,0:0:0:0:
212,84,74736,2,0,L|97:82,1,97.5,2|0,1:2|0:2,0:0:0:0:
376,47,75036,2,0,L|491:46,1,97.5,2|0,1:2|0:2,0:0:0:0:
176,298,75336,6,0,P|139:250|184:163,1,146.25,4|0,1:1|3:2,0:0:0:0:
323,154,75636,2,0,L|331:92,1,48.75,0|0,3:2|3:2,0:0:0:0:
259,80,75786,2,0,L|247:31,1,48.75,0|0,3:2|3:2,0:0:0:0:
421,82,75936,2,0,L|431:21,1,48.75,8|0,3:1|3:2,0:0:0:0:
247,32,76086,1,0,3:2:0:0:
253,83,76161,1,0,3:2:0:0:
452,157,76236,2,0,P|461:220|455:348,1,146.25,0|0,3:2|3:2,0:0:0:0:
169,131,76536,6,0,L|31:133,1,97.5,0|0,1:2|3:2,0:0:0:0:
233,67,76761,2,0,L|348:67,1,97.5,0|0,3:2|3:2,0:0:0:0:
167,130,76986,2,0,L|84:130,1,48.75,0|0,3:2|3:2,0:0:0:0:
284,285,77136,2,0,P|347:260|274:97,1,292.5,8|0,3:1|0:0,0:0:0:0:
30,68,77736,6,0,L|184:69,1,130,0|0,1:2|0:0,0:0:0:0:
247,71,78036,1,0,3:2:0:0:
452,74,78136,1,0,3:2:0:0:
247,71,78236,1,0,3:2:0:0:
24,66,78336,2,0,L|22:179,1,97.5,8|0,0:1|0:2,0:0:0:0:
282,221,78636,2,0,L|413:222,1,97.5,0|0,3:2|3:2,0:0:0:0:
149,160,78936,6,0,L|283:162,1,97.5,0|2,1:2|0:2,0:0:0:0:
306,158,79161,1,2,0:2:0:0:
246,161,79236,2,0,L|134:161,1,97.5,2|2,0:2|0:2,0:0:0:0:
384,95,79536,2,0,L|484:98,1,97.5,8|2,3:1|0:1,0:0:0:0:
298,91,79761,1,2,0:1:0:0:
145,88,79836,1,2,0:1:0:0:
88,88,79911,1,2,0:1:0:0:
145,88,79986,1,0,3:2:0:0:
414,273,80136,6,0,L|427:149,1,97.5,0|0,1:2|0:2,0:0:0:0:
188,158,80436,1,2,1:2:0:0:
244,136,80511,1,0,0:2:0:0:
292,122,80586,1,2,0:2:0:0:
84,116,80736,1,2,1:2:0:0:
72,79,80886,1,0,0:2:0:0:
288,28,81036,1,0,1:2:0:0:
296,108,81186,1,0,0:2:0:0:
64,232,81336,6,0,L|16:232,2,48.75,2|0|2,1:2|0:2|0:2,0:0:0:0:
308,172,81636,1,2,1:2:0:0:
259,172,81711,1,0,3:2:0:0:
210,172,81786,1,2,3:2:0:0:
428,112,81936,2,0,L|488:108,1,48.75,2|0,1:2|0:2,0:0:0:0:
296,44,82086,2,0,L|224:44,1,48.75,2|0,0:2|0:2,0:0:0:0:
304,32,82236,2,0,L|376:32,1,48.75,2|0,1:2|0:2,0:0:0:0:
204,136,82386,2,0,L|144:136,1,48.75,2|0,0:2|0:2,0:0:0:0:
394,172,82536,6,0,L|517:171,1,97.5,4|0,1:1|3:2,0:0:0:0:
272,112,82836,2,0,L|219:108,1,48.75,0|0,3:2|3:2,0:0:0:0:
379,67,82986,2,0,L|440:66,1,48.75,0|0,3:2|3:2,0:0:0:0:
214,204,83136,2,0,L|104:197,1,97.5,8|0,3:1|3:2,0:0:0:0:
221,206,83436,1,0,3:2:0:0:
471,192,83586,1,0,3:2:0:0:
221,186,83736,6,0,L|104:180,1,97.5,0|0,1:2|3:2,0:0:0:0:
241,134,84036,1,0,3:2:0:0:
264,126,84073,1,0,3:2:0:0:
287,129,84111,1,0,3:2:0:0:
308,143,84148,1,0,3:2:0:0:
320,164,84186,1,0,3:2:0:0:
322,188,84223,1,0,3:2:0:0:
313,210,84261,1,0,3:2:0:0:
295,227,84298,1,0,0:0:0:0:
147,242,84336,5,8,3:1:0:0:
121,125,84486,1,0,3:2:0:0:
243,105,84636,2,0,L|256:34,1,48.75,0|0,3:2|3:2,0:0:0:0:
190,148,84786,2,0,L|177:76,1,48.75,0|0,3:2|3:2,0:0:0:0:
399,49,84936,6,0,P|456:104|388:136,1,146.25,0|0,1:2|3:2,0:0:0:0:
193,168,85236,2,0,L|263:172,1,48.75,0|0,3:2|3:2,0:0:0:0:
385,138,85386,2,0,L|309:134,1,48.75,0|0,3:2|3:2,0:0:0:0:
166,49,85536,2,0,P|103:89|181:149,1,195,8|0,3:1|3:2,0:0:0:0:
405,146,85986,1,0,3:2:0:0:
106,122,86136,5,0,3:0:0:0:
256,192,86286,12,0,87036,3:0:0:0:
147,89,87336,6,0,L|127:208,1,97.5,2|0,1:2|0:2,0:0:0:0:
240,208,87636,2,0,L|253:335,1,97.5,2|2,0:2|0:2,0:0:0:0:
142,324,87936,2,0,P|93:288|146:178,1,195,8|2,0:1|0:2,0:0:0:0:
228,191,88386,1,2,0:2:0:0:
461,194,88536,6,0,L|481:93,1,97.5,2|0,1:2|0:2,0:0:0:0:
356,78,88836,2,0,L|467:74,1,97.5,2|2,0:2|0:2,0:0:0:0:
339,120,89136,2,0,L|233:116,1,97.5,8|0,0:1|0:2,0:0:0:0:
462,88,89436,2,0,L|470:233,1,97.5,2|0,0:2|0:2,0:0:0:0:
193,179,89736,6,0,L|180:301,1,97.5,2|0,1:2|0:2,0:0:0:0:
289,303,90036,1,2,0:2:0:0:
57,167,90186,2,0,L|43:67,1,97.5,0|8,0:2|0:1,0:0:0:0:
165,63,90486,2,0,L|62:53,1,97.5,0|2,0:2|0:2,0:0:0:0:
319,167,90786,1,0,0:2:0:0:
207,123,90936,6,0,P|155:154|229:243,1,195,2|0,1:2|0:2,0:0:0:0:
318,242,91386,2,0,L|421:244,2,97.5,0|8|0,1:2|0:1|1:2,0:0:0:0:
93,239,91836,2,0,L|97:128,1,97.5,0|0,0:2|0:2,0:0:0:0:
349,122,92136,6,0,L|500:124,2,146.25,2|2|2,1:2|1:2|0:2,0:0:0:0:
121,66,92736,2,0,L|246:62,1,97.5,8|0,0:1|0:2,0:0:0:0:
99,124,93036,2,0,L|101:222,1,97.5,2|0,0:2|0:2,0:0:0:0:
357,259,93336,6,0,L|165:257,2,146.25,2|2|2,1:2|0:2|0:2,0:0:0:0:
105,124,93936,2,0,L|224:126,1,97.5,8|2,0:1|0:2,0:0:0:0:
296,73,94236,2,0,L|195:68,1,97.5,2|2,0:2|0:2,0:0:0:0:
408,272,94536,6,0,L|419:116,1,146.25,2|2,1:2|1:2,0:0:0:0:
209,139,94986,1,2,0:2:0:0:
441,118,95136,2,0,L|451:18,1,97.5,8|0,0:1|0:2,0:0:0:0:
344,219,95436,2,0,L|341:112,1,97.5,2|2,0:2|0:2,0:0:0:0:
244,297,95736,6,0,L|166:297,1,48.75,2|2,1:2|0:2,0:0:0:0:
159,258,95886,2,0,L|146:201,1,48.75,2|2,0:2|0:2,0:0:0:0:
307,184,96036,2,0,L|369:177,1,48.75,2|2,0:2|0:2,0:0:0:0:
385,141,96186,2,0,L|394:87,1,48.75,2|2,1:2|0:2,0:0:0:0:
214,86,96336,6,0,L|154:80,1,48.75,8|2,0:1|0:2,0:0:0:0:
232,50,96486,2,0,L|311:46,1,48.75,2|2,1:2|0:2,0:0:0:0:
88,112,96636,2,0,L|104:187,3,48.75,2|2|2|2,0:2|0:2|0:2|0:2,0:0:0:0:
302,302,96936,6,0,L|312:162,1,97.5,4|0,1:1|0:2,0:0:0:0:
262,186,97161,1,0,0:2:0:0:
111,167,97236,2,0,L|106:66,1,97.5,2|2,1:2|0:2,0:0:0:0:
206,51,97536,2,0,L|268:54,2,48.75,2|0|2,1:2|0:2|0:2,0:0:0:0:
412,64,97836,2,0,L|420:205,1,97.5,2|2,1:2|0:2,0:0:0:0:
207,233,98136,6,0,L|210:102,1,97.5,0|2,1:2|0:2,0:0:0:0:
251,121,98361,1,0,0:2:0:0:
393,115,98436,2,0,L|408:241,1,97.5,2|0,1:2|0:2,0:0:0:0:
306,233,98736,2,0,L|430:239,1,97.5,2|0,1:2|0:2,0:0:0:0:
154,82,99036,2,0,L|282:93,1,97.5,2|2,1:2|0:2,0:0:0:0:
34,251,99336,6,0,L|36:143,1,97.5,2|0,1:2|0:2,0:0:0:0:
88,156,99561,1,0,0:2:0:0:
278,117,99636,2,0,L|396:119,1,97.5,2|2,1:2|0:2,0:0:0:0:
163,66,99936,2,0,L|46:60,1,97.5,2|2,1:2|0:2,0:0:0:0:
162,112,100236,2,0,L|277:117,1,97.5,2|2,1:2|0:2,0:0:0:0:
468,260,100536,6,0,L|469:161,1,97.5,0|2,1:2|0:2,0:0:0:0:
416,164,100761,1,0,0:2:0:0:
200,160,100836,2,0,L|199:39,1,97.5,2|0,1:2|0:2,0:0:0:0:
433,58,101136,2,0,L|326:57,1,97.5,2|0,1:2|0:0,0:0:0:0:
224,70,101436,2,0,L|337:70,1,97.5,2|2,1:2|0:2,0:0:0:0:
84,265,101736,6,0,L|87:155,1,97.5,2|2,1:2|0:2,0:0:0:0:
316,141,102036,2,0,L|240:140,1,48.75,2|0,1:2|0:2,0:0:0:0:
84,134,102186,1,0,0:2:0:0:
186,81,102336,2,0,L|82:80,1,97.5,2|2,1:2|0:2,0:0:0:0:
309,31,102636,2,0,L|421:32,1,97.5,2|0,1:2|0:2,0:0:0:0:
178,102,102936,6,0,L|176:206,1,97.5,2|0,1:2|0:2,0:0:0:0:
384,220,103236,2,0,L|433:220,1,48.75,2|0,1:2|0:2,0:0:0:0:
432,168,103386,2,0,L|375:168,1,48.75,0|0,0:2|0:2,0:0:0:0:
204,167,103536,2,0,L|206:59,1,97.5,2|0,1:2|0:2,0:0:0:0:
352,65,103761,2,0,L|417:66,1,48.75,0|2,0:2|1:2,0:0:0:0:
352,65,103911,2,0,L|281:64,1,48.75,0|2,0:2|0:2,0:0:0:0:
352,65,104061,1,0,0:2:0:0:
498,67,104136,6,0,L|498:207,1,97.5,2|0,1:2|0:2,0:0:0:0:
441,168,104361,1,0,0:2:0:0:
228,122,104436,2,0,L|119:120,1,97.5,2|2,1:2|0:2,0:0:0:0:
161,68,104661,1,0,0:2:0:0:
360,71,104736,2,0,L|366:203,1,97.5,2|2,1:2|0:2,0:0:0:0:
254,203,105036,2,0,L|179:201,2,48.75,2|0|0,1:2|0:2|0:2,0:0:0:0:
34,203,105336,6,0,L|35:98,1,97.5,2|0,1:2|0:2,0:0:0:0:
183,99,105561,1,0,0:2:0:0:
231,100,105636,1,2,1:2:0:0:
280,102,105711,1,0,0:2:0:0:
128,58,105786,1,0,0:2:0:0:
184,60,105861,1,0,0:2:0:0:
356,56,105936,1,2,1:2:0:0:
404,56,106011,1,0,0:2:0:0:
404,56,106086,1,0,0:2:0:0:
356,56,106161,1,0,0:2:0:0:
126,216,106236,2,0,L|75:216,1,48.75,2|0,1:2|0:2,0:0:0:0:
229,149,106386,2,0,L|231:101,1,48.75,0|0,0:2|0:2,0:0:0:0:
363,178,106536,5,4,1:1:0:0:
363,178,106686,1,2,0:2:0:0:
248,180,106836,1,2,1:2:0:0:
200,180,106911,1,0,0:2:0:0:
248,180,106986,1,2,0:2:0:0:
456,176,107136,2,0,L|356:176,1,97.5,2|2,1:2|0:2,0:0:0:0:
244,176,107436,2,0,L|384:176,1,97.5,2|2,1:2|0:2,0:0:0:0:
128,120,107736,5,2,1:2:0:0:
119,73,107811,1,0,0:2:0:0:
148,35,107886,1,0,0:2:0:0:
195,30,107961,1,0,0:2:0:0:
376,100,108036,2,0,L|377:207,1,97.5,2|0,1:2|0:2,0:0:0:0:
320,200,108261,1,0,0:2:0:0:
168,280,108336,2,0,P|140:232|188:204,1,97.5,2|0,1:2|0:2,0:0:0:0:
381,209,108636,1,2,1:2:0:0:
156,204,108786,1,2,0:2:0:0:
380,152,108936,5,2,1:2:0:0:
476,156,109086,1,2,0:2:0:0:
248,180,109236,1,2,1:2:0:0:
200,180,109311,1,0,0:2:0:0:
248,180,109386,1,2,0:2:0:0:
456,176,109536,2,0,L|456:288,1,97.5,2|2,1:2|0:2,0:0:0:0:
348,292,109836,2,0,L|488:292,1,97.5,2|2,1:2|0:2,0:0:0:0:
228,292,110136,5,2,1:2:0:0:
176,288,110211,1,0,0:2:0:0:
236,288,110286,1,0,0:2:0:0:
283,282,110361,1,0,0:2:0:0:
136,100,110436,2,0,L|135:207,1,97.5,2|0,1:2|0:2,0:0:0:0:
192,200,110661,1,0,0:2:0:0:
344,280,110736,2,0,P|372:232|324:204,1,97.5,2|2,1:2|0:2,0:0:0:0:
131,209,111036,1,2,1:2:0:0:
356,204,111186,1,2,0:2:0:0:
132,145,111336,5,2,1:2:0:0:
76,145,111411,1,0,0:2:0:0:
133,99,111486,1,0,0:2:0:0:
189,99,111561,1,0,0:2:0:0:
133,99,111636,1,2,1:2:0:0:
77,100,111711,1,0,0:2:0:0:
132,145,111786,1,0,0:2:0:0:
188,145,111861,1,0,0:2:0:0:
396,68,111936,5,2,1:2:0:0:
452,68,112011,1,0,0:2:0:0:
396,68,112086,1,0,0:2:0:0:
340,68,112161,1,0,0:2:0:0:
205,184,112236,2,0,L|156:183,1,48.75,2|0,1:2|0:2,0:0:0:0:
159,130,112386,2,0,L|215:130,1,48.75,0|0,0:2|0:2,0:0:0:0:
394,269,112536,6,0,L|394:205,1,50,2|0,1:2|0:0,0:0:0:0:
361,189,112686,1,0,0:2:0:0:
305,189,112761,1,0,0:2:0:0:
129,135,112836,1,2,1:2:0:0:
130,90,112911,1,0,0:2:0:0:
310,54,112986,2,0,L|391:56,1,48.75,0|0,0:2|0:2,0:0:0:0:
203,273,113136,5,2,1:2:0:0:
147,273,113211,1,0,0:2:0:0:
147,273,113286,1,0,0:2:0:0:
203,273,113361,1,0,0:2:0:0:
356,269,113436,1,2,1:2:0:0:
355,219,113511,1,0,0:2:0:0:
198,196,113586,2,0,L|133:195,1,48.75,0|0,0:2|0:2,0:0:0:0:
324,140,113736,5,4,1:2:0:0:
380,140,113811,1,0,0:2:0:0:
431,141,113886,2,0,L|431:85,1,50,0|0,0:2|0:0,0:0:0:0:
378,89,114036,1,2,1:2:0:0:
322,86,114111,1,0,0:2:0:0:
156,90,114186,1,0,0:2:0:0:
105,91,114261,1,0,0:2:0:0:
240,196,114336,5,2,1:2:0:0:
296,196,114411,1,0,0:2:0:0:
438,183,114486,2,0,L|358:181,1,48.75,0|0,0:2|0:2,0:0:0:0:
240,196,114636,1,2,1:2:0:0:
92,200,114711,1,0,0:2:0:0:
240,196,114786,1,0,0:2:0:0:
296,196,114861,1,0,0:2:0:0:
456,195,114936,6,0,L|385:193,1,48.75,4|0,1:2|0:2,0:0:0:0:
263,147,115086,2,0,L|210:144,1,48.75,0|0,0:2|0:2,0:0:0:0:
269,93,115236,2,0,L|356:88,1,48.75,6|0,1:2|0:2,0:0:0:0:
155,79,115386,2,0,L|97:90,1,48.75,0|0,0:2|0:2,0:0:0:0:
263,147,115536,2,0,L|338:164,1,48.75,6|0,1:2|0:2,0:0:0:0:
462,215,115686,2,0,L|403:227,1,48.75,2|0,0:2|0:2,0:0:0:0:
220,305,115836,2,0,L|147:315,1,48.75,6|0,1:2|0:2,0:0:0:0:
328,231,115986,2,0,L|382:245,1,48.75,2|0,0:2|0:2,0:0:0:0:
152,180,116136,5,4,1:1:0:0:
256,192,116286,12,0,118536,0:2:0:0:
