osu file format v14

[General]
AudioFilename: audio.mp3
AudioLeadIn: 0
PreviewTime: 52542
Countdown: 0
SampleSet: Soft
StackLeniency: 0.7
Mode: 2
LetterboxInBreaks: 0
WidescreenStoryboard: 1

[Editor]
Bookmarks: 20142,24942,29742,34542,39342,53742,63342,72942,80142,87342,96942,99342,106542,116142
DistanceSpacing: 1
BeatDivisor: 4
GridSize: 4
TimelineZoom: 2.9

[Metadata]
Title:Dopamine
TitleUnicode:ドーパミン
Artist:U1 overground
ArtistUnicode:U1 overground
Creator:Kukkai
Version:Salad
Source:jubeat saucer fulfill
Tags:big_h_zonda_kit big h zonda kit 050 bighzonda bigh Vaqu Lacrima Myle rhythm video game electronic instrumental dubstep u1-asami 浅見祐一 yuichi asami dancedancerevolution 2014 sound voltex gravity wars plus
BeatmapID:4366711
BeatmapSetID:1928802

[Difficulty]
HPDrainRate:3
CircleSize:3
OverallDifficulty:7.1
ApproachRate:7.1
SliderMultiplier:1.2
SliderTickRate:1

[Events]
//Background and Video events
0,0,"u1.jpg",0,0
//Break Periods
//Storyboard Layer 0 (Background)
//Storyboard Layer 1 (Fail)
//Storyboard Layer 2 (Pass)
//Storyboard Layer 3 (Foreground)
//Storyboard Layer 4 (Overlay)
//Storyboard Sound Samples

[TimingPoints]
936,300,4,2,1,50,1,0
10536,-100,4,2,1,60,0,0
20136,-100,4,2,1,70,0,0
39336,-100,4,2,1,50,0,0
41736,-100,4,2,1,60,0,0
42936,-100,4,2,1,65,0,0
44136,-100,4,2,1,70,0,0
45036,-100,4,2,1,70,0,0
45336,-100,4,2,1,70,0,0
47436,-100,4,2,1,70,0,0
47736,-100,4,2,1,70,0,0
49836,-100,4,2,1,70,0,0
50136,-100,4,2,1,70,0,0
52236,-100,4,2,1,70,0,0
52536,-100,4,2,1,70,0,0
53736,-100,4,2,1,70,0,1
62736,-100,4,2,1,70,0,0
63336,-100,4,2,1,70,0,1
72936,-100,4,2,1,70,0,0
75336,-100,4,2,1,70,0,1
80136,-100,4,2,1,70,0,0
82536,-100,4,2,1,70,0,1
86136,-100,4,2,1,70,0,0
87336,-100,4,2,1,60,0,0
96936,-100,4,2,1,70,0,0
106536,-100,4,2,1,70,0,1
116136,-100,4,2,1,50,0,0

[Colours]
Combo1 : 255,255,151
Combo2 : 255,128,128
Combo3 : 210,170,255
Combo4 : 255,164,255

[HitObjects]
408,312,936,6,0,L|276:312,1,120,2|0,0:2|0:2,0:0:0:0:
348,312,1386,2,0,L|492:312,1,120,2|0,0:2|0:2,0:0:0:0:
408,312,1836,2,0,L|328:312,1,60,2|0,0:2|0:2,0:0:0:0:
228,308,2286,6,0,P|200:264|248:212,1,120,2|0,0:2|0:2,0:0:0:0:
296,216,2736,2,0,L|432:216,1,120,2|2,0:2|0:2,0:0:0:0:
164,360,3336,6,0,P|140:328|176:256,1,120,2|0,0:2|0:2,0:0:0:0:
228,256,3786,2,0,L|360:256,1,120,2|0,0:2|0:2,0:0:0:0:
288,256,4236,2,0,L|224:256,1,60,2|0,0:2|0:2,0:0:0:0:
108,248,4686,6,0,L|248:252,1,120,2|0,0:2|0:2,0:0:0:0:
288,256,5136,2,0,L|156:256,1,120,2|2,0:2|0:2,0:0:0:0:
424,192,5736,6,0,P|448:152|400:92,1,120,2|0,0:2|0:2,0:0:0:0:
352,276,6186,2,0,L|216:276,1,120,2|0,0:2|0:2,0:0:0:0:
172,276,6636,2,0,L|172:192,1,60,2|0,0:2|0:2,0:0:0:0:
292,216,7086,6,0,P|316:168|264:108,1,120,2|0,0:2|0:2,0:0:0:0:
224,116,7536,2,0,L|360:116,1,120,2|2,0:2|0:2,0:0:0:0:
92,368,8136,6,0,P|64:334|115:263,1,120,2|0,0:2|0:2,0:0:0:0:
152,266,8586,2,0,L|296:266,1,120,2|0,0:2|0:2,0:0:0:0:
332,266,9036,1,2,0:2:0:0:
212,266,9336,6,0,P|200:202|232:138,1,120,2|0,0:2|0:2,0:0:0:0:
280,154,9786,1,2,0:2:0:0:
340,158,9936,2,0,L|476:158,1,120,0|2,0:2|0:2,0:0:0:0:
208,364,10536,6,0,L|76:364,1,120,6|0,1:2|1:2,0:0:0:0:
148,364,10986,1,2,0:2:0:0:
208,364,11136,2,0,P|248:312|216:252,1,120,2|0,1:2|1:2,0:0:0:0:
112,268,11736,6,0,L|0:268,2,90,2|2|2,1:2|0:2|0:2,0:0:0:0:
172,268,12336,2,0,L|24:268,1,120,2|2,1:2|1:2,0:0:0:0:
308,280,12936,6,0,L|440:280,1,120,2|0,1:2|1:2,0:0:0:0:
368,280,13386,1,2,0:2:0:0:
308,284,13536,2,0,P|288:232|316:164,1,120,2|2,1:2|1:2,0:0:0:0:
428,172,14136,6,0,L|428:80,1,90,2|2,1:2|0:2,0:0:0:0:
340,76,14586,1,2,0:2:0:0:
280,76,14736,2,0,L|428:76,1,120,2|2,1:2|1:2,0:0:0:0:
148,240,15336,6,0,L|148:132,1,90,2|2,1:2|0:2,0:0:0:0:
236,140,15786,1,2,0:2:0:0:
176,140,15936,2,0,L|48:140,1,120,2|2,1:2|1:2,0:0:0:0:
180,280,16536,6,0,L|288:280,2,90,2|2|2,1:2|0:2|0:2,0:0:0:0:
120,280,17136,2,0,L|120:136,1,120,2|2,1:2|1:2,0:0:0:0:
376,144,17736,6,0,L|484:144,2,90,2|2|2,1:2|0:2|0:2,0:0:0:0:
316,144,18336,2,0,L|448:144,1,120,2|0,1:2|1:2,0:0:0:0:
180,368,18936,6,0,L|80:368,2,80,2|2|2,0:2|0:2|0:2,0:0:0:0:
260,368,19536,1,2,0:2:0:0:
340,368,19736,1,2,0:2:0:0:
340,288,19936,1,2,0:2:0:0:
160,136,20136,6,0,L|12:136,2,120,4|0|0,1:1|1:2|1:2,0:0:0:0:
280,128,21036,2,0,L|364:128,2,60,2|2|0,1:1|0:1|1:2,0:0:0:0:
160,124,21636,6,0,L|160:264,1,120,0|0,1:2|1:2,0:0:0:0:
280,244,22236,1,2,1:2:0:0:
220,244,22386,1,2,0:2:0:0:
160,248,22536,6,0,L|28:248,1,120,0|0,1:2|1:2,0:0:0:0:
160,244,23136,2,0,L|236:244,1,60,0|0,1:2|3:2,0:0:0:0:
280,244,23436,6,0,L|280:108,1,120,2|0,1:3|1:2,0:0:0:0:
160,132,24036,1,0,1:2:0:0:
220,132,24186,1,0,3:2:0:0:
280,132,24336,2,0,L|428:132,1,120,0|0,1:2|1:2,0:0:0:0:
136,364,24936,6,0,P|112:328|168:264,1,120,4|0,1:1|1:2,0:0:0:0:
268,268,25536,1,0,1:2:0:0:
388,268,25836,2,0,L|388:184,1,60,2|2,1:1|0:1,0:0:0:0:
328,208,26136,5,0,1:2:0:0:
208,208,26436,2,0,P|196:136|224:76,1,120,0|0,1:2|1:2,0:0:0:0:
332,92,27036,1,2,1:2:0:0:
272,92,27186,1,2,0:2:0:0:
212,92,27336,6,0,L|80:92,2,120,0|0|0,1:2|1:2|1:2,0:0:0:0:
332,92,28236,2,0,L|332:176,1,60,2|2,1:3|0:3,0:0:0:0:
272,152,28536,6,0,L|140:152,1,120,0|0,1:2|1:2,0:0:0:0:
272,148,29136,2,0,L|412:148,1,120,0|2,3:2|0:2,0:0:0:0:
132,352,29736,6,0,P|108:296|148:240,1,120,4|0,1:1|1:2,0:0:0:0:
252,232,30336,2,0,L|388:232,1,120,0|2,1:2|1:1,0:0:0:0:
312,232,30786,1,2,0:1:0:0:
252,236,30936,6,0,P|232:192|264:116,1,120,0|0,1:2|1:2,0:0:0:0:
372,116,31536,2,0,L|232:116,1,120,0|2,1:2|1:2,0:0:0:0:
192,116,31986,1,2,0:2:0:0:
132,116,32136,5,0,1:2:0:0:
252,112,32436,2,0,P|272:180|236:240,1,120,0|0,1:2|1:2,0:0:0:0:
192,228,32886,1,0,3:2:0:0:
132,228,33036,6,0,L|8:228,2,120,2|0|0,1:3|1:2|1:2,0:0:0:0:
252,228,33936,1,0,1:2:0:0:
192,228,34086,1,0,0:2:0:0:
132,228,34236,1,0,1:2:0:0:
372,224,34536,6,0,L|504:224,2,120,4|0|0,1:1|1:2|1:2,0:0:0:0:
252,220,35436,2,0,L|252:140,1,60,2|2,1:1|0:1,0:0:0:0:
312,160,35736,6,0,L|452:160,1,120,0|0,1:2|1:2,0:0:0:0:
312,160,36336,2,0,L|172:160,1,120,0|2,1:2|1:2,0:0:0:0:
252,160,36786,1,2,0:2:0:0:
312,160,36936,5,0,1:2:0:0:
432,160,37236,2,0,P|452:96|412:44,1,120,0|0,1:2|1:2,0:0:0:0:
368,52,37686,1,0,3:2:0:0:
308,52,37836,1,2,1:3:0:0:
188,56,38136,6,0,L|188:176,1,120,0|0,1:2|1:2,0:0:0:0:
248,176,38586,1,0,3:2:0:0:
308,176,38736,2,0,L|452:176,1,120,2|0,1:2|1:2,0:0:0:0:
184,356,39336,6,0,L|184:216,4,120,4|0|0|0|0,0:1|0:2|0:2|0:2|0:2,0:0:0:0:
328,308,40686,5,8,0:1:0:0:
388,308,40836,2,0,L|388:184,2,120,0|0|0,0:2|0:2|0:2,0:0:0:0:
148,304,41736,2,0,L|28:304,3,120,12|8|8|8,0:2|0:2|0:2|0:2,0:0:0:0:
276,296,42936,6,0,P|296:248|248:180,1,120,12|8,0:2|0:2,0:0:0:0:
208,192,43386,1,8,0:2:0:0:
148,188,43536,2,0,P|128:140|160:68,1,120,12|12,0:2|0:2,0:0:0:0:
392,348,44136,6,0,P|416:308|376:244,1,120,4|0,1:1|1:2,0:0:0:0:
324,244,44586,1,2,0:2:0:0:
264,244,44736,2,0,L|264:164,1,60,2|2,1:2|0:2,0:0:0:0:
396,188,45036,2,0,L|396:116,1,60,2|2,1:2|0:2,0:0:0:0:
212,368,45636,6,0,L|212:288,1,60,0|0,1:2|3:2,0:0:0:0:
272,312,45936,2,0,L|408:312,1,120,0|0,1:2|1:2,0:0:0:0:
148,248,46536,6,0,P|120:216|168:148,1,120,2|0,1:2|1:2,0:0:0:0:
208,152,46986,1,2,0:2:0:0:
268,156,47136,2,0,L|268:68,1,60,2|2,1:2|0:2,0:0:0:0:
136,96,47436,2,0,L|136:28,1,60,2|2,1:2|0:2,0:0:0:0:
320,360,48036,6,0,L|320:280,1,60,0|0,1:2|3:2,0:0:0:0:
260,300,48336,2,0,L|128:300,1,120,0|0,1:2|1:2,0:0:0:0:
384,236,48936,6,0,P|408:192|368:128,1,120,2|0,1:2|1:2,0:0:0:0:
320,136,49386,1,2,0:2:0:0:
380,136,49536,1,2,1:2:0:0:
440,136,49686,1,2,0:2:0:0:
304,344,49836,2,0,L|304:276,1,60,2|2,1:2|0:2,0:0:0:0:
488,288,50436,6,0,L|408:288,1,60,0|0,1:2|3:2,0:0:0:0:
368,292,50736,2,0,L|496:292,1,120,0|0,1:2|1:2,0:0:0:0:
248,204,51336,6,0,P|224:164|272:100,1,120,2|0,1:2|1:2,0:0:0:0:
316,108,51786,1,2,0:2:0:0:
256,108,51936,1,2,1:2:0:0:
196,108,52086,1,2,0:2:0:0:
332,288,52236,2,0,L|332:216,1,60,2|2,1:2|0:2,0:0:0:0:
96,276,53736,6,0,L|96:200,1,60,4|0,1:1|3:2,0:0:0:0:
156,216,54036,1,2,0:3:0:0:
300,128,54336,2,0,L|152:128,1,120,8|0,3:1|3:2,0:0:0:0:
240,128,54786,1,0,3:2:0:0:
300,124,54936,5,0,1:2:0:0:
360,124,55086,2,0,P|384:172|364:256,1,120,0|0,3:2|3:2,0:0:0:0:
316,240,55536,2,0,L|176:240,1,120,8|0,3:1|3:2,0:0:0:0:
440,168,56136,6,0,L|440:64,1,80,0|0,1:2|3:2,0:0:0:0:
360,92,56536,1,0,3:2:0:0:
184,100,56736,2,0,L|84:100,2,80,8|0|0,3:1|3:2|3:2,0:0:0:0:
360,340,57336,6,0,P|384:304|336:236,1,120,0|0,1:2|3:2,0:0:0:0:
292,240,57786,1,0,1:2:0:0:
232,240,57936,2,0,L|96:240,1,120,8|0,3:1|3:2,0:0:0:0:
352,132,58536,6,0,L|420:132,1,60,0|0,1:2|3:2,0:0:0:0:
352,132,58836,2,0,L|212:132,1,120,2|8,0:1|3:1,0:0:0:0:
352,128,59436,6,0,L|432:128,2,60,0|0|0,3:2|3:2|1:2,0:0:0:0:
232,124,60036,1,2,0:2:0:0:
292,124,60186,1,2,0:2:0:0:
352,120,60336,2,0,L|412:240,1,120,8|0,3:1|3:2,0:0:0:0:
164,240,60936,6,0,L|96:240,2,60,0|0|0,1:2|3:2|1:2,0:0:0:0:
224,240,61386,1,0,3:2:0:0:
284,240,61536,2,0,L|360:240,2,60,8|0|0,3:1|3:2|3:2,0:0:0:0:
40,244,62136,6,0,P|24:196|52:120,1,120,0|0,1:2|3:2,0:0:0:0:
104,128,62586,1,0,3:2:0:0:
164,128,62736,2,0,L|16:128,1,120,8|0,3:1|0:0,0:0:0:0:
288,280,63336,6,0,L|408:280,2,120,4|2|0,1:1|1:3|1:2,0:0:0:0:
168,280,64236,2,0,L|168:208,1,60,0|0,1:2|3:2,0:0:0:0:
228,216,64536,6,0,L|360:216,1,120,0|0,1:2|1:2,0:0:0:0:
228,212,65136,2,0,L|88:212,1,120,0|0,1:2|1:2,0:0:0:0:
352,144,65736,6,0,L|444:144,2,80,0|0|0,1:2|3:2|3:2,0:0:0:0:
176,144,66336,2,0,L|88:144,2,80,0|0|0,1:2|3:2|3:2,0:0:0:0:
352,140,66936,6,0,P|380:96|328:32,1,120,0|0,1:2|1:2,0:0:0:0:
292,40,67386,1,0,3:2:0:0:
232,40,67536,2,0,L|100:40,1,120,0|0,1:2|1:2,0:0:0:0:
352,344,68136,6,0,L|432:344,2,60,4|0|0,1:1|3:2|1:2,0:0:0:0:
292,344,68586,1,0,3:2:0:0:
232,344,68736,2,0,L|148:344,2,60,0|0|0,1:2|3:2|1:2,0:0:0:0:
468,344,69336,6,0,P|488:292|456:232,1,120,0|2,1:2|1:2,0:0:0:0:
400,236,69786,1,2,3:2:0:0:
340,236,69936,2,0,L|488:236,1,120,0|0,1:2|1:1,0:0:0:0:
220,252,70536,6,0,L|88:252,1,120,0|0,1:2|1:2,0:0:0:0:
160,248,70986,1,0,3:2:0:0:
220,252,71136,2,0,L|320:252,2,80,0|0|0,1:2|3:2|3:2,0:0:0:0:
56,256,71736,6,0,P|44:208|68:128,1,120,0|0,1:2|1:2,0:0:0:0:
180,140,72336,2,0,L|180:56,1,60,0|0,1:2|3:2,0:0:0:0:
120,76,72636,2,0,L|120:12,1,60,0|0,1:2|3:2,0:0:0:0:
268,256,72936,6,0,L|404:256,2,120,4|0|0,1:1|1:2|1:2,0:0:0:0:
148,264,73836,1,2,1:2:0:0:
268,264,74136,6,0,P|288:216|252:132,1,120,2|2,1:2|1:2,0:0:0:0:
212,152,74586,1,2,3:2:0:0:
152,152,74736,2,0,P|128:104|176:36,1,120,2|2,1:2|1:2,0:0:0:0:
400,348,75336,6,0,P|408:272|384:224,1,120,4|0,1:1|3:2,0:0:0:0:
332,236,75786,1,0,3:2:0:0:
272,236,75936,1,8,3:1:0:0:
392,236,76236,1,0,3:2:0:0:
240,152,76536,6,0,L|160:152,2,60,0|0|0,1:2|3:2|0:0,0:0:0:0:
300,152,76986,1,0,3:2:0:0:
360,152,77136,2,0,L|360:24,1,120,8|0,3:1|3:2,0:0:0:0:
228,248,77736,6,0,L|104:248,2,120,0|0|8,1:2|3:2|0:1,0:0:0:0:
348,244,78636,2,0,L|348:164,1,60,0|0,3:2|3:2,0:0:0:0:
288,188,78936,6,0,L|144:188,1,120,0|2,1:2|0:2,0:0:0:0:
288,184,79536,2,0,L|376:184,2,60,8|2|2,3:1|0:1|0:1,0:0:0:0:
48,356,80136,6,0,P|36:308|72:228,1,120,0|2,1:2|1:2,0:0:0:0:
120,244,80586,1,2,0:2:0:0:
180,244,80736,2,0,L|32:244,1,120,2|0,1:2|1:2,0:0:0:0:
300,184,81336,6,0,L|372:184,2,60,2|2|2,1:2|0:2|1:2,0:0:0:0:
240,180,81786,1,2,3:2:0:0:
180,180,81936,2,0,L|96:180,2,60,2|2|2,1:2|0:2|1:2,0:0:0:0:
424,364,82536,6,0,P|448:320|412:248,1,120,4|0,1:1|3:2,0:0:0:0:
308,248,83136,2,0,L|164:248,1,120,8|0,3:1|3:2,0:0:0:0:
308,252,83736,6,0,L|392:252,1,60,0|0,1:2|3:2,0:0:0:0:
368,252,84036,1,0,3:2:0:0:
248,252,84336,2,0,L|112:252,1,120,8|0,3:1|3:2,0:0:0:0:
264,172,84936,6,0,L|392:172,2,120,0|0|8,1:2|3:2|3:1,0:0:0:0:
144,164,85836,2,0,L|144:240,1,60,0|0,3:2|3:2,0:0:0:0:
204,232,86136,6,0,L|280:232,1,60,0|0,3:2|3:2,0:0:0:0:
84,248,86736,1,0,3:2:0:0:
24,248,86886,1,0,3:2:0:0:
24,248,87036,1,0,3:2:0:0:
84,248,87186,1,0,3:2:0:0:
224,244,87336,6,0,L|328:244,2,90,2|0|2,1:2|1:2|0:2,0:0:0:0:
164,244,87936,2,0,L|164:108,1,120,8|2,0:1|0:2,0:0:0:0:
284,108,88536,6,0,L|284:256,1,120,2|2,1:2|0:2,0:0:0:0:
164,240,89136,2,0,L|32:240,1,120,8|2,0:1|0:2,0:0:0:0:
288,164,89736,6,0,L|384:164,2,90,2|0|0,1:2|1:2|0:2,0:0:0:0:
228,164,90336,2,0,L|368:164,1,120,8|2,0:1|0:2,0:0:0:0:
468,168,90936,6,0,L|468:304,1,120,2|0,1:2|0:2,0:0:0:0:
408,284,91386,1,0,1:2:0:0:
348,284,91536,1,8,0:1:0:0:
408,284,91686,1,0,1:2:0:0:
468,284,91836,1,0,0:2:0:0:
224,184,92136,6,0,L|112:184,2,90,2|2|2,1:2|1:2|0:2,0:0:0:0:
284,188,92736,2,0,L|284:60,1,120,8|2,0:1|0:2,0:0:0:0:
164,76,93336,6,0,L|48:76,2,90,2|2|2,0:2|0:2|0:2,0:0:0:0:
224,76,93936,2,0,L|88:76,1,120,8|2,0:1|0:2,0:0:0:0:
344,240,94536,6,0,L|444:240,2,90,2|2|2,0:2|1:2|0:2,0:0:0:0:
284,240,95136,2,0,L|152:240,1,120,8|2,0:1|0:2,0:0:0:0:
284,252,95736,6,0,L|284:120,1,120,2|2,1:2|0:2,0:0:0:0:
224,132,96186,1,2,1:2:0:0:
164,132,96336,1,8,0:1:0:0:
164,72,96486,1,2,1:2:0:0:
164,12,96636,1,2,0:2:0:0:
404,328,96936,6,0,P|428:280|376:216,1,120,4|2,1:1|1:2,0:0:0:0:
280,228,97536,1,2,1:2:0:0:
220,228,97686,1,2,0:2:0:0:
160,228,97836,1,2,1:2:0:0:
220,228,97986,1,2,0:2:0:0:
340,228,98286,6,0,L|340:144,1,60,2|2,0:2|1:2,0:0:0:0:
220,152,98736,2,0,L|80:152,1,120,2|2,1:2|1:2,0:0:0:0:
160,152,99186,1,2,0:2:0:0:
300,356,99336,6,0,P|316:320|288:236,1,120,2|2,1:2|1:2,0:0:0:0:
176,244,99936,1,2,1:2:0:0:
236,244,100086,1,2,0:2:0:0:
296,244,100236,1,2,1:2:0:0:
356,244,100386,1,2,0:2:0:0:
236,244,100686,6,0,L|236:156,1,60,2|2,0:2|1:2,0:0:0:0:
356,180,101136,2,0,L|484:180,1,120,2|2,1:2|1:2,0:0:0:0:
228,368,101736,6,0,P|212:328|236:252,1,120,2|2,1:2|1:2,0:0:0:0:
292,256,102186,1,0,0:2:0:0:
352,256,102336,2,0,L|480:256,1,120,2|2,1:2|1:2,0:0:0:0:
228,168,102936,6,0,L|84:168,1,120,2|2,1:2|1:2,0:0:0:0:
48,168,103386,1,0,0:2:0:0:
108,168,103536,2,0,L|240:168,1,120,2|2,1:2|1:2,0:0:0:0:
464,176,104136,6,0,P|472:128|436:52,1,120,2|2,1:2|1:2,0:0:0:0:
388,64,104586,1,2,0:2:0:0:
328,68,104736,1,2,1:2:0:0:
448,68,105036,1,2,1:2:0:0:
208,368,105336,6,0,L|120:368,2,60,2|0|2,1:2|0:2|1:2,0:0:0:0:
268,368,105786,1,0,0:2:0:0:
328,368,105936,2,0,L|400:368,2,60,2|0|2,1:2|0:2|1:2,0:0:0:0:
80,296,106536,6,0,P|72:232|96:160,1,120,4|2,1:1|1:2,0:0:0:0:
204,168,107136,2,0,L|272:168,2,60,2|2|2,1:2|0:2|1:2,0:0:0:0:
144,168,107586,1,2,0:2:0:0:
204,168,107736,6,0,L|344:168,1,120,2|2,1:2|1:2,0:0:0:0:
192,168,108336,2,0,P|168:116|212:56,1,120,2|2,1:2|1:2,0:0:0:0:
256,60,108786,1,2,0:2:0:0:
400,332,108936,6,0,P|424:292|376:232,1,120,2|2,1:2|1:2,0:0:0:0:
268,232,109536,2,0,L|180:232,2,60,2|2|2,1:2|0:2|1:2,0:0:0:0:
328,232,109986,1,2,0:2:0:0:
388,232,110136,6,0,L|256:232,1,120,2|2,1:2|1:2,0:0:0:0:
400,168,110736,1,2,1:2:0:0:
460,168,110886,1,2,0:2:0:0:
460,168,111036,1,2,1:2:0:0:
400,168,111186,1,2,0:2:0:0:
256,364,111336,6,0,L|128:364,1,120,2|2,1:2|1:2,0:0:0:0:
196,364,111786,1,0,0:2:0:0:
256,364,111936,2,0,P|284:320|260:248,1,120,2|2,1:2|1:2,0:0:0:0:
32,256,112536,6,0,P|24:208|48:128,1,120,2|2,1:2|1:2,0:0:0:0:
100,140,112986,1,0,0:2:0:0:
160,140,113136,2,0,L|160:60,1,60,2|0,1:2|0:2,0:0:0:0:
100,80,113436,2,0,L|100:0,1,60,2|0,1:2|0:2,0:0:0:0:
244,316,113736,6,0,L|376:316,1,120,4|2,1:2|1:2,0:0:0:0:
304,316,114186,1,0,0:2:0:0:
244,316,114336,2,0,P|212:272|260:204,1,120,2|2,1:2|1:2,0:0:0:0:
472,208,114936,6,0,P|484:148|456:80,1,120,4|6,1:2|1:2,0:0:0:0:
404,96,115386,1,0,0:2:0:0:
344,100,115536,2,0,L|344:20,1,60,6|2,1:2|0:2,0:0:0:0:
404,36,115836,2,0,L|404:116,1,60,6|2,1:2|0:2,0:0:0:0:
256,316,116136,5,4,1:1:0:0:
256,192,116436,12,0,118536,0:2:0:0:
