osu file format v14

[General]
AudioFilename: audio.mp3
AudioLeadIn: 0
PreviewTime: 52542
Countdown: 0
SampleSet: Soft
StackLeniency: 0.7
Mode: 2
LetterboxInBreaks: 0
WidescreenStoryboard: 1

[Editor]
Bookmarks: 20142,24942,29742,34542,39342,53742,63342,72942,80142,87342,96942,106542,116142
DistanceSpacing: 1.8
BeatDivisor: 4
GridSize: 4
TimelineZoom: 2.9

[Metadata]
Title:Dopamine
TitleUnicode:ドーパミン
Artist:U1 overground
ArtistUnicode:U1 overground
Creator:Kukkai
Version:Rain
Source:jubeat saucer fulfill
Tags:big_h_zonda_kit big h zonda kit 050 bighzonda bigh Vaqu Lacrima Myle rhythm video game electronic instrumental dubstep u1-asami 浅見祐一 yuichi asami dancedancerevolution 2014 sound voltex gravity wars plus
BeatmapID:3985008
BeatmapSetID:1928802

[Difficulty]
HPDrainRate:5
CircleSize:4
OverallDifficulty:9.1
ApproachRate:9.1
SliderMultiplier:1.6
SliderTickRate:1

[Events]
//Background and Video events
0,0,"u1.jpg",0,0
//Break Periods
//Storyboard Layer 0 (Background)
//Storyboard Layer 1 (Fail)
//Storyboard Layer 2 (Pass)
//Storyboard Layer 3 (Foreground)
//Storyboard Layer 4 (Overlay)
//Storyboard Sound Samples

[TimingPoints]
936,300,4,2,1,50,1,0
10536,-100,4,2,1,60,0,0
20136,-100,4,2,1,70,0,0
39336,-100,4,2,1,50,0,0
41736,-100,4,2,1,60,0,0
42936,-100,4,2,1,65,0,0
44136,-100,4,2,1,70,0,0
45036,-100,4,2,1,70,0,0
45336,-100,4,2,1,70,0,0
47436,-100,4,2,1,70,0,0
47736,-100,4,2,1,70,0,0
49836,-100,4,2,1,70,0,0
50136,-100,4,2,1,70,0,0
52236,-100,4,2,1,70,0,0
52536,-100,4,2,1,70,0,0
53736,-100,4,2,1,70,0,1
62736,-100,4,2,1,70,0,0
63336,-100,4,2,1,70,0,1
72936,-100,4,2,1,70,0,0
75336,-100,4,2,1,70,0,1
80136,-100,4,2,1,70,0,0
82536,-100,4,2,1,70,0,1
86136,-100,4,2,1,70,0,0
87336,-100,4,2,1,60,0,0
96936,-100,4,2,1,70,0,0
106536,-100,4,2,1,70,0,1
116136,-100,4,2,1,50,0,0

[Colours]
Combo1 : 255,255,151
Combo2 : 255,128,128
Combo3 : 210,170,255
Combo4 : 255,164,255

[HitObjects]
152,352,936,5,2,0:2:0:0:
115,339,1011,1,0,0:2:0:0:
100,303,1086,1,0,0:2:0:0:
117,269,1161,1,0,0:2:0:0:
155,259,1236,1,0,0:2:0:0:
300,260,1386,1,2,0:2:0:0:
336,247,1461,1,0,0:2:0:0:
351,211,1536,1,0,0:2:0:0:
334,177,1611,1,0,0:2:0:0:
296,167,1686,1,0,0:2:0:0:
152,168,1836,5,2,0:2:0:0:
112,168,1911,1,0,0:2:0:0:
72,168,1986,1,0,0:2:0:0:
152,168,2136,1,0,0:2:0:0:
296,360,2286,2,0,L|296:292,1,40,2|0,0:2|0:2,0:0:0:0:
256,324,2436,1,0,0:2:0:0:
216,324,2511,2,0,L|216:252,1,40,0|0,0:2|0:2,0:0:0:0:
360,272,2736,6,0,L|360:208,2,40,2|0|0,0:2|0:2|0:2,0:0:0:0:
216,268,3036,2,0,L|216:216,2,40,2|0|0,0:2|0:2|0:2,0:0:0:0:
456,268,3336,5,2,0:2:0:0:
468,230,3411,1,0,0:2:0:0:
457,192,3486,1,0,0:2:0:0:
427,167,3561,1,0,0:2:0:0:
388,162,3636,1,0,0:2:0:0:
244,168,3786,1,2,0:2:0:0:
204,171,3861,1,0,0:2:0:0:
168,155,3936,1,0,0:2:0:0:
142,125,4011,1,0,0:2:0:0:
134,86,4086,1,0,0:2:0:0:
280,88,4236,5,2,0:2:0:0:
320,88,4311,1,0,0:2:0:0:
360,88,4386,1,0,0:2:0:0:
280,88,4536,1,0,0:2:0:0:
136,352,4686,1,2,0:2:0:0:
97,352,4761,1,0,0:2:0:0:
77,319,4836,1,0,0:2:0:0:
95,286,4911,1,0,0:2:0:0:
133,284,4986,1,0,0:2:0:0:
276,288,5136,6,0,L|276:224,2,40,2|0|0,0:2|0:2|0:2,0:0:0:0:
132,264,5436,2,0,L|132:196,2,40,2|0|0,0:2|0:2|0:2,0:0:0:0:
372,264,5736,5,2,0:2:0:0:
373,224,5811,1,0,0:2:0:0:
355,189,5886,1,0,0:2:0:0:
322,167,5961,1,0,0:2:0:0:
283,164,6036,1,0,0:2:0:0:
140,156,6186,5,2,0:2:0:0:
138,116,6261,1,0,0:2:0:0:
156,81,6336,1,0,0:2:0:0:
189,59,6411,1,0,0:2:0:0:
228,56,6486,1,0,0:2:0:0:
372,48,6636,6,0,L|428:48,2,40,2|0|0,0:2|0:2|0:2,0:0:0:0:
228,56,6936,1,0,0:2:0:0:
373,124,7086,1,2,0:2:0:0:
411,119,7161,1,0,0:2:0:0:
428,85,7236,1,0,0:2:0:0:
410,52,7311,1,0,0:2:0:0:
372,48,7386,1,0,0:2:0:0:
228,52,7536,6,0,L|164:52,2,40,2|0|0,0:2|0:2|0:2,0:0:0:0:
372,48,7836,2,0,L|428:48,2,40,2|0|0,0:2|0:2|0:2,0:0:0:0:
132,368,8136,5,2,0:2:0:0:
94,361,8211,1,0,0:2:0:0:
77,327,8286,1,0,0:2:0:0:
95,293,8361,1,0,0:2:0:0:
133,289,8436,1,0,0:2:0:0:
276,284,8586,1,2,0:2:0:0:
313,277,8661,1,0,0:2:0:0:
330,243,8736,1,0,0:2:0:0:
312,209,8811,1,0,0:2:0:0:
274,205,8886,1,0,0:2:0:0:
132,200,9036,2,0,L|68:200,2,40,2|0|0,0:2|0:2|0:2,0:0:0:0:
376,368,9336,5,2,0:2:0:0:
416,368,9411,1,0,0:2:0:0:
456,368,9486,1,0,0:2:0:0:
496,368,9561,1,0,0:2:0:0:
456,368,9636,1,0,0:2:0:0:
312,316,9786,1,2,0:2:0:0:
274,307,9861,1,0,0:2:0:0:
256,273,9936,1,0,0:2:0:0:
270,237,10011,1,0,0:2:0:0:
307,225,10086,1,0,0:2:0:0:
452,224,10236,2,0,L|452:128,1,80,2|0,0:2|0:2,0:0:0:0:
184,216,10536,6,0,L|184:104,1,80,6|0,1:2|0:2,0:0:0:0:
224,136,10761,1,2,0:2:0:0:
264,136,10836,1,0,1:2:0:0:
184,136,10986,1,2,0:2:0:0:
412,364,11136,6,0,L|412:256,1,80,2|0,1:2|0:2,0:0:0:0:
324,280,11436,2,0,L|228:280,1,80,0|0,1:2|0:2,0:0:0:0:
460,200,11736,2,0,P|476:156|448:128,1,80,2|0,1:2|0:2,0:0:0:0:
420,128,11961,1,2,0:2:0:0:
380,128,12036,1,0,1:2:0:0:
455,124,12186,1,2,0:2:0:0:
228,320,12336,6,0,L|124:320,1,80,2|2,1:2|0:2,0:0:0:0:
364,260,12636,2,0,L|364:176,1,80,2|2,1:2|0:2,0:0:0:0:
140,180,12936,6,0,L|252:180,1,80,2|0,1:2|0:2,0:0:0:0:
260,176,13161,1,2,0:2:0:0:
300,176,13236,2,0,L|300:80,1,80,0|2,1:2|0:2,0:0:0:0:
88,364,13536,6,0,L|88:272,1,80,2|0,1:2|0:2,0:0:0:0:
244,284,13836,2,0,L|148:284,1,80,2|0,1:2|0:2,0:0:0:0:
384,284,14136,6,0,P|400:232|356:208,1,80,2|0,1:2|0:2,0:0:0:0:
348,212,14361,1,2,0:2:0:0:
308,212,14436,2,0,L|200:212,1,80,0|2,1:2|0:2,0:0:0:0:
440,152,14736,6,0,P|460:112|416:88,1,80,2|2,1:2|0:2,0:0:0:0:
400,88,14961,1,0,0:0:0:0:
360,88,15036,1,2,1:2:0:0:
440,89,15186,1,2,0:2:0:0:
204,224,15336,6,0,L|104:224,1,80,2|0,1:2|0:2,0:0:0:0:
84,224,15561,1,2,0:2:0:0:
124,224,15636,1,0,1:2:0:0:
204,224,15786,1,2,0:2:0:0:
424,220,15936,6,0,L|424:124,1,80,2|0,1:2|0:2,0:0:0:0:
204,144,16236,2,0,L|88:144,1,80,2|0,1:2|0:2,0:0:0:0:
344,284,16536,6,0,P|360:240|332:212,1,80,2|0,1:2|0:2,0:0:0:0:
304,216,16761,1,2,0:2:0:0:
264,216,16836,2,0,L|176:216,1,80,0|2,1:2|0:2,0:0:0:0:
396,164,17136,6,0,L|488:164,1,80,2|2,1:2|0:2,0:0:0:0:
436,164,17361,1,2,0:2:0:0:
256,352,17436,2,0,L|144:352,1,80,2|2,1:2|0:2,0:0:0:0:
408,304,17736,6,0,P|424:260|384:232,1,80,2|0,1:2|0:2,0:0:0:0:
364,236,17961,1,2,0:2:0:0:
324,236,18036,1,0,1:2:0:0:
405,237,18186,1,2,0:2:0:0:
188,196,18336,6,0,L|96:196,1,80,2|0,1:2|0:2,0:0:0:0:
328,136,18636,2,0,L|328:48,1,80,0|0,1:2|0:2,0:0:0:0:
96,264,18936,6,0,L|40:264,2,53.3333333333333,2|2|2,0:2|0:2|0:2,0:0:0:0:
148,264,19236,1,2,0:2:0:0:
97,264,19336,1,2,0:2:0:0:
42,264,19436,1,2,0:2:0:0:
256,196,19536,6,0,L|324:196,2,53.3333333333333,2|2|2,0:2|0:2|0:2,0:0:0:0:
204,196,19836,2,0,L|128:196,2,53.3333333333333,2|2|2,0:2|0:2|0:2,0:0:0:0:
372,356,20136,6,0,L|372:248,1,80,4|0,1:1|3:2,0:0:0:0:
228,276,20436,1,0,1:2:0:0:
188,276,20511,1,0,3:2:0:0:
228,276,20586,1,0,3:2:0:0:
268,276,20661,1,0,3:2:0:0:
228,276,20736,6,0,L|120:276,1,80,0|0,1:2|3:2,0:0:0:0:
376,192,21036,1,2,1:1:0:0:
416,192,21111,1,2,0:1:0:0:
416,192,21186,1,2,0:1:0:0:
376,192,21261,1,2,0:1:0:0:
228,196,21336,6,0,L|124:196,1,80,0|0,1:2|3:2,0:0:0:0:
292,120,21636,2,0,L|344:120,2,40,0|0|0,1:2|3:2|3:2,0:0:0:0:
48,352,21936,6,0,L|48:264,1,80,0|0,1:2|3:2,0:0:0:0:
188,260,22236,2,0,L|232:260,1,40,2|2,1:2|0:2,0:0:0:0:
96,196,22386,2,0,L|48:196,1,40,2|2,0:2|0:2,0:0:0:0:
200,192,22536,6,0,L|200:100,1,80,0|0,1:2|3:2,0:0:0:0:
56,108,22836,1,0,1:2:0:0:
16,108,22911,1,0,3:2:0:0:
56,108,22986,1,0,3:2:0:0:
96,108,23061,1,0,3:2:0:0:
136,108,23136,6,0,L|32:108,1,80,0|0,1:2|3:2,0:0:0:0:
284,264,23436,1,2,1:3:0:0:
324,264,23511,1,2,0:3:0:0:
364,264,23586,1,2,0:3:0:0:
324,264,23661,1,2,0:3:0:0:
164,268,23736,6,0,L|164:164,1,80,0|0,1:2|3:2,0:0:0:0:
308,160,24036,2,0,L|308:56,1,80,0|0,1:2|3:2,0:0:0:0:
68,88,24336,1,0,1:2:0:0:
148,88,24486,1,0,3:2:0:0:
228,88,24636,2,0,P|264:128|216:188,1,120,0|0,1:2|3:2,0:0:0:0:
76,360,24936,6,0,L|76:252,1,80,4|0,1:1|3:2,0:0:0:0:
220,280,25236,1,0,1:2:0:0:
260,280,25311,1,0,3:2:0:0:
300,280,25386,1,0,3:2:0:0:
260,280,25461,1,0,3:2:0:0:
220,280,25536,6,0,L|124:280,1,80,0|0,1:2|3:2,0:0:0:0:
364,184,25836,1,2,1:1:0:0:
404,184,25911,1,2,0:1:0:0:
404,184,25986,1,2,0:1:0:0:
364,184,26061,1,2,0:1:0:0:
224,184,26136,6,0,L|224:80,1,80,0|0,1:2|3:2,0:0:0:0:
368,96,26436,2,0,L|464:96,1,80,0|0,1:2|3:2,0:0:0:0:
224,312,26736,6,0,L|120:312,1,80,0|0,1:2|3:2,0:0:0:0:
288,252,27036,2,0,L|288:212,1,40,2|2,1:2|0:2,0:0:0:0:
152,212,27186,2,0,L|104:212,1,40,2|2,0:2|0:2,0:0:0:0:
252,156,27336,6,0,L|360:156,1,80,0|0,1:2|3:2,0:0:0:0:
188,88,27636,1,0,1:2:0:0:
148,88,27711,1,0,3:2:0:0:
148,48,27786,1,0,3:2:0:0:
188,48,27861,1,0,3:2:0:0:
228,48,27936,6,0,L|340:48,1,80,0|0,1:2|3:2,0:0:0:0:
84,224,28236,1,2,1:3:0:0:
44,224,28311,1,2,0:3:0:0:
44,224,28386,1,2,0:3:0:0:
84,224,28461,1,2,0:3:0:0:
224,220,28536,6,0,L|332:220,1,80,0|0,1:2|3:2,0:0:0:0:
160,172,28836,2,0,L|160:84,1,80,0|0,1:2|3:2,0:0:0:0:
384,356,29136,6,0,P|428:328|364:256,1,160,0|2,3:2|0:2,0:0:0:0:
340,252,29511,1,2,0:2:0:0:
300,252,29586,1,2,0:2:0:0:
260,252,29661,1,2,0:2:0:0:
408,204,29736,6,0,L|408:116,1,80,4|0,1:1|3:2,0:0:0:0:
264,168,30036,1,0,1:2:0:0:
227,153,30111,1,0,3:2:0:0:
213,117,30186,1,0,3:2:0:0:
231,83,30261,1,0,3:2:0:0:
268,72,30336,5,0,1:2:0:0:
348,76,30486,1,0,3:2:0:0:
132,68,30636,1,2,1:1:0:0:
92,68,30711,1,2,0:1:0:0:
92,68,30786,1,2,0:1:0:0:
132,68,30861,1,2,0:1:0:0:
272,352,30936,6,0,L|272:264,1,80,0|0,1:2|3:2,0:0:0:0:
128,272,31236,2,0,L|84:272,2,40,0|0|0,1:2|3:2|3:2,0:0:0:0:
344,268,31536,6,0,L|344:168,1,80,0|0,1:2|3:2,0:0:0:0:
200,184,31836,2,0,L|148:184,1,40,2|2,1:2|0:2,0:0:0:0:
296,140,31986,2,0,L|296:84,1,40,2|2,0:2|0:2,0:0:0:0:
156,96,32136,6,0,L|76:96,1,80,0|0,1:2|3:2,0:0:0:0:
220,360,32436,1,0,1:2:0:0:
257,349,32511,1,0,3:2:0:0:
272,314,32586,1,0,3:2:0:0:
254,279,32661,1,0,3:2:0:0:
216,272,32736,5,0,1:2:0:0:
136,272,32886,1,0,3:2:0:0:
360,212,33036,1,2,1:3:0:0:
400,212,33111,1,2,0:3:0:0:
440,212,33186,1,2,0:3:0:0:
400,212,33261,1,2,0:3:0:0:
256,208,33336,6,0,L|160:208,1,80,0|0,1:2|3:2,0:0:0:0:
320,156,33636,2,0,L|320:48,1,80,0|0,1:2|3:2,0:0:0:0:
96,216,33936,2,0,L|96:168,2,40,0|0|0,1:2|0:0|0:2,0:0:0:0:
240,84,34236,2,0,L|96:84,1,120,0|0,1:2|3:2,0:0:0:0:
280,320,34536,6,0,L|388:320,1,80,4|0,1:1|3:2,0:0:0:0:
216,240,34836,1,0,1:2:0:0:
216,200,34911,1,0,3:2:0:0:
256,200,34986,1,0,3:2:0:0:
296,200,35061,1,0,3:2:0:0:
336,200,35136,6,0,L|336:88,1,80,0|0,1:2|3:2,0:0:0:0:
116,116,35436,1,2,1:1:0:0:
76,116,35511,1,2,0:1:0:0:
76,116,35586,1,2,0:1:0:0:
116,116,35661,1,2,0:1:0:0:
248,296,35736,6,0,L|356:296,1,80,0|0,1:2|3:2,0:0:0:0:
184,236,36036,1,0,1:2:0:0:
144,236,36111,1,0,3:2:0:0:
144,236,36186,1,0,3:2:0:0:
384,232,36336,6,0,L|384:136,1,80,0|0,1:2|3:2,0:0:0:0:
240,156,36636,2,0,L|188:156,1,40,2|2,1:2|0:2,0:0:0:0:
348,96,36786,2,0,L|392:96,1,40,2|2,0:2|0:2,0:0:0:0:
240,96,36936,6,0,L|148:96,1,80,0|0,1:2|3:2,0:0:0:0:
304,356,37236,1,0,1:2:0:0:
340,343,37311,1,0,3:2:0:0:
356,307,37386,1,0,3:2:0:0:
340,272,37461,1,0,3:2:0:0:
303,260,37536,5,0,1:2:0:0:
224,264,37686,1,0,3:2:0:0:
440,200,37836,1,2,1:3:0:0:
480,200,37911,1,2,0:3:0:0:
440,200,37986,1,2,0:3:0:0:
400,200,38061,1,2,0:3:0:0:
260,200,38136,6,0,L|260:112,1,80,0|0,1:2|3:2,0:0:0:0:
404,116,38436,2,0,L|404:36,1,80,0|0,1:2|3:2,0:0:0:0:
160,108,38736,1,2,1:2:0:0:
160,68,38811,1,2,0:2:0:0:
200,68,38886,1,2,0:2:0:0:
344,288,39036,2,0,P|376:256|328:208,1,120,0|0,1:2|3:2,0:0:0:0:
164,312,39336,6,0,L|164:152,4,160,4|0|0|0|0,0:1|0:2|0:2|0:2|0:2,0:0:0:0:
392,312,40686,5,8,0:1:0:0:
472,312,40836,2,0,L|472:140,2,160,0|0|0,0:2|0:2|0:2,0:0:0:0:
104,160,41736,6,0,L|8:160,2,80,12|8|8,0:2|0:2|0:2,0:0:0:0:
144,160,42111,1,8,0:2:0:0:
184,160,42186,1,8,0:2:0:0:
328,164,42336,2,0,L|328:60,1,80,8|8,0:2|0:2,0:0:0:0:
184,84,42636,2,0,L|80:84,1,80,8|8,0:2|0:2,0:0:0:0:
344,316,42936,6,0,P|360:268|320:240,1,80,12|8,0:2|0:2,0:0:0:0:
288,248,43161,1,8,0:2:0:0:
232,252,43236,2,0,P|216:200|252:168,1,80,8|8,0:2|0:2,0:0:0:0:
268,184,43461,1,8,0:2:0:0:
416,188,43536,6,0,L|496:188,1,80,12|8,0:2|0:2,0:0:0:0:
456,188,43761,1,8,0:2:0:0:
312,112,43836,2,0,L|224:112,1,80,12|8,0:2|0:2,0:0:0:0:
272,112,44061,1,8,0:2:0:0:
424,312,44136,6,0,P|468:284|404:216,1,160,4|0,1:1|1:2,0:0:0:0:
272,212,44586,1,2,0:2:0:0:
416,208,44736,2,0,L|416:120,1,80,2|2,1:2|0:2,0:0:0:0:
200,120,45036,1,2,1:2:0:0:
416,208,45186,2,0,L|416:128,1,80,2|0,0:2|1:2,0:0:0:0:
248,312,45636,5,0,1:2:0:0:
368,312,45786,1,0,3:2:0:0:
152,268,45936,2,0,L|152:172,1,80,0|0,1:2|0:2,0:0:0:0:
296,188,46236,2,0,L|296:72,1,80,0|0,1:2|0:2,0:0:0:0:
72,268,46536,6,0,P|24:240|96:176,1,160,2|0,1:2|1:2,0:0:0:0:
212,172,46986,1,2,0:2:0:0:
68,172,47136,2,0,L|68:76,1,80,2|2,1:2|0:2,0:0:0:0:
284,92,47436,1,2,1:2:0:0:
68,172,47586,2,0,L|68:80,1,80,2|0,0:2|1:2,0:0:0:0:
236,272,48036,5,0,1:2:0:0:
116,272,48186,1,0,3:2:0:0:
336,220,48336,2,0,L|336:112,1,80,0|0,1:2|0:2,0:0:0:0:
192,144,48636,2,0,L|88:144,1,80,0|0,1:2|0:2,0:0:0:0:
340,284,48936,6,0,L|156:284,1,160,2|0,1:2|1:2,0:0:0:0:
324,284,49386,1,2,0:2:0:0:
180,284,49536,2,0,L|180:180,1,80,2|2,1:2|0:2,0:0:0:0:
388,200,49836,1,2,1:2:0:0:
180,284,49986,2,0,L|80:284,1,80,2|0,0:2|1:2,0:0:0:0:
264,172,50436,5,0,1:2:0:0:
144,124,50586,1,0,3:2:0:0:
364,312,50736,2,0,L|364:212,1,80,0|0,1:2|0:2,0:0:0:0:
220,228,51036,2,0,L|220:136,1,80,0|0,1:2|0:2,0:0:0:0:
444,152,51336,6,0,L|248:152,1,160,2|0,1:2|1:2,0:0:0:0:
428,152,51786,1,2,0:2:0:0:
284,152,51936,2,0,L|180:152,1,80,2|2,1:2|0:2,0:0:0:0:
420,76,52236,1,2,1:2:0:0:
204,152,52386,1,2,0:2:0:0:
136,192,53736,5,4,1:1:0:0:
355,191,53886,2,0,L|411:191,2,40,0|0|2,3:2|3:2|0:3,0:0:0:0:
275,191,54186,1,2,0:3:0:0:
487,147,54336,6,0,L|487:51,1,80,8|0,3:1|3:2,0:0:0:0:
261,61,54636,2,0,L|357:61,1,80,0|0,3:2|3:2,0:0:0:0:
115,351,54936,6,0,L|115:263,1,80,0|0,1:2|3:2,0:0:0:0:
259,275,55236,2,0,P|295:243|239:199,1,120,0|0,3:2|3:2,0:0:0:0:
115,195,55536,2,0,L|116:92,1,80,8|0,3:1|0:0,0:0:0:0:
260,120,55836,1,0,3:2:0:0:
312,120,55936,1,0,3:2:0:0:
364,120,56036,1,0,3:2:0:0:
196,248,56136,6,0,L|132:248,2,53.3333333333333,0|0|0,1:2|3:2|3:2,0:0:0:0:
292,192,56436,2,0,L|360:192,2,53.3333333333333,0|0|0,1:2|3:2|3:2,0:0:0:0:
128,128,56736,5,8,3:1:0:0:
182,128,56836,1,0,3:2:0:0:
235,128,56936,1,0,3:2:0:0:
68,84,57036,2,0,L|8:84,2,53.3333333333333,0|0|0,3:2|3:2|3:2,0:0:0:0:
240,364,57336,6,0,L|240:264,1,80,0|0,1:2|3:2,0:0:0:0:
96,244,57636,2,0,L|44:244,2,40,0|0|0,3:2|3:2|1:2,0:0:0:0:
380,184,57936,6,0,P|432:132|352:96,1,160,8|0,3:1|3:2,0:0:0:0:
300,84,58386,1,0,3:2:0:0:
84,200,58536,5,0,1:2:0:0:
300,84,58686,1,0,3:2:0:0:
380,80,58836,1,2,0:1:0:0:
420,80,58911,1,2,0:1:0:0:
420,80,58986,1,2,0:1:0:0:
380,80,59061,1,2,0:1:0:0:
232,340,59136,6,0,L|128:340,1,80,8|0,3:1|3:2,0:0:0:0:
296,272,59436,2,0,L|348:272,2,40,0|0|0,3:2|3:2|3:2,0:0:0:0:
72,276,59736,6,0,L|72:176,1,80,0|0,1:2|3:2,0:0:0:0:
216,192,60036,2,0,L|276:192,1,40,2|2,0:2|0:2,0:0:0:0:
124,148,60186,2,0,L|124:88,1,40,2|2,0:2|0:2,0:0:0:0:
264,108,60336,6,0,L|352:108,1,80,8|0,3:1|3:2,0:0:0:0:
200,48,60636,2,0,L|152:48,2,40,0|0|0,3:2|3:2|3:2,0:0:0:0:
408,356,60936,6,0,L|408:252,1,80,0|0,1:2|3:2,0:0:0:0:
264,272,61236,2,0,L|176:272,1,80,0|0,1:2|3:2,0:0:0:0:
408,204,61536,6,0,L|304:204,1,80,8|0,3:1|3:2,0:0:0:0:
88,132,61836,2,0,L|192:132,1,80,0|0,3:2|3:2,0:0:0:0:
408,140,62136,6,0,L|408:56,1,80,0|0,1:2|3:2,0:0:0:0:
264,64,62436,1,0,3:2:0:0:
224,64,62511,1,0,3:2:0:0:
184,64,62586,1,0,3:2:0:0:
224,64,62661,1,0,3:2:0:0:
368,356,62736,6,0,P|444:328|352:248,1,240,8|0,3:1|0:0,0:0:0:0:
144,236,63336,5,4,1:1:0:0:
368,240,63486,1,0,3:2:0:0:
421,240,63561,1,0,3:2:0:0:
460,241,63636,1,2,1:3:0:0:
368,240,63786,1,2,3:3:0:0:
144,176,63936,6,0,L|144:88,1,80,0|0,1:2|3:2,0:0:0:0:
360,88,64236,2,0,L|264:88,1,80,0|0,1:2|3:2,0:0:0:0:
496,88,64536,6,0,L|496:176,1,80,0|0,1:2|3:2,0:0:0:0:
352,280,64836,2,0,L|492:280,1,120,0|0,1:2|3:2,0:0:0:0:
312,216,65136,6,0,L|224:216,1,80,0|0,1:2|0:0,0:0:0:0:
376,168,65436,2,0,L|424:168,2,40,0|0|0,1:2|3:2|3:2,0:0:0:0:
160,168,65736,6,0,L|96:168,2,53.3333333333333,0|0|0,1:2|3:2|3:2,0:0:0:0:
260,100,66036,1,0,1:2:0:0:
206,100,66136,1,0,3:2:0:0:
153,100,66236,1,0,3:2:0:0:
320,56,66336,6,0,L|388:56,2,53.3333333333333,0|0|0,1:2|3:2|3:2,0:0:0:0:
136,48,66636,2,0,L|64:48,2,53.3333333333333,0|0|0,1:2|3:2|3:2,0:0:0:0:
320,92,66936,6,0,L|320:176,1,80,0|0,1:2|3:2,0:0:0:0:
176,168,67236,2,0,L|128:168,2,40,0|0|0,1:2|3:2|3:2,0:0:0:0:
424,172,67536,6,0,L|424:76,1,80,0|0,1:2|3:2,0:0:0:0:
280,92,67836,2,0,L|388:92,1,80,0|0,1:2|3:2,0:0:0:0:
136,364,68136,6,0,L|136:268,1,80,4|0,1:1|3:2,0:0:0:0:
280,288,68436,2,0,L|392:288,1,80,0|0,1:2|3:2,0:0:0:0:
136,220,68736,6,0,L|44:220,1,80,0|0,1:2|3:2,0:0:0:0:
280,144,69036,2,0,L|372:144,1,80,0|0,1:2|3:2,0:0:0:0:
136,148,69336,6,0,L|136:56,1,80,0|0,1:2|3:2,0:0:0:0:
280,68,69636,2,0,L|348:68,1,40,2|2,1:2|3:2,0:0:0:0:
180,196,69786,2,0,L|132:196,1,40,2|2,3:2|3:2,0:0:0:0:
280,200,69936,6,0,L|280:108,1,80,0|0,1:2|3:2,0:0:0:0:
116,108,70236,2,0,L|64:108,2,40,0|0|0,1:1|3:1|3:1,0:0:0:0:
340,316,70536,6,0,P|376:292|324:212,1,160,0|0,1:2|1:2,0:0:0:0:
244,212,70986,1,0,3:2:0:0:
468,136,71136,6,0,L|468:68,1,53.3333333333333,0|0,1:2|3:2,0:0:0:0:
416,80,71336,1,0,3:2:0:0:
364,80,71436,1,0,1:2:0:0:
417,80,71536,1,0,3:2:0:0:
470,80,71636,1,0,3:2:0:0:
296,316,71736,6,0,L|196:316,1,80,0|0,1:2|3:2,0:0:0:0:
360,264,72036,2,0,L|360:172,1,80,0|0,1:2|3:2,0:0:0:0:
136,180,72336,2,0,L|20:180,1,80,0|0,1:2|3:2,0:0:0:0:
280,96,72636,2,0,L|168:96,1,80,0|0,1:2|3:2,0:0:0:0:
424,328,72936,6,0,L|424:236,1,80,4|0,1:1|0:2,0:0:0:0:
280,252,73236,2,0,L|280:152,1,80,0|2,1:2|0:2,0:0:0:0:
424,172,73536,6,0,L|332:172,1,80,0|2,1:2|0:2,0:0:0:0:
200,172,73836,2,0,L|296:172,1,80,2|2,1:2|0:2,0:0:0:0:
48,172,74136,6,0,L|48:68,1,80,2|0,1:2|0:2,0:0:0:0:
192,92,74436,1,2,1:2:0:0:
48,92,74586,1,2,3:2:0:0:
192,92,74736,6,0,L|304:92,1,80,2|0,1:2|0:2,0:0:0:0:
128,92,75036,2,0,L|128:196,1,80,2|0,1:2|0:2,0:0:0:0:
368,328,75336,6,0,L|368:224,1,80,4|0,1:1|3:2,0:0:0:0:
224,248,75636,2,0,L|152:248,2,40,0|0|0,3:2|3:2|3:2,0:0:0:0:
448,176,75936,6,0,L|512:176,2,40,8|0|0,3:1|3:2|3:2,0:0:0:0:
344,176,76236,2,0,L|432:176,1,80,0|0,3:2|3:2,0:0:0:0:
200,176,76536,5,0,1:2:0:0:
120,172,76686,2,0,L|120:124,1,40,0|0,3:2|3:2,0:0:0:0:
204,136,76911,2,0,L|248:136,1,40,0|0,3:2|3:2,0:0:0:0:
24,244,77136,6,0,L|192:244,1,160,8|0,3:1|3:2,0:0:0:0:
260,244,77586,1,0,0:0:0:0:
40,184,77736,6,0,L|40:92,1,80,0|0,1:2|3:2,0:0:0:0:
146,104,78036,1,0,3:2:0:0:
92,104,78136,1,0,3:2:0:0:
39,104,78236,1,0,3:2:0:0:
232,344,78336,6,0,L|232:248,1,80,8|0,0:1|0:2,0:0:0:0:
88,268,78636,2,0,L|88:172,1,80,0|0,3:2|3:2,0:0:0:0:
312,184,78936,6,0,L|312:96,1,80,0|2,1:2|0:2,0:0:0:0:
272,104,79161,1,2,0:2:0:0:
232,104,79236,1,2,0:2:0:0:
152,104,79386,1,2,0:2:0:0:
376,264,79536,2,0,L|468:264,1,80,8|2,3:1|0:1,0:0:0:0:
416,264,79761,1,2,0:1:0:0:
256,200,79836,2,0,L|200:200,2,40,2|2|0,0:1|0:1|3:2,0:0:0:0:
480,196,80136,6,0,L|288:192,1,160,0|2,1:2|1:2,0:0:0:0:
240,188,80586,1,2,0:2:0:0:
384,188,80736,2,0,P|432:160|372:104,1,160,2|0,1:2|1:2,0:0:0:0:
296,108,81186,1,0,0:2:0:0:
72,156,81336,6,0,L|72:72,1,80,2|2,1:2|0:2,0:0:0:0:
216,76,81636,2,0,L|112:76,1,80,2|2,1:2|3:2,0:0:0:0:
280,76,81936,2,0,L|380:76,1,80,2|2,1:2|0:2,0:0:0:0:
216,76,82236,2,0,L|108:76,1,80,2|2,1:2|0:2,0:0:0:0:
360,196,82536,5,4,1:1:0:0:
136,76,82686,2,0,L|52:76,1,80,0|0,3:2|3:2,0:0:0:0:
96,76,82911,1,0,3:2:0:0:
136,76,82986,1,0,3:2:0:0:
360,344,83136,6,0,L|464:344,1,80,8|0,3:1|3:2,0:0:0:0:
216,272,83436,2,0,L|328:272,1,80,0|0,3:2|3:2,0:0:0:0:
72,268,83736,6,0,L|72:172,1,80,0|0,1:2|3:2,0:0:0:0:
216,188,84036,2,0,L|352:188,1,120,0|0,3:2|3:2,0:0:0:0:
184,144,84336,6,0,P|164:104|208:76,1,80,8|0,3:1|3:2,0:0:0:0:
324,76,84636,2,0,L|368:76,2,40,0|0|0,3:2|3:2|3:2,0:0:0:0:
104,328,84936,6,0,L|220:328,1,80,0|0,1:2|3:2,0:0:0:0:
104,328,85236,2,0,L|56:328,2,40,0|0|0,3:2|3:2|3:2,0:0:0:0:
332,328,85536,6,0,P|376:304|304:240,1,160,8|0,3:1|3:2,0:0:0:0:
248,232,85986,1,0,3:2:0:0:
24,172,86136,6,0,L|128:172,1,80,0|0,3:2|3:2,0:0:0:0:
24,172,86436,2,0,L|24:72,1,80,0|0,3:2|3:2,0:0:0:0:
248,296,86736,6,0,L|152:296,1,80,0|0,3:2|3:2,0:0:0:0:
312,232,87036,2,0,L|216:232,1,80,0|0,3:2|3:2,0:0:0:0:
456,168,87336,6,0,P|468:124|440:92,1,80,2|0,1:2|0:2,0:0:0:0:
412,96,87561,1,0,1:2:0:0:
372,96,87636,1,2,0:2:0:0:
452,96,87786,1,2,0:2:0:0:
224,364,87936,2,0,L|224:256,1,80,8|2,0:1|0:2,0:0:0:0:
304,288,88236,2,0,L|400:288,1,80,2|2,0:2|0:2,0:0:0:0:
160,216,88536,5,2,1:2:0:0:
80,216,88686,1,0,0:2:0:0:
80,216,88836,1,2,0:2:0:0:
160,216,88986,1,2,0:2:0:0:
384,224,89136,1,8,0:1:0:0:
464,224,89286,1,0,0:2:0:0:
464,224,89436,1,2,0:2:0:0:
384,224,89586,1,0,0:2:0:0:
132,184,89736,6,0,P|124:120|160:96,1,80,2|0,1:2|0:2,0:0:0:0:
172,112,89961,1,0,1:2:0:0:
212,112,90036,1,2,0:2:0:0:
292,112,90186,1,0,0:2:0:0:
80,320,90336,2,0,L|80:208,1,80,8|0,0:1|0:2,0:0:0:0:
160,240,90636,2,0,L|64:240,1,80,2|0,0:2|0:2,0:0:0:0:
340,164,90936,6,0,L|432:164,2,80,2|0|0,1:2|0:2|0:2,0:0:0:0:
196,164,91386,1,0,1:2:0:0:
408,100,91536,1,8,0:1:0:0:
328,100,91686,2,0,L|328:196,1,80,0|0,1:2|0:2,0:0:0:0:
408,184,91986,1,0,0:2:0:0:
184,244,92136,6,0,L|92:244,1,80,2|0,1:2|0:2,0:0:0:0:
64,244,92361,1,2,1:2:0:0:
104,244,92436,1,0,0:2:0:0:
196,244,92586,1,2,0:2:0:0:
404,244,92736,2,0,L|404:144,1,80,8|0,0:1|0:2,0:0:0:0:
260,168,93036,2,0,L|260:72,1,80,2|0,0:2|0:2,0:0:0:0:
480,76,93336,6,0,L|392:76,1,80,2|0,0:2|0:2,0:0:0:0:
360,76,93561,1,2,0:2:0:0:
400,76,93636,2,0,L|504:76,1,80,0|2,0:2|0:2,0:0:0:0:
256,340,93936,2,0,L|256:232,1,80,8|2,0:1|0:2,0:0:0:0:
400,256,94236,2,0,L|400:160,1,80,2|2,0:2|0:2,0:0:0:0:
164,152,94536,6,0,L|264:152,1,80,2|0,0:2|0:2,0:0:0:0:
284,152,94761,1,2,1:2:0:0:
324,152,94836,2,0,L|324:52,1,80,0|2,0:2|0:2,0:0:0:0:
88,308,95136,2,0,L|88:208,1,80,8|0,0:1|0:2,0:0:0:0:
232,224,95436,2,0,L|140:224,1,80,2|2,0:2|0:2,0:0:0:0:
380,160,95736,6,0,L|380:64,1,80,2|2,1:2|0:2,0:0:0:0:
300,80,96036,1,2,0:2:0:0:
444,48,96186,1,2,1:2:0:0:
172,236,96336,1,8,0:1:0:0:
268,232,96486,2,0,L|268:132,1,80,2|2,1:2|0:2,0:0:0:0:
172,152,96786,1,2,0:2:0:0:
400,152,96936,6,0,L|400:52,1,80,4|0,1:1|0:2,0:0:0:0:
256,72,97236,2,0,L|352:72,1,80,2|2,1:2|0:2,0:0:0:0:
116,280,97536,2,0,L|116:176,1,80,2|2,1:2|0:2,0:0:0:0:
260,200,97836,1,2,1:2:0:0:
20,120,97986,6,0,L|124:120,1,80,2|0,0:2|1:2,0:0:0:0:
243,120,98286,1,2,0:2:0:0:
100,116,98436,2,0,L|100:24,1,80,2|0,1:2|0:2,0:0:0:0:
320,212,98736,2,0,L|140:212,1,160,2|2,1:2|1:2,0:0:0:0:
240,212,99186,1,2,0:2:0:0:
24,212,99336,6,0,L|24:112,1,80,2|0,1:2|0:2,0:0:0:0:
168,136,99636,2,0,L|60:136,1,80,2|2,1:2|0:2,0:0:0:0:
304,136,99936,2,0,L|388:136,1,80,2|2,1:2|0:2,0:0:0:0:
240,136,100236,1,2,1:2:0:0:
460,136,100386,6,0,L|460:48,1,80,2|0,0:2|1:2,0:0:0:0:
316,58,100686,1,2,0:2:0:0:
460,136,100836,2,0,L|460:44,1,80,2|0,1:2|0:2,0:0:0:0:
196,324,101136,2,0,P|152:292|220:224,1,160,2|2,1:2|1:2,0:0:0:0:
284,224,101586,1,2,0:2:0:0:
48,180,101736,6,0,L|48:76,1,80,2|2,1:2|0:2,0:0:0:0:
264,100,102036,2,0,L|380:100,1,80,2|0,1:2|0:2,0:0:0:0:
304,100,102261,1,0,0:2:0:0:
264,100,102336,2,0,L|264:212,1,80,2|2,1:2|0:2,0:0:0:0:
408,188,102636,2,0,L|488:188,1,80,2|0,1:2|0:2,0:0:0:0:
244,348,102936,6,0,L|148:348,1,80,2|0,1:2|0:2,0:0:0:0:
380,276,103236,2,0,L|380:184,1,80,2|0,1:2|0:2,0:0:0:0:
340,196,103461,1,0,0:2:0:0:
300,196,103536,1,2,1:2:0:0:
220,196,103686,1,0,0:2:0:0:
368,136,103836,2,0,L|368:44,1,80,2|2,1:2|0:2,0:0:0:0:
136,268,104136,6,0,L|236:268,1,80,2|0,1:2|0:2,0:0:0:0:
296,264,104436,2,0,L|296:156,1,80,2|2,1:2|0:2,0:0:0:0:
76,184,104736,2,0,L|24:184,2,40,2|0|2,1:2|0:2|0:2,0:0:0:0:
156,184,105036,2,0,L|72:184,1,80,2|0,1:2|0:2,0:0:0:0:
316,184,105336,6,0,L|380:184,2,40,2|0|0,1:2|0:2|0:2,0:0:0:0:
172,248,105636,2,0,L|120:248,2,40,2|0|0,1:2|0:2|0:2,0:0:0:0:
420,248,105936,6,0,L|472:248,2,40,2|0|0,1:2|0:2|0:2,0:0:0:0:
276,184,106236,1,2,1:2:0:0:
316,184,106311,1,0,0:2:0:0:
356,184,106386,1,0,0:2:0:0:
144,256,106536,6,0,L|48:256,1,80,4|2,1:1|0:2,0:0:0:0:
208,352,106836,2,0,L|208:304,1,40,2|0,1:2|0:2,0:0:0:0:
168,312,106986,2,0,L|168:256,1,40,2|0,0:2|0:2,0:0:0:0:
308,300,107136,6,0,L|308:196,1,80,2|2,1:2|0:2,0:0:0:0:
164,220,107436,2,0,L|164:112,1,80,2|2,1:2|0:2,0:0:0:0:
376,136,107736,6,0,L|424:136,2,40,2|0|0,1:2|0:2|0:2,0:0:0:0:
232,136,108036,2,0,L|232:248,1,80,2|0,1:2|0:2,0:0:0:0:
456,236,108336,2,0,L|456:136,1,80,2|0,1:2|0:2,0:0:0:0:
312,164,108636,1,2,1:2:0:0:
456,164,108786,1,2,0:2:0:0:
236,360,108936,6,0,L|144:360,1,80,2|2,1:2|0:2,0:0:0:0:
300,360,109236,2,0,L|340:360,1,40,2|0,1:2|0:2,0:0:0:0:
340,360,109386,2,0,L|276:364,1,40,2|0,0:2|0:2,0:0:0:0:
160,316,109536,6,0,L|160:216,1,80,2|2,1:2|0:2,0:0:0:0:
304,236,109836,2,0,L|416:236,1,80,2|2,1:2|0:2,0:0:0:0:
172,176,110136,6,0,L|120:176,2,40,2|0|0,1:2|0:2|0:2,0:0:0:0:
316,180,110436,2,0,L|316:68,1,80,2|0,1:2|0:2,0:0:0:0:
72,176,110736,6,0,L|72:68,1,80,2|2,1:2|0:2,0:0:0:0:
216,100,111036,1,2,1:2:0:0:
72,100,111186,1,2,0:2:0:0:
328,260,111336,6,0,L|328:168,1,80,2|0,1:2|0:2,0:0:0:0:
184,176,111636,1,2,1:2:0:0:
144,176,111711,1,0,0:2:0:0:
104,176,111786,1,0,0:2:0:0:
328,348,111936,6,0,L|232:348,1,80,2|0,1:2|0:2,0:0:0:0:
104,344,112236,2,0,L|40:344,2,40,2|0|0,1:2|0:2|0:2,0:0:0:0:
336,268,112536,6,0,L|336:168,1,80,2|0,1:2|0:2,0:0:0:0:
192,188,112836,2,0,L|144:188,2,40,2|0|0,1:2|0:2|0:2,0:0:0:0:
404,188,113136,6,0,L|304:188,1,80,2|0,1:2|0:2,0:0:0:0:
468,188,113436,1,2,1:2:0:0:
468,148,113511,1,0,0:0:0:0:
468,108,113586,1,0,0:0:0:0:
232,300,113736,6,0,L|328:300,1,80,4|0,1:2|0:2,0:0:0:0:
456,296,114036,2,0,L|504:296,2,40,2|0|0,1:2|0:2|0:2,0:0:0:0:
212,236,114336,2,0,L|212:144,1,80,2|0,1:2|0:2,0:0:0:0:
356,156,114636,1,2,1:2:0:0:
396,156,114711,1,0,0:2:0:0:
436,156,114786,1,0,0:2:0:0:
188,364,114936,6,0,L|188:256,1,80,4|0,1:2|0:2,0:0:0:0:
332,280,115236,1,6,1:2:0:0:
372,280,115311,1,0,0:0:0:0:
412,280,115386,1,0,0:0:0:0:
180,204,115536,5,6,1:2:0:0:
140,204,115611,1,0,0:0:0:0:
100,204,115686,1,0,0:0:0:0:
348,148,115836,1,6,1:2:0:0:
388,148,115911,1,0,0:0:0:0:
428,148,115986,1,0,0:0:0:0:
180,208,116136,5,4,1:1:0:0:
256,192,116286,12,0,118536,0:2:0:0:
