osu file format v14

[General]
AudioFilename: audio.mp3
AudioLeadIn: 0
PreviewTime: 52542
Countdown: 0
SampleSet: Soft
StackLeniency: 0.7
Mode: 2
LetterboxInBreaks: 0
WidescreenStoryboard: 1

[Editor]
Bookmarks: 20142,24942,29742,34542,39342,53742,63342,72942,80142,87342,92142,96942,101742,104142,106542,116142
DistanceSpacing: 1
BeatDivisor: 4
GridSize: 4
TimelineZoom: 2.300001

[Metadata]
Title:Dopamine
TitleUnicode:ドーパミン
Artist:U1 overground
ArtistUnicode:U1 overground
Creator:Kukkai
Version:Platter
Source:jubeat saucer fulfill
Tags:big_h_zonda_kit big h zonda kit 050 bighzonda bigh Vaqu Lacrima Myle rhythm video game electronic instrumental dubstep u1-asami 浅見祐一 yuichi asami dancedancerevolution 2014 sound voltex gravity wars plus
BeatmapID:4059622
BeatmapSetID:1928802

[Difficulty]
HPDrainRate:4
CircleSize:3.5
OverallDifficulty:8.1
ApproachRate:8.1
SliderMultiplier:1.5
SliderTickRate:1

[Events]
//Background and Video events
0,0,"u1.jpg",0,0
//Break Periods
//Storyboard Layer 0 (Background)
//Storyboard Layer 1 (Fail)
//Storyboard Layer 2 (Pass)
//Storyboard Layer 3 (Foreground)
//Storyboard Layer 4 (Overlay)
//Storyboard Sound Samples

[TimingPoints]
936,300,4,2,1,50,1,0
10536,-100,4,2,1,60,0,0
20136,-100,4,2,1,70,0,0
39336,-100,4,2,1,50,0,0
41736,-100,4,2,1,60,0,0
42936,-100,4,2,1,65,0,0
44136,-100,4,2,1,70,0,0
45036,-100,4,2,1,70,0,0
45336,-100,4,2,1,70,0,0
47436,-100,4,2,1,70,0,0
47736,-100,4,2,1,70,0,0
49836,-100,4,2,1,70,0,0
50136,-100,4,2,1,70,0,0
52236,-100,4,2,1,70,0,0
52536,-100,4,2,1,70,0,0
53736,-100,4,2,1,70,0,1
62736,-100,4,2,1,70,0,0
63336,-100,4,2,1,70,0,1
72936,-100,4,2,1,70,0,0
75336,-100,4,2,1,70,0,1
80136,-100,4,2,1,70,0,0
82536,-100,4,2,1,70,0,1
86136,-100,4,2,1,70,0,0
87336,-100,4,2,1,60,0,0
96936,-100,4,2,1,70,0,0
106536,-100,4,2,1,70,0,1
116136,-100,4,2,1,50,0,0

[Colours]
Combo1 : 255,255,151
Combo2 : 255,128,128
Combo3 : 210,170,255
Combo4 : 255,164,255

[HitObjects]
188,264,936,6,0,P|180:216|276:172,1,150,2|0,0:2|0:2,0:0:0:0:
336,308,1386,2,0,L|176:312,1,150,2|0,0:2|0:2,0:0:0:0:
264,228,1836,6,0,P|296:196|248:108,1,150,2|0,0:2|0:2,0:0:0:0:
120,224,2286,6,0,L|120:136,1,75,2|0,0:2|0:2,0:0:0:0:
192,148,2586,1,0,0:2:0:0:
336,100,2736,2,0,L|380:100,2,37.5,2|0|0,0:2|0:2|0:2,0:0:0:0:
260,100,3036,2,0,L|212:100,2,37.5,2|0|0,0:2|0:2|0:2,0:0:0:0:
404,352,3336,6,0,P|416:308|328:288,1,150,2|0,0:2|0:2,0:0:0:0:
256,208,3786,2,0,L|428:208,1,150,2|0,0:2|0:2,0:0:0:0:
328,120,4236,2,0,P|292:84|340:4,1,150,2|0,0:2|0:2,0:0:0:0:
472,120,4686,6,0,L|472:216,1,75,2|0,0:2|0:2,0:0:0:0:
400,196,4986,1,0,0:2:0:0:
256,352,5136,6,0,L|208:352,2,37.5,2|0|0,0:2|0:2|0:2,0:0:0:0:
332,356,5436,2,0,L|332:308,2,37.5,2|0|0,0:2|0:2|0:2,0:0:0:0:
188,240,5736,6,0,P|144:184|200:136,1,150,2|0,0:2|0:2,0:0:0:0:
264,240,6186,2,0,P|312:192|244:144,1,150,2|0,0:2|0:2,0:0:0:0:
188,240,6636,2,0,P|184:184|276:176,1,150,2|0,0:2|0:2,0:0:0:0:
408,168,7086,6,0,L|408:80,1,75,2|0,0:2|0:2,0:0:0:0:
336,92,7386,1,0,0:2:0:0:
192,96,7536,2,0,L|140:96,2,37.5,2|0|0,0:2|0:2|0:2,0:0:0:0:
268,96,7836,2,0,L|308:96,2,37.5,2|0|0,0:2|0:2|0:2,0:0:0:0:
124,352,8136,6,0,P|120:288|204:280,1,150,2|0,0:2|0:2,0:0:0:0:
272,280,8586,2,0,P|316:252|260:184,1,150,2|0,0:2|0:2,0:0:0:0:
196,280,9036,2,0,L|196:176,1,75,2|0,0:2|0:2,0:0:0:0:
344,220,9336,6,0,P|356:176|268:152,1,150,2|0,0:2|0:2,0:0:0:0:
196,148,9786,1,2,0:2:0:0:
340,76,9936,1,0,0:2:0:0:
415,76,10086,1,0,0:2:0:0:
415,76,10236,1,2,0:2:0:0:
340,76,10386,1,0,0:2:0:0:
120,360,10536,6,0,P|80:320|132:248,1,150,6|0,1:2|1:2,0:0:0:0:
196,252,10986,1,2,0:2:0:0:
272,252,11136,2,0,L|92:252,1,150,2|0,1:2|1:2,0:0:0:0:
376,200,11736,6,0,L|376:100,1,75,2|0,1:2|0:2,0:0:0:0:
304,124,12036,1,0,1:2:0:0:
229,124,12186,1,2,0:2:0:0:
380,68,12336,1,2,1:2:0:0:
455,68,12486,1,2,0:2:0:0:
472,48,12636,1,2,1:2:0:0:
397,48,12786,1,2,0:2:0:0:
172,316,12936,6,0,P|128:288|176:216,1,150,2|0,1:2|1:2,0:0:0:0:
244,216,13386,1,2,0:2:0:0:
320,212,13536,2,0,P|368:180|308:128,1,150,2|2,1:2|1:2,0:0:0:0:
72,72,14136,6,0,L|160:72,1,75,2|0,1:2|0:2,0:0:0:0:
220,72,14436,2,0,L|220:172,1,75,0|2,1:2|0:2,0:0:0:0:
84,296,14736,2,0,L|84:200,1,75,2|2,1:2|0:2,0:0:0:0:
160,216,15036,1,2,1:2:0:0:
85,216,15186,1,2,0:2:0:0:
312,160,15336,6,0,L|448:160,2,112.5,2|2|2,1:2|0:2|0:2,0:0:0:0:
236,160,15936,2,0,L|416:160,1,150,2|2,1:2|1:2,0:0:0:0:
140,340,16536,6,0,L|140:232,1,75,2|0,1:2|0:2,0:0:0:0:
212,268,16836,1,0,1:2:0:0:
288,268,16986,1,2,0:2:0:0:
152,204,17136,5,2,1:2:0:0:
76,204,17286,1,2,0:2:0:0:
40,204,17361,1,2,0:2:0:0:
76,132,17436,1,2,1:2:0:0:
152,128,17586,1,2,0:2:0:0:
384,352,17736,6,0,L|384:216,1,112.5,2|2,1:2|0:2,0:0:0:0:
272,236,18186,1,2,0:2:0:0:
348,236,18336,2,0,L|500:240,1,150,2|0,1:2|1:2,0:0:0:0:
216,180,18936,6,0,L|108:180,2,100,2|2|2,0:2|0:2|0:2,0:0:0:0:
360,180,19536,2,0,L|468:180,2,100,2|2|2,0:2|0:2|0:2,0:0:0:0:
88,360,20136,6,0,P|52:308|108:228,1,150,4|0,1:1|1:2,0:0:0:0:
160,236,20586,1,0,3:2:0:0:
236,236,20736,2,0,L|236:140,1,75,0|0,1:2|3:2,0:0:0:0:
100,156,21036,2,0,L|48:156,2,37.5,2|2|2,1:1|0:1|0:1,0:0:0:0:
236,236,21336,6,0,P|308:184|264:132,1,150,0|0,1:2|1:2,0:0:0:0:
212,140,21786,1,0,3:2:0:0:
68,152,21936,2,0,P|32:108|88:36,1,150,0|2,1:2|1:2,0:0:0:0:
112,40,22311,1,2,0:2:0:0:
148,40,22386,1,2,0:2:0:0:
292,372,22536,6,0,L|292:292,1,75,0|0,1:2|3:2,0:0:0:0:
216,300,22836,2,0,L|160:300,2,37.5,0|0|0,1:2|3:2|3:2,0:0:0:0:
356,296,23136,1,0,1:2:0:0:
432,296,23286,1,0,3:2:0:0:
432,296,23436,1,2,1:3:0:0:
396,296,23511,1,2,0:3:0:0:
356,296,23586,1,2,0:3:0:0:
208,304,23736,6,0,L|40:304,1,150,0|0,1:2|1:2,0:0:0:0:
132,304,24186,1,0,3:2:0:0:
280,136,24336,2,0,L|280:224,1,75,0|0,1:2|3:2,0:0:0:0:
132,240,24636,2,0,L|132:144,1,75,0|0,1:2|3:2,0:0:0:0:
344,368,24936,6,0,P|388:328|324:272,1,150,4|0,1:1|1:2,0:0:0:0:
264,272,25386,1,0,3:2:0:0:
188,276,25536,1,0,1:2:0:0:
188,200,25686,1,0,3:2:0:0:
336,148,25836,2,0,L|384:148,2,37.5,2|2|2,1:1|0:1|0:1,0:0:0:0:
188,168,26136,6,0,P|144:128|196:48,1,150,0|0,1:2|1:2,0:0:0:0:
252,52,26586,1,0,3:2:0:0:
396,288,26736,2,0,L|224:288,1,150,0|2,1:2|1:2,0:0:0:0:
208,288,27111,1,2,0:2:0:0:
208,252,27186,1,2,0:2:0:0:
352,216,27336,6,0,L|352:120,1,75,0|0,1:2|3:2,0:0:0:0:
276,144,27636,2,0,L|368:144,1,75,0|0,1:2|3:2,0:0:0:0:
208,84,27936,1,0,1:2:0:0:
132,84,28086,1,0,3:2:0:0:
132,160,28236,1,2,1:3:0:0:
168,160,28311,1,2,0:3:0:0:
208,84,28386,1,2,0:3:0:0:
352,368,28536,6,0,L|168:368,1,150,0|0,1:2|1:2,0:0:0:0:
276,368,28986,1,0,3:2:0:0:
420,308,29136,2,0,P|456:276|384:208,1,150,0|2,3:2|0:2,0:0:0:0:
372,208,29511,1,2,0:2:0:0:
336,208,29586,1,2,0:2:0:0:
112,224,29736,6,0,P|72:188|136:128,1,150,4|0,1:1|1:2,0:0:0:0:
196,128,30186,1,0,3:2:0:0:
120,124,30336,1,0,1:2:0:0:
120,48,30486,1,0,3:2:0:0:
260,264,30636,1,2,1:1:0:0:
297,264,30711,1,2,0:1:0:0:
335,264,30786,1,2,0:1:0:0:
192,228,30936,6,0,P|152:188|224:124,1,150,0|0,1:2|1:2,0:0:0:0:
272,120,31386,1,0,3:2:0:0:
408,56,31536,2,0,L|236:56,1,150,0|2,1:2|1:2,0:0:0:0:
220,60,31911,1,2,0:2:0:0:
184,60,31986,1,2,0:2:0:0:
412,248,32136,5,0,1:2:0:0:
488,248,32286,1,0,3:2:0:0:
488,248,32436,1,0,1:2:0:0:
412,248,32586,1,0,3:2:0:0:
280,252,32736,2,0,L|280:164,1,75,0|0,1:2|3:2,0:0:0:0:
412,172,33036,2,0,L|464:172,2,37.5,2|2|2,1:3|0:3|0:3,0:0:0:0:
184,336,33336,6,0,L|24:336,1,150,0|0,1:2|1:2,0:0:0:0:
108,336,33786,1,0,3:2:0:0:
248,284,33936,2,0,L|248:200,1,75,0|0,1:2|0:2,0:0:0:0:
108,208,34236,2,0,L|108:112,1,75,0|0,1:2|3:2,0:0:0:0:
332,272,34536,6,0,L|508:272,1,150,4|0,1:1|1:2,0:0:0:0:
408,272,34986,1,0,3:2:0:0:
484,272,35136,2,0,L|484:184,1,75,0|0,1:2|3:2,0:0:0:0:
344,192,35436,1,2,1:1:0:0:
306,192,35511,1,2,0:1:0:0:
269,192,35586,1,2,0:1:0:0:
412,160,35736,6,0,P|460:120|392:60,1,150,0|0,1:2|1:2,0:0:0:0:
344,60,36186,1,0,3:2:0:0:
208,304,36336,2,0,L|372:304,1,150,0|2,1:2|1:2,0:0:0:0:
396,304,36711,1,2,0:2:0:0:
358,304,36786,1,2,0:2:0:0:
132,260,36936,6,0,P|84:228|140:144,1,150,0|0,1:2|1:2,0:0:0:0:
184,152,37386,1,0,3:2:0:0:
320,152,37536,2,0,L|320:64,1,75,0|0,1:2|3:2,0:0:0:0:
244,76,37836,1,2,1:3:0:0:
206,76,37911,1,2,0:3:0:0:
169,76,37986,1,2,0:3:0:0:
304,352,38136,6,0,P|344:312|284:256,1,150,0|0,1:2|1:2,0:0:0:0:
216,260,38586,1,0,3:2:0:0:
80,268,38736,2,0,L|80:180,1,75,2|2,1:2|0:2,0:0:0:0:
156,192,39036,2,0,L|52:192,1,75,0|0,1:2|3:2,0:0:0:0:
308,364,39336,6,0,L|308:184,4,150,4|0|0|0|0,0:1|0:2|0:2|0:2|0:2,0:0:0:0:
176,336,40686,5,8,0:1:0:0:
48,348,40836,2,0,L|48:168,2,150,0|0|0,0:2|0:2|0:2,0:0:0:0:
420,360,41736,6,0,L|508:360,2,75,12|8|8,0:2|0:2|0:2,0:0:0:0:
344,360,42186,1,8,0:2:0:0:
268,360,42336,6,0,L|268:264,1,75,8|8,0:2|0:2,0:0:0:0:
404,280,42636,2,0,L|404:196,1,75,8|8,0:2|0:2,0:0:0:0:
176,208,42936,5,12,0:2:0:0:
100,208,43086,1,8,0:2:0:0:
100,172,43161,1,8,0:2:0:0:
100,136,43236,1,8,0:2:0:0:
176,136,43386,1,8,0:2:0:0:
312,132,43536,2,0,L|312:40,1,75,12|8,0:2|0:2,0:0:0:0:
272,60,43761,1,8,0:2:0:0:
232,60,43836,2,0,L|232:156,1,75,12|8,0:2|0:2,0:0:0:0:
448,368,44136,6,0,P|488:328|416:264,1,150,4|0,1:1|1:2,0:0:0:0:
368,260,44586,1,2,0:2:0:0:
292,260,44736,2,0,L|292:164,1,75,2|2,1:2|0:2,0:0:0:0:
428,184,45036,1,2,1:2:0:0:
292,160,45186,2,0,L|292:64,1,75,2|0,0:2|1:2,0:0:0:0:
448,80,45636,6,0,L|344:80,1,75,0|0,1:2|3:2,0:0:0:0:
296,80,45936,2,0,L|456:80,1,150,0|0,1:2|1:2,0:0:0:0:
446,80,46386,1,0,0:2:0:0:
208,364,46536,6,0,P|168:316|232:256,1,150,2|0,1:2|1:2,0:0:0:0:
288,256,46986,1,2,0:2:0:0:
364,260,47136,2,0,L|364:160,1,75,2|2,1:2|0:2,0:0:0:0:
228,156,47436,1,2,1:2:0:0:
364,264,47586,2,0,L|364:180,1,75,2|0,0:2|1:2,0:0:0:0:
216,180,48036,6,0,L|216:72,1,75,0|0,1:2|3:2,0:0:0:0:
292,100,48336,2,0,L|120:100,1,150,0|0,1:2|1:2,0:0:0:0:
142,100,48786,1,0,0:2:0:0:
360,356,48936,6,0,P|400:308|332:244,1,150,2|0,1:2|1:2,0:0:0:0:
280,248,49386,1,2,0:2:0:0:
356,244,49536,1,2,1:2:0:0:
432,244,49686,1,2,0:2:0:0:
312,176,49836,1,2,1:2:0:0:
432,244,49986,2,0,L|432:140,1,75,2|0,0:2|1:2,0:0:0:0:
280,96,50436,5,0,1:2:0:0:
205,96,50586,1,0,3:2:0:0:
132,96,50736,2,0,L|300:96,1,150,0|0,1:2|1:2,0:0:0:0:
360,96,51186,1,0,0:2:0:0:
132,360,51336,6,0,P|96:316|164:244,1,150,2|0,1:2|1:2,0:0:0:0:
216,244,51786,1,2,0:2:0:0:
352,244,51936,2,0,L|352:140,1,75,2|2,1:2|0:2,0:0:0:0:
212,172,52236,1,2,1:2:0:0:
348,244,52386,1,2,0:2:0:0:
140,352,53736,6,0,L|140:272,1,75,4|0,1:1|3:2,0:0:0:0:
216,272,54036,2,0,L|268:272,2,37.5,2|2|2,0:3|0:3|0:3,0:0:0:0:
68,240,54336,2,0,P|28:212|88:144,1,150,8|0,3:1|3:2,0:0:0:0:
188,140,54786,1,0,3:2:0:0:
304,136,54936,6,0,L|304:240,1,75,0|0,1:2|3:2,0:0:0:0:
228,212,55236,2,0,L|140:212,1,75,0|0,3:2|3:2,0:0:0:0:
300,216,55536,2,0,L|480:216,1,150,8|0,3:1|3:2,0:0:0:0:
376,216,55986,1,0,0:0:0:0:
136,276,56136,5,0,1:2:0:0:
89,263,56236,1,0,3:2:0:0:
68,220,56336,1,0,3:2:0:0:
88,175,56436,1,0,1:2:0:0:
134,162,56536,1,0,3:2:0:0:
412,356,56736,5,8,3:1:0:0:
456,335,56836,1,0,3:2:0:0:
471,289,56936,1,0,3:2:0:0:
448,246,57036,1,0,3:2:0:0:
402,232,57136,1,0,3:2:0:0:
116,244,57336,6,0,P|84:184|144:120,1,150,0|0,1:2|3:2,0:0:0:0:
204,124,57786,1,0,1:2:0:0:
352,52,57936,2,0,L|172:52,1,150,8|0,3:1|3:2,0:0:0:0:
128,60,58386,1,0,3:2:0:0:
344,296,58536,6,0,L|344:208,1,75,0|0,1:2|3:2,0:0:0:0:
268,220,58836,1,2,0:1:0:0:
230,220,58911,1,2,0:1:0:0:
193,220,58986,1,2,0:1:0:0:
344,221,59136,2,0,P|388:165|320:113,1,150,8|0,3:1|3:2,0:0:0:0:
308,117,59511,1,0,3:2:0:0:
272,117,59586,1,0,3:2:0:0:
120,124,59736,6,0,L|120:220,1,75,0|0,1:2|3:2,0:0:0:0:
196,200,60036,2,0,L|96:200,1,75,2|2,0:2|0:2,0:0:0:0:
272,196,60336,1,8,3:1:0:0:
348,200,60486,2,0,L|392:200,2,37.5,0|0|0,3:2|3:2|3:2,0:0:0:0:
272,196,60786,1,0,3:2:0:0:
40,208,60936,6,0,L|40:100,1,75,0|0,1:2|3:2,0:0:0:0:
192,132,61236,2,0,L|84:132,1,75,0|0,1:2|3:2,0:0:0:0:
332,136,61536,2,0,L|424:136,1,75,8|0,3:1|3:2,0:0:0:0:
184,140,61836,2,0,L|184:52,1,75,0|0,3:2|3:2,0:0:0:0:
400,360,62136,6,0,P|436:312|368:248,1,150,0|0,1:2|3:2,0:0:0:0:
352,252,62511,1,0,3:2:0:0:
316,252,62586,1,0,3:2:0:0:
164,252,62736,1,8,3:1:0:0:
84,256,62886,2,0,P|56:208|108:120,1,150,0|0,0:0|0:0,0:0:0:0:
324,320,63336,6,0,L|416:320,1,75,4|0,1:1|3:2,0:0:0:0:
324,320,63636,1,2,1:3:0:0:
286,320,63711,1,2,3:3:0:0:
249,320,63786,1,2,3:3:0:0:
400,312,63936,6,0,L|400:216,1,75,0|0,1:2|3:2,0:0:0:0:
248,248,64236,2,0,L|248:156,1,75,0|0,1:2|3:2,0:0:0:0:
400,172,64536,5,0,1:2:0:0:
464,143,64686,1,0,3:2:0:0:
460,72,64836,1,0,1:2:0:0:
393,51,64986,1,0,3:2:0:0:
244,44,65136,6,0,L|244:136,1,75,0|0,1:2|0:0,0:0:0:0:
400,112,65436,2,0,L|448:112,2,37.5,0|0|0,1:2|3:2|3:2,0:0:0:0:
112,364,65736,5,0,1:2:0:0:
64,354,65836,1,0,3:2:0:0:
44,310,65936,1,0,3:2:0:0:
67,268,66036,1,0,1:2:0:0:
115,262,66136,1,0,3:2:0:0:
416,364,66336,5,0,1:2:0:0:
463,354,66436,1,0,3:2:0:0:
483,310,66536,1,0,3:2:0:0:
460,268,66636,1,0,1:2:0:0:
412,262,66736,1,0,3:2:0:0:
116,204,66936,6,0,L|116:108,1,75,0|0,1:2|3:2,0:0:0:0:
192,132,67236,1,0,1:2:0:0:
229,132,67311,1,0,3:2:0:0:
267,132,67386,1,0,3:2:0:0:
112,96,67536,2,0,L|20:96,1,75,0|0,1:2|3:2,0:0:0:0:
172,96,67836,2,0,L|68:96,1,75,0|0,1:2|3:2,0:0:0:0:
332,368,68136,6,0,L|332:268,1,75,4|0,1:1|3:2,0:0:0:0:
184,300,68436,2,0,L|184:216,1,75,0|0,1:2|3:2,0:0:0:0:
424,216,68736,2,0,L|504:216,1,75,0|0,1:2|3:2,0:0:0:0:
276,160,69036,2,0,L|192:160,1,75,0|0,1:2|3:2,0:0:0:0:
424,160,69336,6,0,P|472:112|404:64,1,150,0|2,1:2|1:2,0:0:0:0:
388,64,69711,1,2,3:2:0:0:
352,64,69786,1,2,3:2:0:0:
200,64,69936,2,0,L|200:156,1,75,0|0,1:2|3:2,0:0:0:0:
352,140,70236,2,0,L|416:140,2,37.5,0|0|0,1:1|3:1|3:1,0:0:0:0:
124,360,70536,6,0,P|80:324|144:248,1,150,0|0,1:2|1:2,0:0:0:0:
192,248,70986,1,0,3:2:0:0:
344,248,71136,2,0,L|344:168,1,50,0|0,1:2|3:2,0:0:0:0:
292,204,71336,1,0,3:2:0:0:
240,196,71436,2,0,L|240:120,1,50,0|0,1:2|3:2,0:0:0:0:
420,144,71736,6,0,L|420:48,1,75,0|0,1:2|3:2,0:0:0:0:
344,72,72036,2,0,L|436:68,1,75,0|0,1:2|3:2,0:0:0:0:
268,76,72336,2,0,L|180:76,1,75,0|0,1:2|3:2,0:0:0:0:
344,72,72636,2,0,L|424:72,1,75,0|0,1:2|3:2,0:0:0:0:
156,356,72936,6,0,P|112:312|176:260,1,150,4|0,1:1|1:2,0:0:0:0:
236,260,73386,1,2,0:2:0:0:
312,264,73536,2,0,L|312:180,1,75,0|2,1:2|0:2,0:0:0:0:
236,196,73836,2,0,L|236:112,1,75,2|2,1:2|0:2,0:0:0:0:
392,148,74136,6,0,P|432:100|360:40,1,150,2|2,1:2|1:2,0:0:0:0:
308,40,74586,1,2,3:2:0:0:
228,40,74736,2,0,L|228:136,1,75,2|0,1:2|0:2,0:0:0:0:
308,40,75036,2,0,L|408:40,1,75,2|0,1:2|0:2,0:0:0:0:
128,364,75336,6,0,P|80:324|144:272,1,150,4|0,1:1|3:2,0:0:0:0:
164,272,75711,1,0,3:2:0:0:
200,272,75786,1,0,3:2:0:0:
352,272,75936,2,0,L|352:176,1,75,8|0,3:1|3:2,0:0:0:0:
316,196,76161,1,0,3:2:0:0:
276,196,76236,2,0,L|184:196,1,75,0|0,3:2|3:2,0:0:0:0:
352,120,76536,6,0,L|492:120,2,112.5,0|0|0,1:2|3:2|3:2,0:0:0:0:
192,312,77136,2,0,L|352:312,1,150,8|0,3:1|3:2,0:0:0:0:
342,312,77586,1,0,0:0:0:0:
100,272,77736,6,0,P|64:224|128:160,1,150,0|0,1:2|3:2,0:0:0:0:
164,160,78136,1,0,3:2:0:0:
212,160,78236,1,0,3:2:0:0:
328,168,78336,2,0,L|328:72,1,75,8|0,0:1|0:2,0:0:0:0:
252,92,78636,2,0,L|252:0,1,75,0|0,3:2|3:2,0:0:0:0:
408,368,78936,6,0,P|468:300|424:256,1,150,0|2,1:2|0:2,0:0:0:0:
368,268,79386,1,2,0:2:0:0:
216,192,79536,1,8,3:1:0:0:
140,192,79686,1,2,0:1:0:0:
104,192,79761,1,2,0:1:0:0:
140,192,79836,1,2,0:1:0:0:
216,192,79986,1,0,3:2:0:0:
444,196,80136,6,0,P|480:136|408:80,1,150,0|2,1:2|1:2,0:0:0:0:
360,80,80586,1,2,0:2:0:0:
284,80,80736,2,0,L|448:80,1,150,2|0,1:2|1:2,0:0:0:0:
360,76,81186,1,0,0:2:0:0:
208,364,81336,6,0,L|208:268,1,75,2|2,1:2|0:2,0:0:0:0:
284,292,81636,2,0,L|284:200,1,75,2|2,1:2|3:2,0:0:0:0:
132,192,81936,1,2,1:2:0:0:
56,192,82086,1,2,0:2:0:0:
56,192,82236,1,2,1:2:0:0:
132,192,82386,1,2,0:2:0:0:
376,192,82536,6,0,L|376:84,1,75,4|0,1:1|3:2,0:0:0:0:
300,116,82836,1,0,3:2:0:0:
262,116,82911,1,0,3:2:0:0:
225,116,82986,1,0,3:2:0:0:
376,368,83136,2,0,P|408:332|356:256,1,150,8|0,3:1|3:2,0:0:0:0:
248,264,83586,1,0,3:2:0:0:
132,264,83736,6,0,L|132:184,1,75,0|0,1:2|3:2,0:0:0:0:
208,192,84036,2,0,L|300:192,1,75,0|0,3:2|3:2,0:0:0:0:
132,144,84336,2,0,P|96:100|148:28,1,150,8|0,3:1|3:2,0:0:0:0:
216,32,84786,1,0,3:2:0:0:
444,368,84936,6,0,P|484:320|416:252,1,150,0|0,1:2|3:2,0:0:0:0:
404,256,85311,1,0,0:0:0:0:
368,256,85386,1,0,0:0:0:0:
224,252,85536,2,0,P|196:204|252:108,1,150,8|0,3:1|3:2,0:0:0:0:
304,124,85986,1,0,3:2:0:0:
440,120,86136,5,0,3:2:0:0:
444,196,86286,2,0,L|444:360,1,150,0|0,3:2|3:2,0:0:0:0:
288,352,86736,2,0,L|184:352,1,75,0|0,3:2|3:2,0:0:0:0:
364,288,87036,2,0,L|364:196,1,75,0|0,3:2|3:2,0:0:0:0:
148,224,87336,6,0,L|20:224,2,112.5,2|0|2,1:2|1:2|0:2,0:0:0:0:
300,228,87936,2,0,L|300:132,1,75,8|2,0:1|0:2,0:0:0:0:
224,152,88236,2,0,L|224:48,1,75,2|2,0:2|0:2,0:0:0:0:
376,368,88536,6,0,P|412:308|352:248,1,150,2|2,1:2|0:2,0:0:0:0:
292,252,88986,1,2,0:2:0:0:
136,260,89136,2,0,P|92:220|156:156,1,150,8|2,0:1|0:2,0:0:0:0:
208,152,89586,1,0,0:2:0:0:
364,148,89736,6,0,L|500:148,2,112.5,2|0|0,1:2|1:2|0:2,0:0:0:0:
212,364,90336,2,0,L|212:272,1,75,8|0,0:1|0:2,0:0:0:0:
288,296,90636,2,0,L|376:296,1,75,2|0,0:2|0:2,0:0:0:0:
200,232,90936,6,0,L|48:232,1,150,2|0,1:2|0:2,0:0:0:0:
124,232,91386,1,0,1:2:0:0:
276,228,91536,2,0,L|276:144,1,75,8|0,0:1|1:2,0:0:0:0:
200,156,91836,2,0,L|108:156,1,75,0|0,0:2|0:2,0:0:0:0:
356,88,92136,6,0,L|504:88,2,112.5,2|2|2,1:2|1:2|0:2,0:0:0:0:
200,328,92736,2,0,L|200:248,1,75,8|0,0:1|0:2,0:0:0:0:
276,252,93036,2,0,L|276:144,1,75,2|0,0:2|0:2,0:0:0:0:
128,132,93336,6,0,L|4:132,2,112.5,2|2|2,0:2|0:2|0:2,0:0:0:0:
288,136,93936,2,0,L|288:32,1,75,8|2,0:1|0:2,0:0:0:0:
212,60,94236,2,0,L|112:60,1,75,2|2,0:2|0:2,0:0:0:0:
288,272,94536,6,0,L|432:272,2,112.5,2|2|2,0:2|1:2|0:2,0:0:0:0:
136,272,95136,1,8,0:1:0:0:
60,272,95286,1,0,0:2:0:0:
60,196,95436,1,2,0:2:0:0:
136,196,95586,1,2,0:2:0:0:
288,196,95736,6,0,P|332:144|264:88,1,150,2|2,1:2|0:2,0:0:0:0:
212,88,96186,1,2,1:2:0:0:
56,96,96336,2,0,L|56:180,1,75,8|2,0:1|1:2,0:0:0:0:
132,168,96636,2,0,L|28:168,1,75,2|2,0:2|0:2,0:0:0:0:
308,356,96936,6,0,P|348:308|276:256,1,150,4|2,1:1|1:2,0:0:0:0:
224,256,97386,1,2,0:2:0:0:
148,256,97536,2,0,L|148:172,1,75,2|2,1:2|0:2,0:0:0:0:
268,176,97836,1,2,1:2:0:0:
388,176,97986,6,0,P|420:144|360:68,1,150,2|2,0:2|0:2,0:0:0:0:
220,348,98436,2,0,L|220:264,1,75,2|0,1:2|0:2,0:0:0:0:
296,276,98736,2,0,L|456:276,1,150,2|2,1:2|1:2,0:0:0:0:
372,276,99186,1,2,0:2:0:0:
132,284,99336,6,0,P|84:228|144:180,1,150,2|2,1:2|1:2,0:0:0:0:
200,180,99786,1,2,0:2:0:0:
276,180,99936,2,0,L|276:92,1,75,2|2,1:2|0:2,0:0:0:0:
156,104,100236,1,2,1:2:0:0:
36,332,100386,6,0,P|20:280|56:172,1,150,2|2,0:2|0:2,0:0:0:0:
196,360,100836,2,0,L|196:268,1,75,2|0,1:2|0:2,0:0:0:0:
120,288,101136,2,0,P|84:248|148:168,1,150,2|2,1:2|1:2,0:0:0:0:
196,176,101586,1,2,0:2:0:0:
428,308,101736,6,0,L|428:204,1,75,2|2,1:2|0:2,0:0:0:0:
276,232,102036,2,0,L|188:232,1,75,2|0,1:2|0:2,0:0:0:0:
240,232,102261,1,0,0:2:0:0:
276,232,102336,1,2,1:2:0:0:
352,232,102486,1,2,0:2:0:0:
352,232,102636,1,2,1:2:0:0:
276,232,102786,1,0,0:2:0:0:
124,228,102936,6,0,L|124:140,1,75,2|0,1:2|0:2,0:0:0:0:
276,156,103236,2,0,L|364:156,1,75,2|0,1:2|0:2,0:0:0:0:
312,156,103461,1,0,0:2:0:0:
276,156,103536,2,0,L|276:64,1,75,2|0,1:2|0:2,0:0:0:0:
352,80,103836,2,0,L|352:0,1,75,2|2,1:2|0:2,0:0:0:0:
124,352,104136,5,2,1:2:0:0:
48,352,104286,1,0,0:2:0:0:
48,352,104436,1,2,1:2:0:0:
124,352,104586,1,2,0:2:0:0:
272,356,104736,2,0,L|272:264,1,75,2|2,1:2|0:2,0:0:0:0:
196,284,105036,2,0,L|196:184,1,75,2|0,1:2|0:2,0:0:0:0:
344,208,105336,5,2,1:2:0:0:
381,208,105411,1,0,0:2:0:0:
419,208,105486,1,0,0:2:0:0:
419,208,105636,2,0,L|340:208,1,75,2|0,1:2|0:2,0:0:0:0:
192,208,105936,2,0,L|144:208,2,37.5,2|0|0,1:2|0:2|0:2,0:0:0:0:
268,204,106236,2,0,L|352:204,1,75,2|0,1:2|0:2,0:0:0:0:
116,132,106536,6,0,L|28:132,2,75,4|2|2,1:1|0:2|1:2,0:0:0:0:
152,132,106911,1,0,0:2:0:0:
188,132,106986,1,2,0:2:0:0:
340,128,107136,2,0,L|340:28,1,75,2|2,1:2|0:2,0:0:0:0:
264,52,107436,2,0,L|164:52,1,75,2|2,1:2|0:2,0:0:0:0:
340,368,107736,5,2,1:2:0:0:
368,344,107811,1,0,0:2:0:0:
377,309,107886,1,0,0:2:0:0:
361,276,107961,1,0,0:2:0:0:
328,259,108036,1,2,1:2:0:0:
252,260,108186,1,0,0:2:0:0:
100,264,108336,2,0,L|100:176,1,75,2|0,1:2|0:2,0:0:0:0:
176,188,108636,2,0,L|92:188,1,75,2|2,1:2|0:2,0:0:0:0:
316,100,108936,6,0,L|412:100,1,75,2|2,1:2|0:2,0:0:0:0:
316,100,109236,1,2,1:2:0:0:
278,100,109311,1,0,0:2:0:0:
241,100,109386,1,2,0:2:0:0:
392,36,109536,1,2,1:2:0:0:
468,40,109686,1,2,0:2:0:0:
468,40,109836,1,2,1:2:0:0:
392,36,109986,1,2,0:2:0:0:
240,352,110136,5,2,1:2:0:0:
206,339,110211,1,0,0:2:0:0:
193,305,110286,1,0,0:2:0:0:
211,273,110361,1,0,0:2:0:0:
246,266,110436,1,2,1:2:0:0:
320,268,110586,1,0,0:2:0:0:
472,268,110736,2,0,L|472:176,1,75,2|2,1:2|0:2,0:0:0:0:
396,192,111036,2,0,L|496:192,1,75,2|2,1:2|0:2,0:0:0:0:
244,124,111336,6,0,L|152:124,2,75,2|0|2,1:2|0:2|1:2,0:0:0:0:
280,124,111711,1,0,0:2:0:0:
316,124,111786,1,0,0:2:0:0:
168,260,111936,2,0,L|64:260,1,75,2|0,1:2|0:2,0:0:0:0:
56,260,112161,1,0,0:2:0:0:
92,260,112236,1,2,1:2:0:0:
168,264,112386,1,0,0:2:0:0:
396,264,112536,6,0,L|396:164,1,75,2|0,1:2|0:2,0:0:0:0:
360,188,112761,1,0,0:2:0:0:
324,188,112836,1,2,1:2:0:0:
248,188,112986,1,0,0:2:0:0:
400,116,113136,1,2,1:2:0:0:
476,116,113286,1,0,0:2:0:0:
476,116,113361,1,0,0:2:0:0:
476,116,113436,1,2,1:2:0:0:
400,116,113586,1,0,0:2:0:0:
160,120,113736,6,0,L|160:228,1,75,4|0,1:2|0:2,0:0:0:0:
236,200,114036,1,2,1:2:0:0:
273,200,114111,1,0,0:2:0:0:
311,200,114186,1,0,0:2:0:0:
164,300,114336,1,2,1:2:0:0:
88,300,114486,1,0,0:2:0:0:
52,300,114561,1,0,0:2:0:0:
88,300,114636,1,2,1:2:0:0:
164,300,114786,1,0,0:2:0:0:
392,216,114936,6,0,L|392:136,1,75,4|0,1:2|0:2,0:0:0:0:
240,144,115236,2,0,L|328:144,1,75,6|0,1:2|0:2,0:0:0:0:
160,144,115536,2,0,L|160:56,1,75,6|2,1:2|0:2,0:0:0:0:
312,64,115836,2,0,L|408:64,1,75,6|2,1:2|0:2,0:0:0:0:
160,216,116136,1,4,1:1:0:0:
256,192,116436,12,0,118536,0:2:0:0:
