osu file format v14

[General]
AudioFilename: audio.mp3
AudioLeadIn: 0
PreviewTime: 52542
Countdown: 0
SampleSet: Soft
StackLeniency: 0.7
Mode: 2
LetterboxInBreaks: 0
WidescreenStoryboard: 1

[Editor]
Bookmarks: 20142,29742,39342,53742,53892,63342,72942,80142,87342,96942,106542,116142
DistanceSpacing: 1.1
BeatDivisor: 4
GridSize: 16
TimelineZoom: 2.9

[Metadata]
Title:Dopamine
TitleUnicode:ドーパミン
Artist:U1 overground
ArtistUnicode:U1 overground
Creator:Kukkai
Version:Lacrima's Overdose
Source:jubeat saucer fulfill
Tags:big_h_zonda_kit big h zonda kit 050 bighzonda bigh Vaqu Lacrima Myle rhythm video game electronic instrumental dubstep u1-asami 浅見祐一 yuichi asami dancedancerevolution 2014 sound voltex gravity wars plus
BeatmapID:4007560
BeatmapSetID:1928802

[Difficulty]
HPDrainRate:5
CircleSize:4
OverallDifficulty:9.6
ApproachRate:9.6
SliderMultiplier:1.8
SliderTickRate:2

[Events]
//Background and Video events
0,0,"u1.jpg",0,0
//Break Periods
//Storyboard Layer 0 (Background)
//Storyboard Layer 1 (Fail)
//Storyboard Layer 2 (Pass)
//Storyboard Layer 3 (Foreground)
//Storyboard Layer 4 (Overlay)
//Storyboard Sound Samples

[TimingPoints]
936,300,4,2,1,50,1,0
10536,-100,4,2,1,60,0,0
20136,-40,4,2,1,70,0,0
20436,-100,4,2,1,70,0,0
23136,-40,4,2,1,70,0,0
25236,-100,4,2,1,70,0,0
27936,-40,4,2,1,70,0,0
28236,-100,4,2,1,70,0,0
28536,-66.6666666666667,4,2,1,70,0,0
29736,-100,4,2,1,70,0,0
39336,-100,4,2,1,50,0,0
41736,-100,4,2,1,60,0,0
42936,-100,4,2,1,65,0,0
44136,-100,4,2,1,70,0,0
45036,-40,4,2,1,70,0,0
45336,-100,4,2,1,70,0,0
47436,-40,4,2,1,70,0,0
47736,-100,4,2,1,70,0,0
49836,-40,4,2,1,70,0,0
50136,-100,4,2,1,70,0,0
52236,-40,4,2,1,70,0,0
52536,-100,4,2,1,70,0,0
53736,-100,4,2,1,70,0,1
62736,-100,4,2,1,70,0,0
63336,-100,4,2,1,70,0,1
72936,-100,4,2,1,70,0,0
75336,-100,4,2,1,70,0,1
80136,-100,4,2,1,70,0,0
82536,-100,4,2,1,70,0,1
86136,-100,4,2,1,70,0,0
87336,-100,4,2,1,60,0,0
96936,-100,4,2,1,70,0,0
106536,-100,4,2,1,70,0,1
116136,-100,4,2,1,50,0,0

[Colours]
Combo1 : 255,255,151
Combo2 : 255,128,128
Combo3 : 210,170,255
Combo4 : 255,164,255

[HitObjects]
235,312,936,5,2,0:2:0:0:
202,280,1011,1,0,0:2:0:0:
165,255,1086,1,0,0:2:0:0:
125,235,1161,1,0,0:2:0:0:
82,222,1236,1,0,0:2:0:0:
211,188,1386,1,2,0:2:0:0:
243,156,1461,1,0,0:2:0:0:
280,131,1536,1,0,0:2:0:0:
320,111,1611,1,0,0:2:0:0:
363,98,1686,1,0,0:2:0:0:
236,240,1836,1,2,0:2:0:0:
230,289,1911,1,0,0:2:0:0:
225,338,1986,1,0,0:2:0:0:
320,365,2136,5,0,0:2:0:0:
188,128,2286,1,2,0:2:0:0:
149,149,2361,1,0,0:2:0:0:
135,191,2436,1,0,0:2:0:0:
152,231,2511,1,0,0:2:0:0:
191,250,2586,1,0,0:2:0:0:
320,181,2736,1,2,0:2:0:0:
272,166,2811,1,0,0:2:0:0:
224,151,2886,1,0,0:2:0:0:
338,306,3036,1,2,0:2:0:0:
386,291,3111,1,0,0:2:0:0:
434,276,3186,1,0,0:2:0:0:
306,345,3336,5,2,0:2:0:0:
287,304,3411,1,0,0:2:0:0:
258,270,3486,1,0,0:2:0:0:
220,244,3561,1,0,0:2:0:0:
178,230,3636,1,0,0:2:0:0:
306,120,3786,2,0,L|252:117,2,45,2|0|0,0:2|0:2|0:2,0:0:0:0:
125,335,4236,2,0,L|71:332,2,45,2|0|0,0:2|0:2|0:2,0:0:0:0:
211,218,4536,1,0,0:2:0:0:
78,152,4686,5,2,0:2:0:0:
120,125,4761,1,0,0:2:0:0:
168,116,4836,1,0,0:2:0:0:
347,298,5136,1,2,0:2:0:0:
305,271,5211,1,0,0:2:0:0:
257,262,5286,1,0,0:2:0:0:
127,351,5436,1,2,0:2:0:0:
169,324,5511,1,0,0:2:0:0:
217,315,5586,1,0,0:2:0:0:
346,73,5736,5,2,0:2:0:0:
355,116,5811,1,0,0:2:0:0:
379,153,5886,1,0,0:2:0:0:
416,179,5961,1,0,0:2:0:0:
460,188,6036,1,0,0:2:0:0:
336,221,6186,1,2,0:2:0:0:
334,270,6261,1,0,0:2:0:0:
332,319,6336,1,0,0:2:0:0:
237,348,6486,1,0,0:2:0:0:
365,356,6636,1,2,0:2:0:0:
373,312,6711,1,0,0:2:0:0:
396,273,6786,1,0,0:2:0:0:
432,246,6861,1,0,0:0:0:0:
474,232,6936,5,0,0:2:0:0:
345,235,7086,1,2,0:2:0:0:
319,198,7161,1,0,0:2:0:0:
285,168,7236,1,0,0:2:0:0:
245,148,7311,1,0,0:2:0:0:
201,138,7386,1,0,0:2:0:0:
328,100,7536,1,2,0:2:0:0:
323,149,7611,1,0,0:2:0:0:
318,198,7686,1,0,0:2:0:0:
190,228,7836,1,2,0:2:0:0:
185,277,7911,1,0,0:2:0:0:
180,326,7986,1,0,0:2:0:0:
311,359,8136,5,2,0:2:0:0:
349,337,8211,1,0,0:2:0:0:
364,296,8286,1,0,0:2:0:0:
348,255,8361,1,0,0:2:0:0:
309,235,8436,1,0,0:2:0:0:
182,120,8586,2,0,L|124:122,2,45,2|0|0,0:2|0:2|0:2,0:0:0:0:
348,184,9036,2,0,L|290:186,2,45,2|0|0,0:2|0:2|0:2,0:0:0:0:
221,61,9336,5,2,0:2:0:0:
178,74,9411,1,0,0:2:0:0:
145,103,9486,1,0,0:2:0:0:
127,144,9561,1,0,0:2:0:0:
128,189,9636,1,0,0:2:0:0:
148,229,9711,1,0,0:0:0:0:
183,257,9786,1,2,0:2:0:0:
226,267,9861,1,0,0:2:0:0:
168,321,9936,2,0,L|66:321,1,90,0|0,0:2|0:2,0:0:0:0:
201,201,10236,2,0,L|99:201,1,90,2|0,0:2|0:2,0:0:0:0:
396,313,10536,5,6,1:2:0:0:
266,183,10686,1,0,0:2:0:0:
261,133,10761,1,2,0:2:0:0:
256,83,10836,1,0,1:2:0:0:
384,32,10986,1,2,0:2:0:0:
253,280,11136,2,0,L|133:275,1,90,2|0,1:2|0:2,0:0:0:0:
298,351,11436,2,0,L|418:346,1,90,0|0,1:2|0:2,0:0:0:0:
156,235,11736,5,2,1:2:0:0:
287,146,11886,1,0,0:2:0:0:
237,143,11961,1,2,0:2:0:0:
187,140,12036,1,0,1:2:0:0:
319,87,12186,1,2,0:2:0:0:
186,288,12336,1,2,1:2:0:0:
319,87,12486,1,2,0:2:0:0:
325,259,12636,1,2,1:2:0:0:
190,286,12786,1,2,0:2:0:0:
462,243,12936,6,0,L|339:235,1,90,2|0,1:2|0:2,0:0:0:0:
364,188,13161,1,2,0:2:0:0:
356,139,13236,1,0,1:2:0:0:
226,103,13386,1,2,0:2:0:0:
360,66,13536,2,0,L|254:57,1,90,2|0,1:2|0:2,0:0:0:0:
396,337,13836,2,0,L|272:354,1,90,2|0,1:2|0:2,0:0:0:0:
77,329,14136,5,2,1:2:0:0:
117,312,14211,1,0,0:0:0:0:
134,271,14286,1,0,0:2:0:0:
119,230,14361,1,2,0:2:0:0:
79,212,14436,1,0,1:2:0:0:
212,150,14586,1,2,0:2:0:0:
79,212,14736,2,0,L|18:212,1,45,2|0,1:2|0:0,0:0:0:0:
89,263,14886,2,0,L|150:262,1,45,2|0,0:2|0:0,0:0:0:0:
60,158,15036,2,0,L|-1:157,1,45,2|0,1:2|0:2,0:0:0:0:
69,208,15186,2,0,L|130:207,1,45,2|0,0:2|0:2,0:0:0:0:
315,278,15336,6,0,L|205:269,1,90,2|0,1:2|0:2,0:0:0:0:
229,220,15561,1,2,0:2:0:0:
232,170,15636,1,0,1:2:0:0:
103,107,15786,1,2,0:2:0:0:
235,113,15936,2,0,L|347:113,1,90,2|0,1:2|0:2,0:0:0:0:
191,244,16236,2,0,L|75:243,1,90,2|0,1:2|0:2,0:0:0:0:
348,349,16536,5,2,1:2:0:0:
219,288,16686,1,0,0:2:0:0:
267,276,16761,1,2,0:2:0:0:
315,264,16836,1,0,1:2:0:0:
182,208,16986,1,2,0:2:0:0:
396,143,17136,1,2,1:2:0:0:
182,208,17286,1,2,0:2:0:0:
231,202,17361,1,2,0:2:0:0:
280,196,17436,1,2,1:2:0:0:
153,142,17586,1,2,0:2:0:0:
412,346,17736,6,0,L|401:232,1,90,2|0,1:2|0:2,0:0:0:0:
354,249,17961,1,2,0:2:0:0:
305,241,18036,1,0,1:2:0:0:
441,154,18186,1,2,0:2:0:0:
303,117,18336,1,2,1:2:0:0:
441,154,18486,1,0,0:2:0:0:
400,170,18561,1,0,0:2:0:0:
385,211,18636,1,0,1:2:0:0:
404,250,18711,1,0,0:0:0:0:
446,263,18786,1,0,0:2:0:0:
186,154,18936,6,0,L|116:152,2,60,2|2|2,0:2|0:2|0:2,0:0:0:0:
326,269,19236,2,0,L|396:267,2,60,2|2|2,0:2|0:2|0:2,0:0:0:0:
152,302,19536,2,0,L|48:298,1,60,2|2,0:2|0:2,0:0:0:0:
357,360,19736,2,0,L|445:359,2,60,2|2|2,0:2|0:2|0:2,0:0:0:0:
91,202,20136,6,0,B|315:204|315:204|90:202,1,450,4|0,1:1|1:2,0:0:0:0:
314,203,20511,2,0,L|394:203,2,45,0|0|0,3:2|3:2|3:2,0:0:0:0:
91,202,20736,2,0,L|199:200,1,90,0|0,1:2|3:2,0:0:0:0:
453,210,21036,2,0,L|443:193,1,11.25,2|0,1:1|0:0,0:0:0:0:
406,159,21111,2,0,L|396:142,1,11.25,2|0,0:1|0:0,0:0:0:0:
243,110,21186,2,0,L|233:93,1,11.25,2|0,0:1|0:0,0:0:0:0:
196,92,21261,2,0,L|186:75,1,11.25,2|0,0:1|0:0,0:0:0:0:
376,62,21336,6,0,L|286:52,2,90,0|0|0,1:2|3:2|1:2,0:0:0:0:
213,204,21711,2,0,L|135:208,1,45,0|0,3:2|3:2,0:0:0:0:
405,292,21936,2,0,L|406:107,1,180,0|2,1:2|1:2,0:0:0:0:
394,111,22254,1,0,0:0:0:0:
251,144,22311,2,0,L|232:141,1,11.25,2|0,0:2|0:0,0:0:0:0:
198,191,22386,2,0,L|178:188,1,11.25,2|0,0:2|0:0,0:0:0:0:
63,146,22461,2,0,L|51:145,1,11.25,2|0,0:2|0:0,0:0:0:0:
258,333,22536,5,0,1:2:0:0:
298,316,22611,1,0,0:0:0:0:
315,276,22686,1,0,3:2:0:0:
299,236,22761,1,0,3:2:0:0:
258,333,22836,1,0,1:2:0:0:
406,188,22911,2,0,L|459:187,2,45,0|0|0,3:2|3:2|3:2,0:0:0:0:
162,79,23136,2,0,L|386:78,1,225,0|0,1:2|3:2,0:0:0:0:
386,222,23436,1,2,1:3:0:0:
340,254,23511,1,2,0:3:0:0:
294,320,23586,1,2,0:3:0:0:
340,254,23661,1,2,0:3:0:0:
152,289,23736,6,0,L|116:225,6,56.25,0|0|0|0|0|0|0,1:2|0:0|0:0|0:0|3:2|0:0|3:2,0:0:0:0:
314,133,24036,2,0,L|370:31,2,112.5,0|0|0,1:2|3:2|3:2,0:0:0:0:
177,291,24336,2,0,L|121:189,2,112.5,0|0|0,1:2|3:2|3:2,0:0:0:0:
457,322,24636,2,0,B|231:321|231:321|150:230,1,337.5,0|0,1:2|3:2,0:0:0:0:
156,237,24936,6,0,B|381:239|381:239|154:237,1,450,4|0,1:1|1:2,0:0:0:0:
341,322,25311,2,0,L|394:322,2,45,0|0|0,3:2|3:2|3:2,0:0:0:0:
116,318,25536,2,0,L|14:318,1,90,0|0,1:2|3:2,0:0:0:0:
282,158,25836,2,0,L|302:157,1,11.25,2|0,1:1|0:0,0:0:0:0:
332,95,25911,2,0,L|316:95,1,11.25,2|0,0:1|0:0,0:0:0:0:
156,216,25986,2,0,L|136:215,1,11.25,2|0,0:1|0:0,0:0:0:0:
106,153,26061,2,0,L|122:153,1,11.25,2|0,0:1|0:0,0:0:0:0:
346,289,26136,6,0,L|247:286,2,90,0|0|0,1:2|3:2|1:2,0:0:0:0:
165,351,26511,2,0,L|98:349,1,45,0|0,3:2|3:2,0:0:0:0:
387,340,26736,2,0,L|383:126,1,180,0|2,1:2|1:2,0:0:0:0:
371,160,27054,1,0,0:0:0:0:
240,199,27111,2,0,L|220:198,1,11.25,2|0,0:2|0:0,0:0:0:0:
188,163,27186,2,0,L|168:162,1,11.25,2|0,0:2|0:0,0:0:0:0:
46,49,27261,2,0,L|66:48,1,11.25,2|0,0:2|0:0,0:0:0:0:
262,302,27336,5,0,1:2:0:0:
278,260,27411,1,0,0:0:0:0:
304,223,27486,1,0,3:2:0:0:
337,192,27561,1,0,3:2:0:0:
375,169,27636,1,0,1:2:0:0:
210,108,27711,2,0,L|136:100,2,45,0|0|0,3:2|3:2|3:2,0:0:0:0:
481,222,27936,2,0,L|258:250,1,225,0|0,1:2|3:2,0:0:0:0:
258,250,28236,1,2,1:3:0:0:
307,250,28311,1,2,0:3:0:0:
258,250,28386,1,2,0:3:0:0:
208,249,28461,1,2,0:3:0:0:
378,343,28536,6,0,L|535:332,3,135.000005149842,0|0|0|0,1:2|3:2|1:2|3:2,0:0:0:0:
257,324,29136,1,0,3:2:0:0:
257,324,29436,2,0,L|265:305,1,16.8750006437302,2|0,0:2|0:0,0:0:0:0:
320,301,29511,2,0,L|328:282,1,16.8750006437302,2|0,0:2|0:0,0:0:0:0:
383,278,29586,2,0,L|391:259,1,16.8750006437302,2|0,0:2|0:0,0:0:0:0:
446,255,29661,2,0,L|454:236,1,16.8750006437302,2|0,0:2|0:0,0:0:0:0:
217,136,29736,6,0,L|317:137,2,90,4|0|0,1:1|3:2|1:2,0:0:0:0:
343,246,30186,1,0,3:2:0:0:
383,229,30261,1,0,3:2:0:0:
402,189,30336,1,0,1:2:0:0:
388,148,30411,1,0,3:2:0:0:
349,127,30486,1,0,3:2:0:0:
64,180,30636,2,0,L|80:133,1,45,2|2,1:1|0:1,0:0:0:0:
225,71,30786,2,0,L|241:24,1,45,2|2,0:1|0:1,0:0:0:0:
387,301,30936,6,0,L|263:296,1,90,0|0,1:2|3:2,0:0:0:0:
138,304,31161,2,0,L|23:299,1,90,0|0,3:2|3:2,0:0:0:0:
228,190,31386,2,0,L|294:191,1,45,0|0,3:2|3:2,0:0:0:0:
112,132,31536,2,0,L|98:25,1,90,0|0,1:2|3:2,0:0:0:0:
398,249,31836,2,0,L|326:238,1,45,2|2,1:2|0:2,0:0:0:0:
200,296,31986,2,0,L|122:289,1,45,2|2,0:2|0:2,0:0:0:0:
388,191,32136,6,0,L|287:183,1,90,0|0,1:2|3:2,0:0:0:0:
298,183,32361,2,0,L|388:191,1,90,0|0,3:2|3:2,0:0:0:0:
206,259,32586,2,0,L|140:261,1,45,0|0,3:2|3:2,0:0:0:0:
363,326,32736,1,0,1:2:0:0:
409,310,32811,1,0,3:2:0:0:
427,263,32886,1,0,3:2:0:0:
399,221,32961,1,0,3:2:0:0:
235,165,33036,2,0,L|228:119,3,45,2|2|2|2,1:3|0:3|0:3|0:3,0:0:0:0:
458,88,33336,6,0,L|354:73,1,90,0|0,1:2|3:2,0:0:0:0:
202,243,33561,2,0,L|316:218,1,90,0|0,3:2|3:2,0:0:0:0:
153,126,33786,2,0,L|86:125,1,45,0|0,3:2|3:2,0:0:0:0:
318,247,33936,2,0,L|437:248,1,90,0|0,1:2|0:2,0:0:0:0:
167,325,34236,2,0,L|48:326,1,90,0|0,1:2|3:2,0:0:0:0:
393,355,34536,6,0,L|298:343,1,90,4|0,1:1|3:2,0:0:0:0:
164,243,34761,2,0,L|287:215,1,90,0|0,3:2|3:2,0:0:0:0:
407,151,34986,2,0,L|336:140,1,45,0|0,3:2|3:2,0:0:0:0:
186,144,35136,2,0,L|91:132,1,90,0|0,1:2|3:2,0:0:0:0:
391,254,35436,2,0,L|378:188,1,45,2|2,1:1|0:1,0:0:0:0:
241,145,35586,2,0,L|228:79,1,45,2|2,0:1|0:1,0:0:0:0:
41,290,35736,6,0,L|167:276,1,90,0|0,1:2|3:2,0:0:0:0:
301,348,35961,2,0,L|417:328,1,90,0|0,3:2|3:2,0:0:0:0:
214,206,36186,2,0,L|160:201,1,45,0|0,3:2|3:2,0:0:0:0:
351,130,36336,2,0,L|246:120,1,90,0|0,1:2|3:2,0:0:0:0:
17,278,36636,2,0,L|76:270,1,45,2|2,1:2|0:2,0:0:0:0:
280,299,36786,2,0,L|342:293,1,45,2|2,0:2|0:2,0:0:0:0:
124,198,36936,6,0,L|241:192,1,90,0|0,1:2|3:2,0:0:0:0:
213,193,37161,2,0,L|330:187,1,90,0|0,3:2|3:2,0:0:0:0:
134,103,37386,2,0,L|66:105,1,45,0|0,3:2|3:2,0:0:0:0:
280,290,37536,1,0,1:2:0:0:
329,287,37611,1,0,3:2:0:0:
280,290,37686,1,0,3:2:0:0:
230,290,37761,1,0,3:2:0:0:
427,167,37836,2,0,L|435:117,3,45,2|2|2|2,1:3|0:3|0:3|0:3,0:0:0:0:
203,274,38136,6,0,L|144:274,1,45,0|0,1:2|0:0,0:0:0:0:
335,338,38286,2,0,L|394:338,1,45,0|0,3:2|3:2,0:0:0:0:
323,338,38436,2,0,L|264:338,1,45,0|0,1:2|3:2,0:0:0:0:
455,274,38586,2,0,L|514:274,1,45,0|0,3:2|3:2,0:0:0:0:
270,202,38736,2,0,L|262:143,3,45,2|2|2|2,1:2|0:2|0:2|0:2,0:0:0:0:
427,102,39036,2,0,L|438:8,1,90,0|0,1:2|3:2,0:0:0:0:
130,24,39336,5,4,0:1:0:0:
127,41,39636,1,0,0:2:0:0:
125,58,39936,1,0,0:2:0:0:
123,75,40236,1,0,0:2:0:0:
121,92,40536,1,0,0:2:0:0:
347,209,40686,1,8,0:1:0:0:
119,109,40836,1,0,0:2:0:0:
117,126,41136,1,0,0:2:0:0:
115,143,41436,1,0,0:2:0:0:
492,252,41736,5,12,0:2:0:0:
362,143,41886,1,8,0:2:0:0:
492,252,42036,1,8,0:2:0:0:
462,291,42111,1,8,0:2:0:0:
414,305,42186,1,8,0:2:0:0:
284,200,42336,1,8,0:2:0:0:
422,128,42486,1,8,0:2:0:0:
294,66,42636,1,8,0:2:0:0:
149,8,42786,1,8,0:2:0:0:
465,235,42936,5,12,0:2:0:0:
208,312,43086,1,8,0:2:0:0:
258,310,43161,1,8,0:2:0:0:
308,308,43236,1,8,0:2:0:0:
88,196,43386,2,0,L|13:197,2,45,8|8|12,0:2|0:2|0:2,0:0:0:0:
304,312,43686,1,8,0:2:0:0:
254,310,43761,1,8,0:2:0:0:
204,308,43836,1,12,0:2:0:0:
424,196,43986,2,0,L|499:197,1,45,8|8,0:2|0:2,0:0:0:0:
180,232,44136,6,0,B|270:232|270:232|176:231,1,180,4|0,1:1|1:2,0:0:0:0:
310,316,44586,2,0,L|229:315,1,45,2|0,0:2|0:0,0:0:0:0:
180,232,44736,2,0,L|308:232,1,90,2|2,1:2|0:2,0:0:0:0:
48,151,45036,2,0,B|273:152|273:152|22:150,1,450,2|0,1:2|1:2,0:0:0:0:
238,332,45636,6,0,L|250:267,1,45,0|0,1:2|0:0,0:0:0:0:
412,216,45786,2,0,L|425:153,1,45,0|0,3:2|0:0,0:0:0:0:
235,138,45936,2,0,L|228:86,3,45,0|0|0|0,1:2|0:0|0:2|0:0,0:0:0:0:
84,54,46236,2,0,L|77:2,3,45,0|0|0|0,1:2|0:0|0:2|0:0,0:0:0:0:
350,244,46536,6,0,P|261:244|351:244,1,180,2|0,1:2|1:2,0:0:0:0:
231,190,46986,2,0,L|166:190,1,45,2|0,0:2|0:0,0:0:0:0:
266,271,47136,2,0,L|387:271,1,90,2|2,1:2|0:2,0:0:0:0:
143,132,47436,2,0,B|367:133|367:133|142:130,1,450,2|0,1:2|1:2,0:0:0:0:
331,286,48036,2,0,L|281:281,1,45,0|0,1:2|0:0,0:0:0:0:
135,158,48186,2,0,L|185:153,1,45,0|0,3:2|0:0,0:0:0:0:
317,72,48336,2,0,L|325:11,3,45,0|0|0|0,1:2|0:0|0:2|0:0,0:0:0:0:
455,278,48636,2,0,L|447:217,3,45,0|0|0|0,1:2|0:0|0:2|0:0,0:0:0:0:
268,198,48936,6,0,B|178:198|178:198|293:198,1,180,2|0,1:2|1:2,0:0:0:0:
139,131,49386,2,0,L|68:131,1,45,2|0,0:2|0:0,0:0:0:0:
245,250,49536,2,0,L|132:250,1,90,2|2,1:2|0:2,0:0:0:0:
378,145,49836,2,0,B|154:143|154:143|389:147,1,450,2|0,1:2|1:2,0:0:0:0:
192,267,50436,6,0,L|130:266,1,45,0|0,1:2|0:0,0:0:0:0:
303,327,50586,2,0,L|365:326,1,45,0|0,3:2|0:0,0:0:0:0:
192,267,50736,2,0,L|130:266,1,45,0|0,1:2|0:0,0:0:0:0:
345,250,50886,1,0,0:2:0:0:
386,235,50961,1,0,0:0:0:0:
413,200,51036,1,0,1:2:0:0:
415,156,51111,1,0,0:0:0:0:
391,118,51186,1,0,0:2:0:0:
351,101,51261,1,0,0:0:0:0:
144,192,51336,6,0,L|335:192,1,180,2|0,1:2|1:2,0:0:0:0:
199,258,51786,2,0,L|200:309,1,45,2|0,0:2|0:0,0:0:0:0:
349,328,51936,2,0,L|446:326,1,90,2|2,1:2|0:2,0:0:0:0:
165,187,52236,2,0,B|391:186|391:186,1,225,2|2,1:2|0:2,0:0:0:0:
118,300,53736,5,4,1:1:0:0:
373,166,53886,1,0,3:2:0:0:
118,300,54036,2,0,L|108:242,3,45,2|2|2|2,0:3|0:3|0:3|0:3,0:0:0:0:
260,208,54336,1,8,3:1:0:0:
309,203,54411,1,0,0:0:0:0:
259,200,54486,1,0,3:2:0:0:
209,197,54561,1,0,3:2:0:0:
373,142,54636,2,0,L|378:84,1,45,0|0,3:2|3:2,0:0:0:0:
162,56,54786,2,0,L|167:-2,1,45,0|0,3:2|3:2,0:0:0:0:
374,213,54936,6,0,L|364:321,1,90,0|0,1:2|3:2,0:0:0:0:
225,254,55236,2,0,L|215:362,1,90,0|0,3:2|3:2,0:0:0:0:
471,283,55536,1,8,3:1:0:0:
294,193,55836,1,0,3:2:0:0:
360,193,55936,1,0,3:2:0:0:
294,193,56036,1,0,3:2:0:0:
96,326,56136,6,0,L|29:323,2,60,0|0|0,1:2|3:2|3:2,0:0:0:0:
256,144,56436,2,0,L|189:141,2,60,0|0|0,1:2|3:2|3:2,0:0:0:0:
416,326,56736,6,0,L|483:323,2,60,8|0|0,3:1|3:2|3:2,0:0:0:0:
256,144,57036,2,0,L|323:141,2,60,0|0|0,3:2|3:2|3:2,0:0:0:0:
69,257,57336,6,0,L|209:256,1,135,0|0,1:2|3:2,0:0:0:0:
391,323,57636,1,0,3:2:0:0:
440,321,57711,1,0,3:2:0:0:
391,323,57786,1,0,1:2:0:0:
440,321,57861,1,0,3:2:0:0:
278,219,57936,2,0,L|175:217,1,90,8|0,3:1|1:2,0:0:0:0:
316,292,58236,2,0,L|419:290,1,90,0|0,3:2|3:2,0:0:0:0:
148,343,58536,5,0,1:2:0:0:
398,153,58686,1,0,3:2:0:0:
177,117,58836,2,0,L|169:99,1,11.25,2|0,0:1|0:0,0:0:0:0:
122,77,58911,2,0,L|114:59,1,11.25,2|0,0:1|0:0,0:0:0:0:
275,258,58986,2,0,L|283:240,1,11.25,2|0,0:1|0:0,0:0:0:0:
330,218,59061,2,0,L|338:200,1,11.25,2|0,0:1|0:0,0:0:0:0:
100,225,59136,2,0,L|89:173,3,45,8|0|0|0,3:1|0:0|3:2|3:2,0:0:0:0:
230,326,59436,1,0,3:2:0:0:
368,327,59511,1,0,3:2:0:0:
506,320,59586,1,0,3:2:0:0:
246,176,59736,5,0,1:2:0:0:
416,135,60036,1,2,0:2:0:0:
366,133,60111,1,2,0:2:0:0:
416,135,60186,1,2,0:2:0:0:
366,133,60261,1,2,0:2:0:0:
217,249,60336,1,8,3:1:0:0:
167,244,60411,1,0,0:0:0:0:
216,240,60486,1,0,3:2:0:0:
265,236,60561,1,0,3:2:0:0:
126,162,60636,1,0,3:2:0:0:
76,157,60711,1,0,3:2:0:0:
125,153,60786,1,0,3:2:0:0:
174,149,60861,1,0,3:2:0:0:
363,275,60936,6,0,L|399:272,2,22.5,0|0|0,1:2|3:2|0:0,0:0:0:0:
211,146,61086,2,0,L|178:142,2,22.5,0|0|0,3:2|3:2|0:0,0:0:0:0:
306,100,61236,2,0,L|342:97,2,22.5,0|0|0,1:2|3:2|0:0,0:0:0:0:
108,58,61386,2,0,L|75:54,2,22.5,0|0|0,3:2|3:2|0:0,0:0:0:0:
326,170,61536,5,8,3:1:0:0:
436,96,61573,2,0,L|400:91,1,22.5,0|0,3:2|0:0,0:0:0:0:
213,263,61686,1,0,3:2:0:0:
103,189,61723,2,0,L|139:184,1,22.5,0|0,3:2|0:0,0:0:0:0:
299,263,61836,1,0,3:2:0:0:
409,189,61873,2,0,L|373:184,1,22.5,0|0,3:2|0:0,0:0:0:0:
119,298,61986,1,0,3:2:0:0:
9,224,62023,2,0,L|45:219,1,22.5,0|0,3:2|0:0,0:0:0:0:
280,258,62136,6,0,L|104:259,1,135,0|0,1:2|3:2,0:0:0:0:
321,344,62436,2,0,L|388:344,1,45,0|0,3:2|3:2,0:0:0:0:
202,177,62586,2,0,L|267:177,1,45,0|0,3:2|3:2,0:0:0:0:
407,75,62736,1,8,3:1:0:0:
148,67,62886,2,0,L|142:260,1,180,0|0,0:0|0:0,0:0:0:0:
400,322,63336,5,4,1:1:0:0:
154,329,63486,1,0,3:2:0:0:
281,181,63636,1,2,1:3:0:0:
231,177,63711,1,2,3:3:0:0:
181,173,63786,1,2,3:3:0:0:
230,171,63861,1,2,3:3:0:0:
396,264,63936,2,0,L|436:263,4,22.5,0|0|0|0|0,1:2|0:0|0:0|0:0|3:2,0:0:0:0:
270,263,64236,2,0,L|265:231,2,22.5,0|0|0,1:2|3:2|3:2,0:0:0:0:
347,165,64386,2,0,L|352:133,2,22.5,0|0|0,3:2|3:2|3:2,0:0:0:0:
175,234,64536,6,0,L|69:232,1,90,0|0,1:2|3:2,0:0:0:0:
329,299,64836,2,0,P|359:251|453:207,1,135,0|0,1:2|3:2,0:0:0:0:
235,138,65136,2,0,P|205:90|111:46,1,135,0|0,1:2|3:2,0:0:0:0:
333,153,65436,1,0,1:2:0:0:
381,140,65511,1,0,3:2:0:0:
333,153,65586,1,0,3:2:0:0:
381,140,65661,1,0,3:2:0:0:
157,279,65736,6,0,L|71:274,2,60,0|0|0,1:2|3:2|3:2,0:0:0:0:
328,188,66036,1,0,1:2:0:0:
157,279,66136,2,0,L|226:278,1,60,0|0,3:2|3:2,0:0:0:0:
382,279,66336,1,0,1:2:0:0:
214,183,66436,2,0,L|283:182,1,60,0|0,3:2|3:2,0:0:0:0:
106,117,66636,2,0,L|36:117,2,60,0|0|0,1:2|3:2|3:2,0:0:0:0:
326,264,66936,6,0,L|153:265,1,135,0|0,1:2|3:2,0:0:0:0:
353,344,67236,1,0,1:2:0:0:
402,343,67311,1,0,3:2:0:0:
353,344,67386,1,0,3:2:0:0:
402,343,67461,1,0,3:2:0:0:
237,186,67536,2,0,L|196:185,6,22.5,0|0|0|0|0|0|0,1:2|3:2|3:2|3:2|3:2|3:2|3:2,0:0:0:0:
386,255,67836,2,0,L|486:249,1,90,0|0,1:2|3:2,0:0:0:0:
149,275,68136,6,0,L|113:272,2,22.5,4|0|0,1:1|3:2|0:0,0:0:0:0:
301,146,68286,2,0,L|334:142,2,22.5,0|0|0,3:2|3:2|0:0,0:0:0:0:
206,100,68436,2,0,L|170:97,2,22.5,0|0|0,1:2|3:2|0:0,0:0:0:0:
404,58,68586,2,0,L|437:54,2,22.5,0|0|0,3:2|3:2|0:0,0:0:0:0:
186,170,68736,5,0,1:2:0:0:
76,96,68773,2,0,L|112:91,1,22.5,0|0,3:2|0:0,0:0:0:0:
299,263,68886,1,0,3:2:0:0:
409,189,68923,2,0,L|373:184,1,22.5,0|0,3:2|0:0,0:0:0:0:
213,263,69036,1,0,1:2:0:0:
103,189,69073,2,0,L|139:184,1,22.5,0|0,3:2|0:0,0:0:0:0:
393,298,69186,1,0,3:2:0:0:
503,224,69223,2,0,L|467:219,1,22.5,0|0,3:2|0:0,0:0:0:0:
203,240,69336,6,0,L|76:239,1,90,0|0,1:2|3:2,0:0:0:0:
351,309,69636,2,0,L|295:308,1,45,2|2,1:2|3:2,0:0:0:0:
146,170,69786,2,0,L|86:169,1,45,2|2,3:2|3:2,0:0:0:0:
308,122,69936,2,0,L|311:73,3,45,0|0|0|0,1:2|0:0|3:2|3:2,0:0:0:0:
128,47,70236,2,0,L|72:47,2,45,0|0|0,1:1|3:1|3:1,0:0:0:0:
375,268,70536,6,0,L|219:265,1,135,0|0,1:2|3:2,0:0:0:0:
416,163,70836,2,0,L|519:161,1,90,0|0,1:2|3:2,0:0:0:0:
208,245,71136,1,0,1:2:0:0:
142,243,71236,1,0,3:2:0:0:
207,243,71336,1,0,3:2:0:0:
386,161,71436,1,0,1:2:0:0:
208,245,71536,1,0,3:2:0:0:
273,247,71636,1,0,3:2:0:0:
100,232,71736,6,0,L|90:133,1,90,0|0,1:2|3:2,0:0:0:0:
335,332,72036,2,0,L|196:331,1,135,0|0,1:2|3:2,0:0:0:0:
370,231,72336,2,0,L|388:124,1,90,0|0,1:2|3:2,0:0:0:0:
159,107,72636,2,0,L|177:0,1,90,0|0,1:2|3:2,0:0:0:0:
414,160,72936,6,0,L|298:157,2,90,4|0|0,1:1|0:2|1:2,0:0:0:0:
280,323,73386,1,2,0:2:0:0:
264,281,73461,1,0,0:2:0:0:
237,245,73536,1,0,1:2:0:0:
201,218,73611,1,0,0:0:0:0:
159,202,73686,1,2,0:2:0:0:
295,144,73836,1,2,1:2:0:0:
304,95,73911,1,0,0:2:0:0:
314,46,73986,1,2,0:2:0:0:
77,282,74136,6,0,L|275:275,1,180,2|2,1:2|1:2,0:0:0:0:
44,161,74586,1,2,3:2:0:0:
299,219,74736,2,0,L|202:208,1,90,2|0,1:2|0:2,0:0:0:0:
75,339,75036,2,0,L|177:328,1,90,2|0,1:2|0:2,0:0:0:0:
410,163,75336,5,4,1:1:0:0:
177,165,75486,1,0,3:2:0:0:
218,181,75561,1,0,3:2:0:0:
243,218,75636,1,0,3:2:0:0:
243,262,75711,1,0,3:2:0:0:
218,299,75786,1,0,3:2:0:0:
177,316,75861,1,0,3:2:0:0:
375,306,75936,2,0,L|436:307,2,45,8|0|0,3:1|3:2|3:2,0:0:0:0:
141,156,76236,2,0,L|286:157,1,135,0|0,3:2|3:2,0:0:0:0:
77,270,76536,5,0,1:2:0:0:
341,328,76686,2,0,L|263:327,1,45,0|0,3:2|3:2,0:0:0:0:
164,82,76911,2,0,L|209:83,1,45,0|0,3:2|3:2,0:0:0:0:
463,91,77136,6,0,B|373:98|373:98|369:187|369:187|483:183,1,270,8|0,3:1|0:0,0:0:0:0:
189,290,77736,6,0,L|313:289,1,120,0|0,1:2|0:0,0:0:0:0:
208,171,78036,1,0,3:2:0:0:
142,166,78136,1,0,3:2:0:0:
208,171,78236,1,0,3:2:0:0:
389,135,78336,2,0,L|394:24,1,90,8|0,0:1|0:2,0:0:0:0:
153,291,78636,1,0,3:2:0:0:
391,348,78786,1,0,3:2:0:0:
153,291,78936,5,0,1:2:0:0:
391,348,79086,1,2,0:2:0:0:
341,349,79161,1,2,0:2:0:0:
291,350,79236,1,2,0:2:0:0:
508,231,79386,1,2,0:2:0:0:
163,293,79536,1,8,3:1:0:0:
291,208,79686,1,2,0:1:0:0:
340,205,79761,1,2,0:1:0:0:
291,208,79836,1,2,0:1:0:0:
340,205,79911,1,2,0:1:0:0:
291,208,79986,1,0,3:2:0:0:
47,212,80136,6,0,L|146:205,1,90,0|0,1:2|0:2,0:0:0:0:
268,297,80436,2,0,L|183:292,1,45,2|0,1:2|0:2,0:0:0:0:
166,235,80586,2,0,L|251:230,1,45,2|0,0:2|0:2,0:0:0:0:
404,167,80736,1,2,1:2:0:0:
359,161,80811,1,0,0:2:0:0:
314,155,80886,1,0,0:2:0:0:
184,298,81036,1,0,1:2:0:0:
139,293,81111,1,0,0:2:0:0:
94,289,81186,1,0,0:2:0:0:
334,283,81336,6,0,L|341:225,1,45,2|0,1:2|0:2,0:0:0:0:
410,208,81486,2,0,L|417:150,1,45,2|0,0:2|0:2,0:0:0:0:
240,199,81636,2,0,L|233:141,1,45,2|0,1:2|3:2,0:0:0:0:
164,124,81786,2,0,L|157:66,1,45,2|0,3:2|3:2,0:0:0:0:
334,283,81936,6,0,L|341:225,1,45,2|0,1:2|0:2,0:0:0:0:
410,208,82086,2,0,L|417:150,1,45,2|0,0:2|0:2,0:0:0:0:
240,199,82236,2,0,L|233:141,1,45,2|0,1:2|0:2,0:0:0:0:
164,124,82386,2,0,L|157:66,1,45,2|0,0:2|0:2,0:0:0:0:
394,300,82536,5,4,1:1:0:0:
139,166,82686,1,0,3:2:0:0:
394,300,82836,2,0,L|404:242,3,45,0|0|0|0,3:2|3:2|3:2|3:2,0:0:0:0:
252,208,83136,1,8,3:1:0:0:
203,203,83211,1,0,0:0:0:0:
253,200,83286,1,0,3:2:0:0:
303,197,83361,1,0,3:2:0:0:
139,142,83436,2,0,L|134:84,1,45,0|0,3:2|3:2,0:0:0:0:
350,56,83586,2,0,L|345:-2,1,45,0|0,3:2|3:2,0:0:0:0:
138,213,83736,6,0,L|148:321,1,90,0|0,1:2|3:2,0:0:0:0:
287,254,84036,2,0,L|297:362,1,90,0|0,3:2|3:2,0:0:0:0:
65,251,84336,2,0,L|127:239,1,45,8|0,3:1|0:0,0:0:0:0:
268,292,84486,2,0,L|323:280,1,45,0|0,3:2|3:2,0:0:0:0:
141,162,84636,1,0,3:2:0:0:
91,155,84711,1,0,3:2:0:0:
141,162,84786,1,0,3:2:0:0:
91,155,84861,1,0,3:2:0:0:
295,235,84936,6,0,P|340:208|461:195,1,135,0|0,1:2|3:2,0:0:0:0:
335,113,85236,2,0,L|330:60,3,45,0|0|0|0,3:2|3:2|3:2|3:2,0:0:0:0:
148,84,85536,2,0,L|106:83,6,22.5,8|0|0|0|0|0|0,3:1|3:2|3:2|3:2|3:2|3:2|3:2,0:0:0:0:
323,213,85836,2,0,L|326:313,1,90,0|0,3:2|3:2,0:0:0:0:
107,328,86136,6,0,L|200:325,1,90,0|0,3:2|3:2,0:0:0:0:
333,197,86436,2,0,L|186:188,1,135,0|0,3:2|3:2,0:0:0:0:
389,87,86736,2,0,L|286:80,1,90,0|0,3:2|3:2,0:0:0:0:
413,152,87036,2,0,L|310:145,1,90,0|0,3:2|3:2,0:0:0:0:
31,273,87336,5,2,1:2:0:0:
256,192,87486,12,0,91986,0:2:0:0:
306,94,92136,6,0,L|449:88,2,135,2|2|2,1:2|1:2|0:2,0:0:0:0:
178,232,92736,2,0,L|384:251,1,180,8|2,0:1|0:2,0:0:0:0:
131,314,93336,5,2,0:2:0:0:
263,172,93486,2,0,L|274:112,2,45,0|2|0,0:2|0:2|0:2,0:0:0:0:
131,314,93786,1,2,0:2:0:0:
363,328,93936,1,8,0:1:0:0:
267,300,94086,1,2,0:2:0:0:
171,272,94236,1,2,0:2:0:0:
75,245,94386,1,2,0:2:0:0:
358,187,94536,6,0,L|237:175,1,90,2|0,0:2|0:2,0:0:0:0:
255,129,94761,1,2,1:2:0:0:
394,77,94986,1,2,0:2:0:0:
156,195,95136,1,8,0:1:0:0:
287,290,95286,1,0,0:2:0:0:
302,248,95361,1,2,0:2:0:0:
329,211,95436,1,2,0:2:0:0:
363,182,95511,1,0,0:0:0:0:
404,163,95586,1,2,0:2:0:0:
172,93,95736,5,2,1:2:0:0:
129,106,95811,1,2,0:2:0:0:
104,142,95886,1,2,0:2:0:0:
104,186,95961,1,2,0:2:0:0:
130,222,96036,1,2,0:2:0:0:
172,236,96111,1,2,0:2:0:0:
362,139,96186,2,0,L|308:138,1,45,2|2,1:2|0:2,0:0:0:0:
150,139,96336,2,0,L|204:138,1,45,8|2,0:1|0:2,0:0:0:0:
340,93,96486,1,2,1:2:0:0:
382,106,96561,1,2,0:2:0:0:
407,142,96636,1,2,0:2:0:0:
407,186,96711,1,2,0:2:0:0:
381,222,96786,1,2,0:2:0:0:
339,236,96861,1,2,0:2:0:0:
145,230,96936,5,4,1:1:0:0:
277,152,97086,1,0,0:2:0:0:
283,102,97161,1,0,0:2:0:0:
289,52,97236,1,2,1:2:0:0:
387,39,97386,1,2,0:2:0:0:
158,161,97536,2,0,L|256:162,2,90,2|2|2,1:2|0:2|1:2,0:0:0:0:
397,312,97986,6,0,P|357:261|233:194,1,180,2|2,0:2|0:2,0:0:0:0:
390,139,98436,2,0,L|497:137,1,90,2|0,1:2|0:2,0:0:0:0:
228,261,98736,2,0,B|318:261|318:261|223:260,1,180,2|2,1:2|1:2,0:0:0:0:
354,184,99186,1,2,0:2:0:0:
133,145,99336,5,2,1:2:0:0:
261,239,99486,1,0,0:2:0:0:
270,195,99561,1,0,0:2:0:0:
292,156,99636,1,2,1:2:0:0:
327,127,99711,1,0,0:2:0:0:
368,110,99786,1,2,0:2:0:0:
157,273,99936,2,0,L|53:277,2,90,2|2|2,1:2|0:2|1:2,0:0:0:0:
380,355,100386,6,0,L|198:337,1,180,2|2,0:2|0:2,0:0:0:0:
345,241,100836,2,0,L|356:137,1,90,2|0,1:2|0:2,0:0:0:0:
102,247,101136,1,2,1:2:0:0:
228,195,101286,1,0,0:0:0:0:
234,145,101361,1,0,0:2:0:0:
240,95,101436,1,2,1:2:0:0:
111,63,101586,1,2,0:2:0:0:
421,247,101736,6,0,L|303:237,1,90,2|2,1:2|0:2,0:0:0:0:
325,189,101961,1,0,0:2:0:0:
319,139,102036,1,2,1:2:0:0:
181,96,102186,1,0,0:2:0:0:
320,269,102336,2,0,L|202:259,1,90,2|2,1:2|0:2,0:0:0:0:
224,211,102561,1,0,0:2:0:0:
218,161,102636,1,2,1:2:0:0:
349,91,102786,1,0,0:2:0:0:
133,317,102936,5,2,1:2:0:0:
270,282,103086,1,0,0:2:0:0:
308,260,103161,1,0,0:2:0:0:
323,218,103236,1,2,1:2:0:0:
307,177,103311,1,0,0:2:0:0:
269,156,103386,2,0,L|192:156,1,45,0|0,0:2|0:2,0:0:0:0:
397,88,103536,2,0,L|280:86,1,90,2|0,1:2|0:2,0:0:0:0:
382,37,103761,2,0,L|436:38,3,45,0|2|0|2,0:2|1:2|0:2|0:2,0:0:0:0:
128,313,104136,6,0,L|245:296,1,90,2|0,1:2|0:2,0:0:0:0:
217,300,104361,2,0,L|128:313,1,90,0|0,0:2|0:2,0:0:0:0:
128,313,104586,1,2,0:2:0:0:
379,222,104736,2,0,L|277:200,1,90,2|2,1:2|0:2,0:0:0:0:
415,316,105036,2,0,L|517:294,1,90,2|0,1:2|0:2,0:0:0:0:
214,261,105336,5,2,1:2:0:0:
149,235,105411,1,0,0:2:0:0:
126,186,105486,1,0,0:2:0:0:
149,235,105561,1,0,0:2:0:0:
347,113,105636,2,0,L|403:115,1,45,2|0,1:2|0:2,0:0:0:0:
231,64,105786,2,0,L|175:66,1,45,0|0,0:2|0:2,0:0:0:0:
353,308,105936,5,2,1:2:0:0:
419,268,106011,1,0,0:2:0:0:
441,220,106086,1,0,0:2:0:0:
419,268,106161,1,0,0:2:0:0:
220,160,106236,2,0,L|164:162,1,45,2|0,1:2|0:2,0:0:0:0:
336,111,106386,2,0,L|392:113,1,45,0|0,0:2|0:2,0:0:0:0:
162,266,106536,6,0,L|72:265,2,90,4|2|2,1:1|0:2|1:2,0:0:0:0:
293,176,106986,2,0,L|296:67,1,90,2|2,0:2|1:2,0:0:0:0:
428,33,107286,1,2,0:2:0:0:
193,183,107436,2,0,L|87:175,1,90,2|2,1:2|0:2,0:0:0:0:
349,299,107736,6,0,L|250:297,2,90,2|0|2,1:2|0:2|1:2,0:0:0:0:
115,203,108336,2,0,L|326:197,1,180,2|2,1:2|1:2,0:0:0:0:
160,89,108786,1,2,0:2:0:0:
401,293,108936,6,0,L|411:185,1,90,2|2,1:2|0:2,0:0:0:0:
273,91,109236,1,2,1:2:0:0:
413,133,109386,2,0,L|312:138,1,90,2|2,0:2|1:2,0:0:0:0:
195,252,109686,1,2,0:2:0:0:
434,228,109836,2,0,L|450:121,1,90,2|2,1:2|0:2,0:0:0:0:
215,160,110136,6,0,L|122:153,2,90,2|0|2,1:2|0:2|1:2,0:0:0:0:
449,237,110736,2,0,L|453:129,1,90,2|2,1:2|0:2,0:0:0:0:
204,313,111036,2,0,L|208:205,1,90,2|2,1:2|0:2,0:0:0:0:
446,133,111336,6,0,L|450:76,3,45,2|0|0|0,1:2|0:2|0:2|0:2,0:0:0:0:
241,214,111636,1,2,1:2:0:0:
392,241,111711,2,0,L|452:238,2,45,0|0|0,0:2|0:2|0:2,0:0:0:0:
203,105,111936,2,0,L|203:52,3,45,2|0|0|0,1:2|0:2|0:2|0:2,0:0:0:0:
402,46,112236,1,2,1:2:0:0:
240,192,112311,2,0,L|187:191,2,45,0|0|0,0:2|0:2|0:2,0:0:0:0:
449,175,112536,6,0,L|456:126,3,45,2|0|0|0,1:2|0:2|0:2|0:2,0:0:0:0:
242,89,112836,1,2,1:2:0:0:
406,229,112911,2,0,L|463:224,2,45,0|0|0,0:2|0:2|0:2,0:0:0:0:
189,285,113136,2,0,L|184:237,3,45,2|0|0|0,1:2|0:2|0:2|0:2,0:0:0:0:
394,143,113436,1,2,1:2:0:0:
191,93,113511,2,0,L|141:92,2,45,0|0|0,0:2|0:2|0:2,0:0:0:0:
399,272,113736,6,0,L|455:271,1,45,4|0,1:2|0:2,0:0:0:0:
203,170,113886,1,0,0:2:0:0:
367,229,113961,2,0,L|419:228,2,45,0|2|0,0:2|1:2|0:2,0:0:0:0:
171,153,114186,2,0,L|118:151,1,45,0|0,0:2|0:2,0:0:0:0:
338,105,114336,2,0,L|342:52,3,45,2|0|0|0,1:2|0:2|0:2|0:2,0:0:0:0:
143,253,114636,2,0,L|199:241,1,45,2|0,1:2|0:2,0:0:0:0:
349,291,114786,2,0,L|413:284,1,45,0|0,0:2|0:2,0:0:0:0:
20,303,114936,6,0,L|17:217,1,45,4|0,1:2|0:2,0:0:0:0:
173,195,115086,1,0,0:2:0:0:
327,165,115161,1,0,0:2:0:0:
482,112,115236,2,0,L|486:61,1,45,6|0,1:2|0:2,0:0:0:0:
327,165,115386,1,0,0:2:0:0:
173,195,115461,1,0,0:2:0:0:
20,303,115536,6,0,L|17:217,1,45,6|0,1:2|0:2,0:0:0:0:
173,195,115686,1,2,0:2:0:0:
327,165,115761,1,0,0:2:0:0:
482,112,115836,2,0,L|486:61,1,45,6|0,1:2|0:2,0:0:0:0:
327,165,115986,1,2,0:2:0:0:
173,195,116061,1,0,0:2:0:0:
481,287,116136,5,4,1:1:0:0:
