osu file format v14

[General]
AudioFilename: audio.mp3
AudioLeadIn: 0
PreviewTime: 52542
Countdown: 0
SampleSet: Soft
StackLeniency: 0.7
Mode: 2
LetterboxInBreaks: 0
WidescreenStoryboard: 0

[Editor]
Bookmarks: 20142,24942,29742,34542,39342,53742,63342,72942,80142,87342,96942,106542,116142
DistanceSpacing: 1.1
BeatDivisor: 4
GridSize: 4
TimelineZoom: 4.399999

[Metadata]
Title:Dopamine
TitleUnicode:ドーパミン
Artist:U1 overground
ArtistUnicode:U1 overground
Creator:Kukkai
Version:C8H11NO2
Source:jubeat saucer fulfill
Tags:big_h_zonda_kit big h zonda kit 050 bighzonda bigh Vaqu Lacrima Myle rhythm video game electronic instrumental dubstep u1-asami 浅見祐一 yuichi asami dancedancerevolution 2014 sound voltex gravity wars plus
BeatmapID:3983247
BeatmapSetID:1928802

[Difficulty]
HPDrainRate:4
CircleSize:4.3
OverallDifficulty:9.8
ApproachRate:9.8
SliderMultiplier:2
SliderTickRate:2

[Events]
//Background and Video events
0,0,"u1.jpg",0,0
//Break Periods
//Storyboard Layer 0 (Background)
//Storyboard Layer 1 (Fail)
//Storyboard Layer 2 (Pass)
//Storyboard Layer 3 (Foreground)
//Storyboard Layer 4 (Overlay)
//Storyboard Sound Samples

[TimingPoints]
936,300,4,2,1,50,1,0
10536,-100,4,2,1,60,0,0
20136,-100,4,2,1,70,0,0
39336,-100,4,2,1,50,0,0
41736,-100,4,2,1,60,0,0
42936,-100,4,2,1,65,0,0
44136,-100,4,2,1,70,0,0
45036,-45.4545454545455,4,2,1,70,0,0
45336,-100,4,2,1,70,0,0
47436,-45.4545454545455,4,2,1,70,0,0
47736,-100,4,2,1,70,0,0
49836,-45.4545454545455,4,2,1,70,0,0
50136,-100,4,2,1,70,0,0
52236,-45.4545454545455,4,2,1,70,0,0
52536,-100,4,2,1,70,0,0
53736,-100,4,2,1,70,0,1
62736,-100,4,2,1,70,0,0
63336,-100,4,2,1,70,0,1
72936,-100,4,2,1,70,0,0
75336,-100,4,2,1,70,0,1
80136,-100,4,2,1,70,0,0
82536,-100,4,2,1,70,0,1
86136,-100,4,2,1,70,0,0
87336,-100,4,2,1,60,0,0
96936,-100,4,2,1,70,0,0
106536,-100,4,2,1,70,0,1
116136,-100,4,2,1,50,0,0

[Colours]
Combo1 : 255,255,151
Combo2 : 255,128,128
Combo3 : 210,170,255
Combo4 : 255,164,255

[HitObjects]
336,304,936,5,2,0:2:0:0:
383,296,1011,1,0,0:2:0:0:
403,252,1086,1,0,0:2:0:0:
379,211,1161,1,0,0:2:0:0:
331,207,1236,1,0,0:2:0:0:
180,208,1386,1,2,0:2:0:0:
132,200,1461,1,0,0:2:0:0:
112,156,1536,1,0,0:2:0:0:
136,115,1611,1,0,0:2:0:0:
184,111,1686,1,0,0:2:0:0:
336,112,1836,2,0,L|400:112,2,50,2|0|0,0:2|0:2|0:2,0:2:0:0:
188,112,2136,5,0,0:2:0:0:
340,112,2286,2,0,L|408:112,4,50,2|0|0|0|0,0:2|0:2|0:2|0:2|0:2,0:2:0:0:
188,112,2736,2,0,L|188:184,2,50,2|0|0,0:2|0:2|0:2,0:2:0:0:
40,116,3036,2,0,L|40:176,2,50,2|0|0,0:2|0:2|0:2,0:2:0:0:
260,332,3336,6,0,L|320:332,2,50,2|0|0,0:2|0:2|0:2,0:2:0:0:
208,332,3561,2,0,L|208:264,1,50,0|0,0:2|0:2,0:2:0:0:
356,284,3786,1,2,0:2:0:0:
402,270,3861,1,0,0:2:0:0:
421,226,3936,1,0,0:2:0:0:
399,183,4011,1,0,0:2:0:0:
351,173,4086,1,0,0:2:0:0:
200,176,4236,2,0,L|128:172,2,50,2|0|0,0:2|0:2|0:2,0:2:0:0:
348,180,4536,5,0,0:2:0:0:
200,176,4686,2,0,L|128:176,4,50,2|0|0|0|0,0:2|0:2|0:2|0:2|0:2,0:2:0:0:
348,176,5136,2,0,L|348:104,2,50,2|0|0,0:2|0:2|0:2,0:2:0:0:
496,180,5436,2,0,L|496:112,2,50,2|0|0,0:2|0:2|0:2,0:2:0:0:
248,352,5736,6,0,L|188:352,1,50,2|0,0:2|0:2,0:2:0:0:
248,352,5886,2,0,L|320:352,2,50,0|0|0,0:2|0:2|0:2,0:2:0:0:
100,356,6186,1,2,0:2:0:0:
52,348,6261,1,0,0:2:0:0:
30,305,6336,1,0,0:2:0:0:
52,262,6411,1,0,0:2:0:0:
100,255,6486,1,0,0:2:0:0:
252,256,6636,2,0,L|324:256,2,50,2|0|0,0:2|0:2|0:2,0:2:0:0:
104,256,6936,5,0,0:2:0:0:
252,256,7086,2,0,L|252:188,1,50,2|0,0:2|0:2,0:2:0:0:
200,204,7236,1,0,0:2:0:0:
148,204,7311,2,0,L|148:132,1,50,0|0,0:2|0:2,0:2:0:0:
296,156,7536,2,0,L|352:156,2,50,2|0|0,0:2|0:2|0:2,0:2:0:0:
148,152,7836,2,0,L|88:152,2,50,2|0|0,0:2|0:2|0:2,0:2:0:0:
368,368,8136,5,2,0:2:0:0:
391,324,8211,1,0,0:2:0:0:
381,276,8286,1,0,0:2:0:0:
343,245,8361,1,0,0:2:0:0:
294,246,8436,1,0,0:2:0:0:
144,236,8586,1,2,0:2:0:0:
120,192,8661,1,0,0:2:0:0:
130,144,8736,1,0,0:2:0:0:
168,113,8811,1,0,0:2:0:0:
217,114,8886,1,0,0:2:0:0:
368,116,9036,2,0,L|428:116,2,50,2|0|0,0:2|0:2|0:2,0:2:0:0:
136,372,9336,5,2,0:2:0:0:
88,374,9411,1,0,0:2:0:0:
62,334,9486,1,0,0:2:0:0:
85,292,9561,1,0,0:2:0:0:
132,291,9636,1,0,0:2:0:0:
356,288,9786,2,0,L|416:288,1,50,2|0,0:2|0:2,0:2:0:0:
252,240,9936,6,0,L|252:164,1,50,0|0,0:2|0:2,0:2:0:0:
304,192,10086,2,0,L|376:192,1,50,0|0,0:2|0:2,0:2:0:0:
192,128,10236,2,0,L|112:128,1,50,2|0,0:2|0:2,0:2:0:0:
304,132,10386,2,0,L|356:132,1,50,0|0,0:2|0:2,0:2:0:0:
152,192,10536,6,0,P|128:144|168:120,1,100,6|0,1:2|0:2,0:2:0:0:
304,352,10761,2,0,L|304:284,1,50,2|0,0:2|1:2,0:2:0:0:
164,304,10986,2,0,L|243:304,1,50,2|0,0:2|0:2,0:2:0:0:
372,252,11136,6,0,L|372:176,1,50,2|0,1:2|0:2,0:2:0:0:
320,208,11286,2,0,L|252:208,1,50,0|0,0:2|0:2,0:2:0:0:
416,152,11436,2,0,L|488:152,1,50,0|0,1:2|0:2,0:2:0:0:
468,108,11586,2,0,L|392:108,1,50,0|0,0:2|0:2,0:2:0:0:
260,160,11736,6,0,L|368:160,1,100,2|0,1:2|0:2,0:2:0:0:
204,88,11961,2,0,L|204:12,1,50,2|0,0:2|1:2,0:2:0:0:
344,36,12186,2,0,L|272:36,1,50,2|0,0:2|0:2,0:2:0:0:
120,288,12336,1,2,1:2:0:0:
344,240,12486,1,2,0:2:0:0:
120,288,12636,2,2,L|120:172,1,100,2|2,1:2|0:2,0:2:0:0:
168,188,12861,1,0,0:2:0:0:
320,124,12936,6,0,L|184:124,1,100,2|0,1:2|0:2,0:2:0:0:
376,88,13161,2,0,L|440:88,1,50,2|0,0:2|1:2,0:2:0:0:
284,56,13386,2,0,L|284:0,1,50,2|0,0:2|0:2,0:2:0:0:
456,368,13536,2,0,P|480:312|448:284,1,100,2|0,1:2|0:2,0:2:0:0:
408,288,13761,1,0,0:2:0:0:
248,232,13836,2,0,L|120:232,1,100,2|0,1:2|0:2,0:2:0:0:
196,232,14061,1,0,0:2:0:0:
352,172,14136,6,0,L|232:172,1,100,2|0,1:2|0:2,0:2:0:0:
408,120,14361,2,0,L|408:52,1,50,2|0,0:2|1:2,0:2:0:0:
268,72,14586,2,0,L|192:72,1,50,2|0,0:2|0:2,0:2:0:0:
368,28,14736,1,2,1:2:0:0:
148,40,14886,1,2,0:2:0:0:
368,28,15036,2,0,L|368:108,1,50,2|0,1:2|0:2,0:2:0:0:
320,80,15186,2,0,L|248:80,1,50,2|0,0:2|0:2,0:2:0:0:
432,368,15336,6,0,P|456:320|404:288,1,100,2|0,1:2|0:2,0:2:0:0:
272,292,15561,2,0,L|196:292,1,50,2|0,0:2|1:2,0:2:0:0:
364,240,15786,2,0,L|364:168,1,50,2|0,0:2|0:2,0:2:0:0:
192,140,15936,1,2,1:2:0:0:
192,92,16011,1,0,0:2:0:0:
240,92,16086,1,0,0:2:0:0:
288,92,16161,1,0,0:2:0:0:
136,44,16236,2,0,L|20:44,1,100,2|0,1:2|0:2,0:2:0:0:
84,44,16461,1,0,0:2:0:0:
248,336,16536,6,0,L|112:336,1,100,2|0,1:2|0:2,0:2:0:0:
300,288,16761,2,0,L|384:288,1,50,2|0,0:2|1:2,0:2:0:0:
208,236,16986,2,0,L|208:172,1,50,2|0,0:2|0:2,0:2:0:0:
384,176,17136,2,0,P|408:124|364:92,1,100,2|2,1:2|0:2,0:2:0:0:
248,96,17361,1,2,0:2:0:0:
112,56,17436,2,0,L|232:56,1,100,2|2,1:2|0:2,0:2:0:0:
260,56,17661,1,0,0:2:0:0:
84,364,17736,6,0,P|56:316|108:284,1,100,2|0,1:2|0:2,0:2:0:0:
232,288,17961,2,0,L|300:288,1,50,2|0,0:2|1:2,0:2:0:0:
140,228,18186,2,0,L|80:228,1,50,2|0,0:2|0:2,0:2:0:0:
244,172,18336,2,0,L|352:172,1,100,2|0,1:2|0:2,0:2:0:0:
208,120,18561,1,0,0:2:0:0:
72,120,18636,2,2,P|48:68|88:44,1,100,0|0,1:2|0:2,0:2:0:0:
124,44,18861,1,0,0:2:0:0:
296,356,18936,6,2,L|216:356,2,66.6666666666667,2|2|2,0:2|0:2|0:2,0:2:0:0:
188,288,19236,2,2,L|260:292,2,66.6666666666667,2|2|2,0:2|0:2|0:2,0:2:0:0:
420,268,19536,2,2,L|312:268,2,66.6666666666667,2|2|2,0:2|0:2|0:2,0:2:0:0:
208,200,19836,2,2,L|284:200,1,66.6666666666667,2|2,0:2|0:2,0:2:0:0:
72,144,20036,1,2,0:2:0:0:
276,144,20136,5,4,1:1:0:0:
297,131,20173,1,0,3:2:0:0:
306,108,20211,1,0,3:2:0:0:
300,84,20248,1,0,3:2:0:0:
281,69,20286,1,0,3:2:0:0:
232,72,20361,1,0,3:2:0:0:
52,72,20436,1,0,1:2:0:0:
52,124,20511,1,0,3:2:0:0:
108,124,20586,1,0,3:2:0:0:
52,124,20661,1,0,3:2:0:0:
184,300,20736,5,0,1:2:0:0:
208,300,20773,1,0,3:2:0:0:
234,300,20811,1,0,3:2:0:0:
88,248,20886,2,0,L|48:248,2,25,0|0|0,3:2|3:2|3:2,3:2:0:0:
240,204,21036,1,2,1:1:0:0:
376,204,21111,1,2,0:1:0:0:
240,204,21186,1,2,0:1:0:0:
104,200,21261,1,2,0:1:0:0:
276,152,21336,6,0,L|404:152,1,100,0|0,1:2|3:2,3:2:0:0:
320,152,21561,1,0,3:2:0:0:
168,304,21636,1,0,1:2:0:0:
224,304,21711,1,0,3:2:0:0:
72,296,21786,1,0,3:2:0:0:
16,296,21861,1,0,3:2:0:0:
200,148,21936,6,0,L|80:148,1,100,0|0,1:2|3:2,3:2:0:0:
156,148,22161,1,0,3:2:0:0:
308,148,22236,1,2,1:2:0:0:
364,148,22311,1,2,0:2:0:0:
152,88,22386,1,2,0:2:0:0:
208,88,22461,1,2,0:2:0:0:
396,356,22536,6,0,P|424:304|372:272,1,100,0|0,1:2|3:2,3:2:0:0:
348,280,22761,1,0,3:2:0:0:
196,280,22836,1,0,1:2:0:0:
140,280,22911,1,0,3:2:0:0:
196,280,22986,1,0,3:2:0:0:
140,280,23061,1,0,3:2:0:0:
296,224,23136,5,0,1:2:0:0:
321,224,23173,1,0,3:2:0:0:
346,224,23211,1,0,3:2:0:0:
196,184,23286,2,0,L|160:184,2,25,0|0|0,3:2|3:2|3:2,3:2:0:0:
368,128,23436,1,2,1:3:0:0:
444,128,23511,1,2,0:3:0:0:
368,128,23586,1,2,0:3:0:0:
292,128,23661,1,2,0:3:0:0:
476,260,23736,6,0,P|496:200|448:176,1,100,0|0,1:2|3:2,3:2:0:0:
420,180,23961,1,0,3:2:0:0:
272,288,24036,1,0,1:2:0:0:
247,288,24073,1,0,3:2:0:0:
222,288,24111,1,0,3:2:0:0:
376,240,24186,1,0,3:2:0:0:
401,240,24223,1,0,3:2:0:0:
426,240,24261,1,0,3:2:0:0:
216,200,24336,6,0,L|216:132,1,50,0|0,1:2|3:2,3:2:0:0:
348,152,24486,2,0,L|364:152,1,12.5,0|0,3:2|3:2,3:2:0:0:
144,152,24636,1,0,1:2:0:0:
119,146,24673,1,0,3:2:0:0:
101,130,24711,1,0,3:2:0:0:
94,106,24748,1,0,3:2:0:0:
101,82,24786,1,0,3:2:0:0:
119,65,24823,1,0,3:2:0:0:
143,60,24861,1,0,3:2:0:0:
312,308,24936,5,4,1:1:0:0:
287,308,24973,1,0,3:2:0:0:
262,308,25011,1,0,3:2:0:0:
237,308,25048,1,0,3:2:0:0:
212,308,25086,1,0,3:2:0:0:
164,308,25161,1,0,3:2:0:0:
320,240,25236,2,0,L|388:240,3,50,0|0|0|0,1:2|3:2|3:2|3:2,1:2:0:0:
216,196,25536,5,0,1:2:0:0:
191,196,25573,1,0,3:2:0:0:
166,196,25611,1,0,3:2:0:0:
316,144,25686,2,0,L|352:144,2,25,0|0|0,3:2|3:2|3:2,3:2:0:0:
164,96,25836,1,2,1:1:0:0:
28,96,25911,1,2,0:1:0:0:
164,96,25986,1,2,0:1:0:0:
300,96,26061,1,2,0:1:0:0:
116,364,26136,6,0,L|0:364,1,100,0|0,1:2|3:2,3:2:0:0:
72,368,26361,1,0,3:2:0:0:
224,288,26436,1,0,1:2:0:0:
168,288,26511,1,0,3:2:0:0:
320,236,26586,1,0,3:2:0:0:
376,236,26661,1,0,3:2:0:0:
208,220,26736,6,0,P|180:172|232:136,1,100,0|0,1:2|3:2,3:2:0:0:
260,140,26961,1,0,3:2:0:0:
412,80,27036,1,2,1:2:0:0:
356,80,27111,1,2,0:2:0:0:
156,88,27186,1,2,0:2:0:0:
100,88,27261,1,2,0:2:0:0:
296,272,27336,6,0,L|404:272,1,100,0|0,1:2|3:2,3:2:0:0:
340,272,27561,1,0,3:2:0:0:
184,272,27636,1,0,1:2:0:0:
128,272,27711,1,0,3:2:0:0:
184,272,27786,1,0,3:2:0:0:
240,272,27861,1,0,3:2:0:0:
88,160,27936,6,0,L|56:160,2,25,0|0|0,1:2|3:2|3:2,3:2:0:0:
264,104,28086,1,0,3:2:0:0:
289,104,28123,1,0,3:2:0:0:
314,104,28161,1,0,3:2:0:0:
144,64,28236,1,2,1:3:0:0:
220,64,28311,1,2,0:3:0:0:
296,64,28386,1,2,0:3:0:0:
220,64,28461,1,2,0:3:0:0:
56,360,28536,6,0,P|32:300|84:272,1,100,0|0,1:2|3:2,3:2:0:0:
104,280,28761,1,0,3:2:0:0:
256,280,28836,1,0,1:2:0:0:
281,280,28873,1,0,3:2:0:0:
306,280,28911,1,0,3:2:0:0:
144,216,28986,2,0,L|120:216,2,25,0|0|0,3:2|3:2|3:2,3:2:0:0:
304,212,29136,5,0,3:2:0:0:
328,208,29173,1,0,3:2:0:0:
346,191,29211,1,0,3:2:0:0:
353,167,29248,1,0,3:2:0:0:
346,144,29286,1,0,3:2:0:0:
327,128,29323,1,0,3:2:0:0:
303,125,29361,1,0,3:2:0:0:
156,128,29436,1,2,0:2:0:0:
20,128,29511,1,2,0:2:0:0:
156,128,29586,1,2,0:2:0:0:
292,128,29661,1,2,0:2:0:0:
428,124,29736,5,4,1:1:0:0:
450,113,29773,1,0,3:2:0:0:
461,91,29811,1,0,3:2:0:0:
457,67,29848,1,0,3:2:0:0:
440,50,29886,1,0,3:2:0:0:
388,52,29961,1,0,3:2:0:0:
232,252,30036,1,0,1:2:0:0:
176,252,30111,1,0,3:2:0:0:
232,252,30186,1,0,3:2:0:0:
288,252,30261,1,0,3:2:0:0:
132,196,30336,5,0,1:2:0:0:
107,196,30373,1,0,3:2:0:0:
82,196,30411,1,0,3:2:0:0:
228,136,30486,1,0,3:2:0:0:
253,136,30523,1,0,3:2:0:0:
278,136,30561,1,0,3:2:0:0:
128,64,30636,1,2,1:1:0:0:
264,64,30711,1,2,0:1:0:0:
400,64,30786,1,2,0:1:0:0:
264,64,30861,1,2,0:1:0:0:
88,352,30936,6,0,P|68:296|100:268,1,100,0|0,1:2|3:2,3:2:0:0:
148,268,31161,1,0,3:2:0:0:
304,268,31236,1,0,1:2:0:0:
248,268,31311,1,0,3:2:0:0:
404,204,31386,1,0,3:2:0:0:
348,204,31461,1,0,3:2:0:0:
192,140,31536,6,0,L|304:140,1,100,0|0,1:2|3:2,3:2:0:0:
348,140,31761,1,0,3:2:0:0:
192,80,31836,1,2,1:2:0:0:
136,80,31911,1,2,0:2:0:0:
340,40,31986,1,2,0:2:0:0:
396,40,32061,1,2,0:2:0:0:
184,252,32136,6,0,L|64:252,1,100,0|0,1:2|3:2,1:2:0:0:
140,252,32361,1,0,3:2:0:0:
292,212,32436,2,0,L|292:124,1,50,0|0,1:2|3:2,3:2:0:0:
236,164,32586,1,0,3:2:0:0:
180,164,32661,1,0,3:2:0:0:
336,112,32736,5,0,1:2:0:0:
361,112,32773,1,0,3:2:0:0:
386,112,32811,1,0,3:2:0:0:
232,64,32886,1,0,3:2:0:0:
207,64,32923,1,0,3:2:0:0:
182,64,32961,1,0,3:2:0:0:
340,56,33036,1,2,1:3:0:0:
416,56,33111,1,2,0:3:0:0:
492,56,33186,1,2,0:3:0:0:
416,56,33261,1,2,0:3:0:0:
260,368,33336,6,0,L|144:368,1,100,0|0,1:2|3:2,3:2:0:0:
216,368,33561,1,0,3:2:0:0:
368,288,33636,2,0,L|400:288,2,25,0|0|0,1:2|3:2|3:2,3:2:0:0:
200,216,33786,2,0,L|152:216,2,25,0|0|0,3:2|3:2|3:2,3:2:0:0:
360,168,33936,5,0,1:2:0:0:
144,104,34086,1,0,0:2:0:0:
360,128,34236,2,0,P|392:80|340:44,1,100,0|0,1:2|3:2,3:2:0:0:
348,52,34423,1,0,3:2:0:0:
324,52,34461,1,0,3:2:0:0:
168,296,34536,5,4,1:1:0:0:
193,296,34573,1,0,3:2:0:0:
218,296,34611,1,0,3:2:0:0:
243,296,34648,1,0,3:2:0:0:
268,296,34686,1,0,3:2:0:0:
316,296,34761,1,0,3:2:0:0:
164,216,34836,1,0,1:2:0:0:
108,216,34911,1,0,3:2:0:0:
164,216,34986,1,0,3:2:0:0:
108,216,35061,1,0,3:2:0:0:
268,212,35136,5,0,1:2:0:0:
293,212,35173,1,0,3:2:0:0:
318,212,35211,1,0,3:2:0:0:
148,136,35286,1,0,3:2:0:0:
173,136,35323,1,0,3:2:0:0:
198,136,35361,1,0,3:2:0:0:
372,80,35436,1,2,1:1:0:0:
236,80,35511,1,2,0:1:0:0:
100,84,35586,1,2,0:1:0:0:
236,84,35661,1,2,0:1:0:0:
388,208,35736,6,0,L|500:208,1,100,0|0,1:2|3:2,3:2:0:0:
432,208,35961,1,0,3:2:0:0:
280,208,36036,1,0,1:2:0:0:
336,208,36111,1,0,3:2:0:0:
184,208,36186,1,0,3:2:0:0:
128,208,36261,1,0,3:2:0:0:
288,152,36336,6,0,P|316:104|256:72,1,100,0|0,1:2|3:2,3:2:0:0:
240,72,36561,1,0,3:2:0:0:
92,76,36636,1,2,1:2:0:0:
148,76,36711,1,2,0:2:0:0:
340,32,36786,1,2,0:2:0:0:
396,32,36861,1,2,0:2:0:0:
188,232,36936,6,0,L|48:232,1,100,0|0,1:2|3:2,3:2:0:0:
144,236,37161,1,0,3:2:0:0:
296,184,37236,2,0,L|368:184,3,50,0|0|0|0,1:2|3:2|3:2|3:2,3:2:0:0:
196,128,37536,6,0,L|164:128,2,25,0|0|0,1:2|3:2|3:2,3:2:0:0:
348,80,37686,1,0,3:2:0:0:
373,80,37723,1,0,3:2:0:0:
398,80,37761,1,0,3:2:0:0:
240,40,37836,1,2,1:3:0:0:
164,40,37911,1,2,0:3:0:0:
88,40,37986,1,2,0:3:0:0:
164,40,38061,1,2,0:3:0:0:
328,352,38136,6,0,P|364:308|316:272,1,100,0|0,1:2|3:2,3:2:0:0:
288,280,38361,1,0,3:2:0:0:
124,276,38436,2,0,L|88:276,2,25,0|0|0,1:2|3:2|3:2,3:2:0:0:
288,216,38586,2,0,L|320:216,2,25,0|0|0,3:2|3:2|3:2,3:2:0:0:
120,164,38736,5,2,1:2:0:0:
64,164,38811,1,2,0:2:0:0:
224,104,38886,1,2,0:2:0:0:
168,104,38961,1,2,0:2:0:0:
324,104,39036,2,0,L|432:104,1,100,0|0,1:2|3:2,3:2:0:0:
400,104,39223,1,0,3:2:0:0:
376,104,39261,1,0,3:2:0:0:
84,352,39336,6,0,L|76:124,4,200,4|0|0|0|0,0:1|0:2|0:2|0:2|0:2,0:2:0:0:
324,348,40686,5,8,0:1:0:0:
84,352,40836,2,0,L|76:140,2,200,0|0|0,0:2|0:2|0:2,0:2:0:0:
472,256,41736,6,8,L|472:132,1,100,12|8,0:2|0:2,0:2:0:0:
324,152,42036,1,8,0:2:0:0:
374,152,42111,1,8,0:2:0:0:
424,152,42186,1,8,0:2:0:0:
184,104,42336,6,8,L|64:104,1,100,8|8,0:2|0:2,0:2:0:0:
308,36,42636,2,8,L|204:36,1,100,8|8,0:2|0:2,0:2:0:0:
440,324,42936,6,8,P|464:264|412:236,1,100,12|8,0:2|0:2,0:2:0:0:
396,244,43161,1,8,0:2:0:0:
224,184,43236,2,8,L|352:184,1,100,8|8,0:2|0:2,0:2:0:0:
372,184,43461,1,8,0:2:0:0:
204,132,43536,6,8,L|72:132,1,100,12|8,0:2|0:2,0:2:0:0:
248,128,43761,1,8,0:2:0:0:
384,124,43836,2,8,L|520:124,1,100,12|8,0:2|0:2,0:2:0:0:
312,88,44061,1,8,0:2:0:0:
140,360,44136,6,0,P|96:304|160:264,1,150,4|0,1:1|0:2,0:2:0:0:
208,264,44436,1,0,1:2:0:0:
80,268,44586,1,2,0:2:0:0:
316,204,44736,2,2,L|416:204,1,100,2|2,1:2|0:2,0:2:0:0:
196,140,45036,2,2,L|436:140,1,220.000006713867,2|2,1:2|0:2,1:2:0:0:
288,224,45336,6,0,P|228:192|300:112,1,200,0|0,1:2|1:2,0:2:0:0:
316,108,45673,1,0,3:2:0:0:
436,108,45786,2,0,L|436:72,1,25,0|0,3:2|3:2,3:2:0:0:
252,212,45936,2,0,L|140:212,1,100,0|0,1:2|0:2,1:2:0:0:
380,112,46236,2,0,L|504:112,1,100,0|0,1:2|0:2,0:2:0:0:
196,280,46536,6,0,L|360:280,1,150,2|0,1:2|0:2,0:2:0:0:
280,280,46836,1,0,1:2:0:0:
408,280,46986,1,2,0:2:0:0:
176,208,47136,2,2,L|72:208,1,100,2|2,1:2|0:2,0:2:0:0:
304,160,47436,2,2,L|56:160,1,220.000006713867,2|2,1:2|0:2,0:2:0:0:
204,208,47736,6,0,P|264:148|192:80,1,200,0|0,1:2|1:2,0:2:0:0:
172,80,48073,1,0,3:2:0:0:
60,80,48186,2,0,L|60:40,1,25,0|0,3:2|3:2,3:2:0:0:
232,344,48336,2,0,L|344:344,1,100,0|0,1:2|0:2,0:2:0:0:
124,288,48636,2,0,L|16:288,1,100,0|0,1:2|0:2,0:2:0:0:
240,288,48936,6,0,P|292:256|220:212,1,150,2|0,1:2|0:2,0:2:0:0:
188,204,49236,1,0,1:2:0:0:
308,204,49386,1,2,0:2:0:0:
72,120,49536,2,2,L|184:120,1,100,2|2,1:2|0:2,0:2:0:0:
392,120,49836,2,2,L|152:120,1,220.000006713867,2|2,1:2|0:2,0:2:0:0:
292,120,50136,6,0,L|84:120,1,200,0|0,1:2|1:2,0:2:0:0:
116,120,50473,1,0,3:2:0:0:
236,224,50586,2,0,L|284:224,1,25,0|0,3:2|3:2,3:2:0:0:
60,360,50736,2,0,L|56:240,1,100,0|0,1:2|0:2,0:2:0:0:
280,248,51036,2,0,L|408:248,1,100,0|0,1:2|0:2,0:2:0:0:
136,168,51336,6,0,L|300:168,1,150,2|0,1:2|0:2,0:2:0:0:
228,168,51636,1,0,1:2:0:0:
348,168,51786,1,2,0:2:0:0:
128,92,51936,2,2,L|12:92,1,100,2|2,1:2|0:2,0:2:0:0:
248,92,52236,2,2,L|24:92,1,220.000006713867,2|2,1:2|0:2,0:2:0:0:
308,264,53736,5,4,1:1:0:0:
332,264,53773,1,0,3:2:0:0:
356,264,53811,1,0,3:2:0:0:
192,200,53886,2,0,L|156:200,2,25,0|0|0,3:2|3:2|3:2,3:2:0:0:
268,200,54036,1,2,0:3:0:0:
192,200,54111,1,2,0:3:0:0:
116,200,54186,1,2,0:3:0:0:
192,200,54261,1,2,0:3:0:0:
392,160,54336,6,8,P|416:104|376:80,1,100,8|0,3:1|3:2,3:1:0:0:
336,84,54561,1,0,3:2:0:0:
176,28,54636,1,0,3:2:0:0:
200,28,54673,1,0,3:2:0:0:
224,28,54711,1,0,3:2:0:0:
400,24,54786,1,0,3:2:0:0:
376,24,54823,1,0,3:2:0:0:
352,24,54861,1,0,3:2:0:0:
168,360,54936,6,0,L|168:288,1,50,0|0,1:2|3:2,3:2:0:0:
336,304,55086,2,0,L|348:304,1,12.5,0|0,3:2|3:2,3:2:0:0:
244,264,55236,1,0,3:2:0:0:
219,258,55273,1,0,3:2:0:0:
201,241,55311,1,0,3:2:0:0:
195,218,55348,1,0,3:2:0:0:
203,194,55386,1,0,3:2:0:0:
222,178,55423,1,0,3:2:0:0:
246,175,55461,1,0,3:2:0:0:
412,100,55536,6,0,L|236:100,1,150,8|0,3:1|3:2,3:2:0:0:
412,48,55836,2,0,L|488:48,2,66.6666666666667,0|0|0,3:2|3:2|3:2,3:2:0:0:
204,296,56136,6,0,L|184:296,1,16.6666666666667,0|0,1:2|3:2,3:2:0:0:
248,296,56236,2,0,L|272:296,1,16.6666666666667,0|0,3:2|3:2,3:2:0:0:
108,232,56336,2,0,L|92:232,1,16.6666666666667,0|0,3:2|3:2,3:2:0:0:
152,232,56436,2,0,L|176:232,1,16.6666666666667,0|0,1:2|3:2,3:2:0:0:
108,232,56536,2,0,L|80:232,1,16.6666666666667,0|0,3:2|3:2,3:2:0:0:
260,184,56636,2,0,L|288:184,1,16.6666666666667,0|0,3:2|3:2,3:2:0:0:
108,136,56736,6,0,L|92:136,1,16.6666666666667,8|0,3:1|3:2,3:2:0:0:
260,128,56836,2,0,L|276:128,1,16.6666666666667,0|0,3:2|3:2,3:2:0:0:
444,72,56936,2,0,L|428:72,1,16.6666666666667,0|0,3:2|3:2,3:2:0:0:
224,76,57036,2,0,L|200:76,1,16.6666666666667,0|0,3:2|3:2,3:2:0:0:
384,36,57136,2,0,L|404:36,1,16.6666666666667,0|0,3:2|3:2,3:2:0:0:
200,32,57236,2,0,L|180:32,1,16.6666666666667,0|0,3:2|3:2,3:2:0:0:
384,316,57336,5,0,1:2:0:0:
407,309,57373,1,0,3:2:0:0:
417,287,57411,1,0,3:2:0:0:
408,264,57448,1,0,3:2:0:0:
385,256,57486,1,0,3:2:0:0:
336,260,57561,1,0,3:2:0:0:
176,232,57636,2,0,L|176:212,1,12.5,0|0,3:2|3:2,3:2:0:0:
225,217,57711,2,0,L|225:197,1,12.5,0|0,3:2|3:2,3:2:0:0:
176,232,57786,2,0,L|176:212,1,12.5,0|0,1:2|3:2,3:2:0:0:
225,204,57861,2,0,L|225:184,1,12.5,0|0,3:2|3:2,3:2:0:0:
76,208,57936,5,8,3:1:0:0:
52,200,57973,1,0,3:2:0:0:
35,181,58011,1,0,3:2:0:0:
30,157,58048,1,0,3:2:0:0:
37,133,58086,1,0,1:2:0:0:
54,116,58123,1,0,3:2:0:0:
78,109,58161,1,0,3:2:0:0:
232,108,58236,2,0,L|260:108,2,25,0|0|0,3:2|3:2|3:2,3:2:0:0:
168,108,58386,2,0,L|136:108,2,25,0|0|0,3:2|3:2|3:2,3:2:0:0:
352,344,58536,5,0,1:2:0:0:
376,320,58573,1,0,3:2:0:0:
352,294,58611,1,0,3:2:0:0:
200,300,58686,1,0,3:2:0:0:
176,276,58723,1,0,3:2:0:0:
200,250,58761,1,0,3:2:0:0:
464,188,58836,1,2,0:1:0:0:
328,188,58911,1,2,0:1:0:0:
192,188,58986,1,2,0:1:0:0:
56,192,59061,1,2,0:1:0:0:
232,120,59136,6,0,L|348:120,1,100,8|0,3:1|3:2,3:2:0:0:
276,120,59361,1,0,3:2:0:0:
124,56,59436,1,0,3:2:0:0:
180,56,59511,1,0,3:2:0:0:
32,52,59586,2,0,L|32:120,1,50,0|0,3:2|3:2,3:2:0:0:
208,288,59736,6,0,L|92:288,1,100,0|0,1:2|3:2,3:2:0:0:
52,288,59961,1,0,3:2:0:0:
208,232,60036,1,2,0:2:0:0:
264,232,60111,1,2,0:2:0:0:
56,164,60186,1,2,0:2:0:0:
112,164,60261,1,2,0:2:0:0:
328,176,60336,6,0,L|444:176,1,100,8|0,3:1|3:2,3:2:0:0:
372,176,60561,1,0,3:2:0:0:
220,176,60636,2,0,L|220:96,1,50,0|0,3:2|3:2,3:2:0:0:
276,128,60786,1,0,3:2:0:0:
332,128,60861,1,0,3:2:0:0:
176,356,60936,6,0,L|152:356,1,25,0|0,1:2|3:2,3:2:0:0:
248,304,61086,2,0,L|284:304,1,25,0|0,3:2|3:2,3:2:0:0:
96,260,61236,2,0,L|64:260,1,25,0|0,1:2|3:2,3:2:0:0:
276,272,61386,2,0,L|312:272,1,25,0|0,3:2|3:2,3:2:0:0:
71,260,61536,6,0,L|43:260,1,25,8|0,3:1|3:2,3:2:0:0:
316,240,61686,2,0,L|348:240,1,25,0|0,3:2|3:2,3:2:0:0:
40,256,61836,2,0,L|0:256,1,25,0|0,3:2|3:2,3:2:0:0:
341,240,61986,2,0,L|373:240,1,25,0|0,3:2|3:2,3:2:0:0:
136,200,62136,5,0,1:2:0:0:
111,198,62173,1,0,3:2:0:0:
92,182,62211,1,0,3:2:0:0:
88,158,62248,1,0,3:2:0:0:
99,136,62286,1,0,3:2:0:0:
152,136,62361,1,0,3:2:0:0:
304,136,62436,2,0,L|304:120,1,12.5,0|0,3:2|3:2,3:2:0:0:
255,116,62511,2,0,L|255:96,1,12.5,0|0,3:2|3:2,3:2:0:0:
304,136,62586,2,0,L|304:120,1,12.5,0|0,3:2|3:2,3:2:0:0:
255,103,62661,2,0,L|255:83,1,12.5,0|0,3:2|3:2,3:2:0:0:
396,372,62736,6,0,P|492:288|344:168,1,350,8|0,3:1|3:2,3:2:0:0:
207,168,63336,5,4,1:1:0:0:
182,168,63373,1,0,3:2:0:0:
157,168,63411,1,0,3:2:0:0:
319,104,63486,1,0,3:2:0:0:
344,104,63523,1,0,3:2:0:0:
369,104,63561,1,0,3:2:0:0:
219,48,63636,1,2,1:3:0:0:
288,48,63711,1,2,3:3:0:0:
360,48,63786,1,2,3:3:0:0:
432,48,63861,1,2,3:3:0:0:
191,288,63936,6,0,L|63:288,1,100,0|0,1:2|3:2,3:2:0:0:
147,288,64161,1,0,3:2:0:0:
320,288,64236,1,0,1:2:0:0:
345,288,64273,1,0,3:2:0:0:
370,288,64311,1,0,3:2:0:0:
187,232,64386,2,0,L|159:232,2,25,0|0|0,3:2|3:2|3:2,3:2:0:0:
351,188,64536,6,0,L|351:132,1,50,0|0,1:2|3:2,3:2:0:0:
191,136,64686,2,0,L|171:136,1,12.5,0|0,3:2|3:2,3:2:0:0:
283,136,64836,1,0,1:2:0:0:
307,131,64873,1,0,3:2:0:0:
325,114,64911,1,0,3:2:0:0:
331,90,64948,1,0,3:2:0:0:
324,66,64986,1,0,3:2:0:0:
306,50,65023,1,0,3:2:0:0:
282,45,65061,1,0,3:2:0:0:
123,288,65136,6,0,L|287:288,1,150,0|0,1:2|3:2,3:2:0:0:
107,224,65436,1,0,1:2:0:0:
51,224,65511,1,0,3:2:0:0:
51,224,65586,1,0,3:2:0:0:
107,176,65661,1,0,3:2:0:0:
267,180,65736,6,0,L|299:180,1,16.6666666666667,0|0,1:2|3:2,3:2:0:0:
223,180,65836,2,0,L|195:180,1,16.6666666666667,0|0,3:2|3:2,3:2:0:0:
267,180,65936,2,0,L|295:180,1,16.6666666666667,0|0,3:2|3:2,3:2:0:0:
107,96,66036,2,0,L|91:96,1,16.6666666666667,0|0,1:2|3:2,3:2:0:0:
151,96,66136,2,0,L|183:96,1,16.6666666666667,0|0,3:2|3:2,3:2:0:0:
107,96,66236,2,0,L|79:96,1,16.6666666666667,0|0,3:2|3:2,3:2:0:0:
355,172,66336,6,0,L|387:172,1,16.6666666666667,0|0,1:2|3:2,3:2:0:0:
219,148,66436,2,0,L|191:148,1,16.6666666666667,0|0,3:2|3:2,3:2:0:0:
355,172,66536,2,0,L|383:172,1,16.6666666666667,0|0,3:2|3:2,3:2:0:0:
111,48,66636,2,0,L|95:48,1,16.6666666666667,0|0,1:2|3:2,3:2:0:0:
287,56,66736,2,0,L|319:56,1,16.6666666666667,0|0,3:2|3:2,3:2:0:0:
111,48,66836,2,0,L|83:48,1,16.6666666666667,0|0,3:2|3:2,3:2:0:0:
375,284,66936,5,0,1:2:0:0:
400,284,66973,1,0,3:2:0:0:
425,284,67011,1,0,3:2:0:0:
450,284,67048,1,0,3:2:0:0:
475,284,67086,1,0,3:2:0:0:
427,284,67161,1,0,3:2:0:0:
271,228,67236,2,0,L|251:228,1,12.5,0|0,1:2|3:2,3:2:0:0:
216,228,67311,2,0,L|236:228,1,12.5,0|0,3:2|3:2,3:2:0:0:
271,212,67386,2,0,L|291:212,1,12.5,0|0,3:2|3:2,3:2:0:0:
240,212,67461,2,0,L|224:212,1,12.5,0|0,3:2|3:2,3:2:0:0:
367,208,67536,5,0,1:2:0:0:
391,205,67573,1,0,3:2:0:0:
410,190,67611,1,0,3:2:0:0:
419,167,67648,1,0,3:2:0:0:
413,143,67686,1,0,3:2:0:0:
395,126,67723,1,0,3:2:0:0:
371,121,67761,1,0,3:2:0:0:
199,80,67836,2,0,L|167:80,2,25,0|0|0,1:2|3:2|3:2,3:2:0:0:
259,40,67986,1,0,3:2:0:0:
284,40,68023,1,0,3:2:0:0:
309,40,68061,1,0,3:2:0:0:
155,368,68136,6,0,L|155:332,1,25,4|0,1:1|3:2,3:2:0:0:
247,344,68286,2,0,L|275:344,1,25,0|0,3:2|3:2,3:2:0:0:
91,316,68436,2,0,L|91:280,1,25,0|0,1:2|3:2,3:2:0:0:
275,304,68586,2,0,L|319:304,1,25,0|0,3:2|3:2,3:2:0:0:
55,316,68736,6,0,L|55:276,1,25,0|0,1:2|3:2,3:2:0:0:
307,276,68886,2,0,L|351:276,1,25,0|0,3:2|3:2,3:2:0:0:
11,320,69036,2,0,L|11:280,1,25,0|0,1:2|3:2,3:2:0:0:
359,276,69186,2,0,L|395:276,1,25,0|0,3:2|3:2,3:2:0:0:
43,232,69336,5,0,1:2:0:0:
29,211,69373,1,0,3:2:0:0:
27,186,69411,1,0,3:2:0:0:
37,164,69448,1,0,3:2:0:0:
57,149,69486,1,0,3:2:0:0:
107,152,69561,1,0,3:2:0:0:
259,152,69636,1,2,1:2:0:0:
315,152,69711,1,2,3:2:0:0:
99,80,69786,1,2,3:2:0:0:
155,80,69861,1,2,3:2:0:0:
355,280,69936,6,0,L|239:280,1,100,0|0,1:2|3:2,3:2:0:0:
199,280,70161,1,0,3:2:0:0:
359,216,70236,1,0,1:1:0:0:
415,216,70311,1,0,3:1:0:0:
471,216,70386,1,0,3:1:0:0:
415,216,70461,1,0,3:1:0:0:
255,140,70536,5,0,1:2:0:0:
280,140,70573,1,0,3:2:0:0:
305,140,70611,1,0,3:2:0:0:
330,140,70648,1,0,3:2:0:0:
355,140,70686,1,0,3:2:0:0:
403,140,70761,1,0,3:2:0:0:
215,316,70836,2,0,L|175:316,1,25,0|0,1:2|3:2,3:2:0:0:
291,272,70986,2,0,L|291:240,1,25,0|0,3:2|3:2,3:2:0:0:
71,224,71136,6,0,L|99:224,1,16.6666666666667,0|0,1:2|3:2,3:2:0:0:
143,224,71236,2,0,L|119:224,1,16.6666666666667,0|0,3:2|3:2,3:2:0:0:
71,224,71336,2,0,L|103:224,1,16.6666666666667,0|0,3:2|3:2,3:2:0:0:
283,164,71436,2,0,L|303:164,1,16.6666666666667,0|0,1:2|3:2,3:2:0:0:
239,164,71536,2,0,L|211:164,1,16.6666666666667,0|0,3:2|3:2,3:2:0:0:
163,164,71636,2,0,L|183:164,1,16.6666666666667,0|0,3:2|3:2,3:2:0:0:
388,304,71736,6,0,L|389:284,1,12.5,0|0,1:2|3:2,3:2:0:0:
188,256,71886,2,0,L|168:256,1,12.5,0|0,3:2|3:2,3:2:0:0:
415,204,72036,1,0,1:2:0:0:
415,179,72073,1,0,3:2:0:0:
415,154,72111,1,0,3:2:0:0:
415,129,72148,1,0,3:2:0:0:
415,104,72186,1,0,3:2:0:0:
415,79,72223,1,0,3:2:0:0:
415,54,72261,1,0,3:2:0:0:
175,104,72336,6,0,L|192:104,1,12.5,0|0,1:0|3:0,3:0:0:0:
375,100,72486,2,0,L|387:100,1,12.5,0|0,3:2|3:2,3:2:0:0:
175,104,72636,2,0,L|192:104,1,12.5,0|0,1:0|3:0,3:0:0:0:
375,100,72786,2,0,L|395:100,1,12.5,0|0,3:2|3:2,3:2:0:0:
176,308,72936,6,0,L|48:308,1,100,4|0,1:1|0:2,0:2:0:0:
124,308,73161,1,0,0:2:0:0:
276,312,73236,2,2,L|276:232,1,50,0|0,1:2|0:2,0:2:0:0:
220,264,73386,2,0,L|220:188,1,50,2|0,0:2|0:2,0:2:0:0:
376,212,73536,6,0,L|488:212,1,100,0|2,1:2|0:2,0:2:0:0:
420,212,73761,1,0,0:2:0:0:
272,168,73836,2,0,L|272:92,1,50,2|0,1:2|0:2,0:2:0:0:
328,116,73986,1,2,0:2:0:0:
384,116,74061,1,0,0:2:0:0:
208,48,74136,6,0,L|320:48,1,100,2|0,1:2|0:2,0:2:0:0:
364,48,74361,1,0,0:2:0:0:
200,304,74436,1,2,1:2:0:0:
175,304,74473,1,0,3:2:0:0:
150,304,74511,1,0,3:2:0:0:
300,248,74586,1,2,3:2:0:0:
325,248,74623,1,0,3:2:0:0:
350,248,74661,1,0,3:2:0:0:
172,184,74736,5,2,1:2:0:0:
116,184,74811,1,0,0:2:0:0:
116,184,74886,1,0,0:2:0:0:
172,184,74961,1,0,0:2:0:0:
324,120,75036,1,2,1:2:0:0:
299,120,75073,1,0,0:2:0:0:
274,120,75111,1,0,0:2:0:0:
249,120,75148,1,0,0:2:0:0:
224,120,75186,1,0,0:2:0:0:
176,120,75261,1,0,0:2:0:0:
328,336,75336,6,0,L|416:336,1,50,4|0,1:1|3:2,3:2:0:0:
212,280,75486,2,0,L|184:280,2,25,0|0|0,3:2|3:2|3:2,3:2:0:0:
404,208,75636,6,0,L|420:208,1,12.5,0|0,3:2|3:2,3:2:0:0:
456,208,75711,2,0,L|440:208,1,12.5,0|0,3:2|3:2,3:2:0:0:
404,208,75786,2,0,L|420:208,1,12.5,0|0,3:2|3:2,3:2:0:0:
456,208,75861,2,0,L|440:208,1,12.5,0|0,3:2|3:2,3:2:0:0:
280,160,75936,6,0,L|260:160,1,12.5,8|0,3:1|3:2,3:2:0:0:
228,160,76011,2,0,L|208:160,1,12.5,0|0,3:2|3:2,3:2:0:0:
364,96,76086,2,0,L|376:96,1,12.5,0|0,3:2|3:2,3:2:0:0:
416,96,76161,2,0,L|432:96,1,12.5,0|0,3:2|3:2,3:2:0:0:
256,352,76236,1,0,3:2:0:0:
231,346,76273,1,0,3:2:0:0:
214,329,76311,1,0,3:2:0:0:
208,305,76348,1,0,3:2:0:0:
216,281,76386,1,0,3:2:0:0:
235,266,76423,1,0,3:2:0:0:
260,263,76461,1,0,3:2:0:0:
412,172,76536,6,0,L|304:172,1,100,0|0,1:2|3:2,3:2:0:0:
264,172,76761,2,0,L|380:172,1,100,0|0,3:2|3:2,3:2:0:0:
208,120,76986,1,0,3:2:0:0:
183,120,77023,1,0,3:2:0:0:
158,120,77061,1,0,3:2:0:0:
312,300,77136,5,8,3:1:0:0:
336,297,77173,1,0,3:2:0:0:
355,281,77211,1,0,3:2:0:0:
362,257,77248,1,0,3:2:0:0:
354,234,77286,1,0,3:2:0:0:
334,219,77323,1,0,3:2:0:0:
310,217,77361,1,0,3:2:0:0:
144,176,77436,2,0,L|304:176,1,150,0|0,3:2|3:2,3:2:0:0:
116,216,77736,5,0,1:2:0:0:
91,216,77773,1,0,3:2:0:0:
71,202,77811,1,0,3:2:0:0:
62,178,77848,1,0,3:2:0:0:
68,155,77886,1,0,3:2:0:0:
87,139,77923,1,0,3:2:0:0:
112,136,77961,1,0,3:2:0:0:
280,80,78036,2,0,L|280:56,1,16.6666666666667,0|0,3:2|3:2,3:2:0:0:
220,52,78136,2,0,L|220:20,1,16.6666666666667,0|0,3:2|3:2,3:2:0:0:
280,28,78236,2,0,L|312:28,1,16.6666666666667,0|0,3:2|3:2,3:2:0:0:
144,344,78336,5,8,0:1:0:0:
276,296,78486,1,0,0:2:0:0:
56,272,78636,2,0,L|56:248,1,25,0|0,3:2|3:2,3:2:0:0:
132,248,78786,2,0,L|160:248,1,25,0|0,3:2|3:2,3:2:0:0:
332,184,78936,5,0,1:2:0:0:
388,184,79011,1,0,0:2:0:0:
248,136,79086,1,2,0:2:0:0:
116,136,79161,1,2,0:2:0:0:
292,92,79236,1,2,0:2:0:0:
348,92,79311,1,0,0:2:0:0:
172,72,79386,1,2,0:2:0:0:
172,122,79461,1,0,0:2:0:0:
324,292,79536,6,0,L|352:292,2,25,8|0|0,3:1|3:2|3:2,3:2:0:0:
172,292,79686,1,2,0:1:0:0:
116,292,79761,1,2,0:1:0:0:
276,208,79836,1,2,0:1:0:0:
220,208,79911,1,2,0:1:0:0:
376,152,79986,2,0,L|404:152,2,25,0|0|0,3:2|3:2|3:2,3:2:0:0:
192,96,80136,6,0,L|48:96,1,100,0|0,1:2|0:2,0:2:0:0:
148,96,80361,1,0,0:2:0:0:
300,352,80436,1,2,1:2:0:0:
356,352,80511,1,0,0:2:0:0:
188,296,80586,1,2,0:2:0:0:
132,296,80661,1,0,0:2:0:0:
296,204,80736,5,2,1:2:0:0:
240,204,80811,1,0,0:2:0:0:
184,204,80886,1,0,0:2:0:0:
184,204,80961,1,0,0:2:0:0:
352,160,81036,1,0,1:2:0:0:
408,160,81111,1,0,0:2:0:0:
464,160,81186,1,0,0:2:0:0:
408,160,81261,1,0,0:2:0:0:
248,360,81336,6,0,L|248:280,1,50,2|0,1:2|0:2,0:2:0:0:
404,316,81486,2,0,L|404:240,1,50,2|0,0:2|0:2,0:2:0:0:
248,264,81636,1,2,1:2:0:0:
276,264,81673,1,0,3:2:0:0:
304,264,81711,1,0,3:2:0:0:
460,208,81786,1,2,3:2:0:0:
432,208,81823,1,0,3:2:0:0:
404,208,81861,1,0,3:2:0:0:
248,156,81936,5,2,1:2:0:0:
248,156,82011,1,0,0:2:0:0:
92,156,82086,1,2,0:2:0:0:
92,156,82161,1,0,0:2:0:0:
248,156,82236,1,2,1:2:0:0:
248,156,82311,1,0,0:2:0:0:
400,156,82386,1,2,0:2:0:0:
400,156,82461,1,0,0:2:0:0:
216,352,82536,5,4,1:1:0:0:
191,352,82573,1,0,3:2:0:0:
166,352,82611,1,0,3:2:0:0:
328,296,82686,2,0,L|368:296,2,25,0|0|0,3:2|3:2|3:2,3:2:0:0:
176,224,82836,1,0,3:2:0:0:
116,224,82911,1,0,3:2:0:0:
256,160,82986,1,0,3:2:0:0:
312,160,83061,1,0,3:2:0:0:
152,160,83136,6,0,P|116:120|164:88,1,100,8|0,3:1|3:2,3:2:0:0:
192,88,83361,1,0,3:2:0:0:
340,88,83436,1,0,3:2:0:0:
365,88,83473,1,0,3:2:0:0:
390,88,83511,1,0,3:2:0:0:
224,28,83586,1,0,3:2:0:0:
249,28,83623,1,0,3:2:0:0:
274,28,83661,1,0,3:2:0:0:
440,296,83736,6,0,L|440:216,1,50,0|0,1:2|3:2,3:2:0:0:
288,252,83886,2,0,L|272:252,1,12.5,0|0,3:2|3:2,3:2:0:0:
380,248,84036,1,0,3:2:0:0:
391,225,84073,1,0,3:2:0:0:
392,200,84111,1,0,3:2:0:0:
384,177,84148,1,0,3:2:0:0:
368,158,84186,1,0,3:2:0:0:
345,148,84223,1,0,3:2:0:0:
320,147,84261,1,0,3:2:0:0:
144,92,84336,6,0,L|264:92,1,100,8|0,3:1|3:2,3:2:0:0:
300,92,84561,1,0,3:2:0:0:
132,216,84636,1,0,3:2:0:0:
76,216,84711,1,0,3:2:0:0:
20,216,84786,1,0,3:2:0:0:
76,216,84861,1,0,3:2:0:0:
264,224,84936,5,0,1:2:0:0:
287,215,84973,1,0,3:2:0:0:
301,195,85011,1,0,3:2:0:0:
303,170,85048,1,0,3:2:0:0:
292,149,85086,1,0,3:2:0:0:
240,148,85161,1,0,3:2:0:0:
88,152,85236,2,0,L|72:152,1,12.5,0|0,3:2|3:2,3:2:0:0:
36,152,85311,2,0,L|36:136,1,12.5,0|0,3:2|3:2,3:2:0:0:
88,120,85386,2,0,L|88:104,1,12.5,0|0,3:2|3:2,3:2:0:0:
40,108,85461,2,0,L|52:108,1,12.5,0|0,3:2|3:2,3:2:0:0:
192,344,85536,5,8,3:1:0:0:
217,344,85573,1,0,3:2:0:0:
242,344,85611,1,0,3:2:0:0:
267,344,85648,1,0,3:2:0:0:
292,344,85686,1,0,3:2:0:0:
317,344,85723,1,0,3:2:0:0:
292,344,85761,1,0,3:2:0:0:
140,292,85836,2,0,L|108:292,1,25,0|0,3:2|3:2,3:2:0:0:
284,228,85986,2,0,L|284:188,1,25,0|0,3:2|3:2,3:2:0:0:
88,164,86136,6,0,L|88:144,1,12.5,0|0,3:0|3:0,3:0:0:0:
280,92,86286,2,0,L|296:92,1,12.5,0|0,3:2|3:2,3:2:0:0:
184,224,86436,2,0,L|184:200,6,25,0|0|0|0|0|0|0,3:2|3:2|3:2|3:2|3:2|3:2|3:2,3:2:0:0:
352,292,86736,6,0,L|336:292,1,12.5,0|0,3:0|3:0,3:0:0:0:
152,292,86886,2,0,L|136:292,1,12.5,0|0,3:2|3:2,3:2:0:0:
352,292,87036,2,0,L|332:292,1,12.5,0|0,3:0|3:0,3:0:0:0:
152,292,87186,2,0,L|136:292,1,12.5,0|0,3:2|3:2,3:2:0:0:
384,176,87336,6,0,L|264:176,1,100,2|0,1:2|0:2,0:2:0:0:
236,176,87561,1,0,1:2:0:0:
284,176,87636,1,2,0:2:0:0:
384,176,87786,1,2,0:2:0:0:
168,368,87936,6,0,L|168:228,1,100,8|2,0:1|0:2,0:2:0:0:
308,268,88236,2,2,L|308:144,1,100,2|2,0:2|0:2,0:2:0:0:
48,96,88536,5,2,1:2:0:0:
148,96,88686,1,0,0:2:0:0:
248,96,88836,1,2,0:2:0:0:
148,96,88986,1,2,0:2:0:0:
364,360,89136,6,0,L|364:248,1,100,8|0,0:1|0:2,0:2:0:0:
224,264,89436,2,0,L|124:264,1,100,2|0,0:2|0:2,0:2:0:0:
396,192,89736,6,0,P|408:136|384:100,1,100,2|0,1:2|0:2,0:2:0:0:
336,100,89961,1,0,1:2:0:0:
386,102,90036,2,0,L|496:104,1,100,2|0,0:2|0:2,0:2:0:0:
260,356,90336,5,8,0:1:0:0:
160,356,90486,1,0,0:2:0:0:
60,352,90636,1,2,0:2:0:0:
60,224,90786,1,0,0:2:0:0:
284,224,90936,6,0,L|384:224,2,100,2|0|0,1:2|0:2|0:2,0:2:0:0:
136,220,91386,1,0,1:2:0:0:
368,152,91536,5,8,0:1:0:0:
224,152,91686,2,0,L|224:48,1,100,0|0,1:2|0:2,1:2:0:0:
324,56,91986,1,0,0:2:0:0:
108,356,92136,6,0,L|108:248,1,100,2|0,1:2|0:2,0:2:0:0:
160,284,92361,1,2,1:2:0:0:
208,284,92436,1,0,0:2:0:0:
76,192,92586,1,2,0:2:0:0:
300,348,92736,6,0,L|300:228,1,100,8|0,0:1|0:2,0:2:0:0:
168,208,93036,2,0,L|168:104,1,100,2|0,0:2|0:2,0:2:0:0:
388,220,93336,6,0,L|388:108,1,100,2|0,1:2|0:2,1:2:0:0:
336,148,93561,1,2,0:2:0:0:
288,148,93636,1,0,0:2:0:0:
428,92,93786,1,2,0:2:0:0:
188,360,93936,6,2,L|188:252,1,100,8|2,0:1|0:2,0:2:0:0:
316,256,94236,2,2,L|428:256,1,100,2|2,0:2|0:2,0:2:0:0:
176,212,94536,6,0,P|152:156|196:128,1,100,2|0,1:2|0:2,1:2:0:0:
304,128,94761,1,2,1:2:0:0:
352,128,94836,2,0,L|232:128,1,100,0|2,0:2|0:2,0:2:0:0:
480,248,95136,6,0,P|488:180|448:144,1,100,8|0,0:1|0:2,0:2:0:0:
420,156,95361,1,2,0:2:0:0:
372,156,95436,1,2,0:2:0:0:
472,152,95586,1,2,0:2:0:0:
236,360,95736,6,2,L|236:272,1,50,2|2,1:2|0:2,0:2:0:0:
284,308,95886,2,2,L|340:308,1,50,2|2,0:2|0:2,0:2:0:0:
384,308,96036,2,2,L|312:308,1,50,2|2,0:2|0:2,0:2:0:0:
168,244,96186,2,2,L|84:244,1,50,2|2,1:2|0:2,0:2:0:0:
284,188,96336,6,2,L|336:188,1,50,8|2,0:1|0:2,0:2:0:0:
168,136,96486,2,2,L|168:72,1,50,2|2,1:2|0:2,0:2:0:0:
216,88,96636,2,2,L|216:16,1,50,2|2,0:2|0:2,0:2:0:0:
168,40,96786,2,2,L|112:40,1,50,2|2,0:2|0:2,0:2:0:0:
304,264,96936,6,0,L|188:264,1,100,4|0,1:1|0:2,0:1:0:0:
256,264,97161,1,0,0:2:0:0:
304,264,97236,1,2,1:2:0:0:
88,264,97386,2,0,L|88:188,1,50,2|0,0:2|0:2,0:2:0:0:
272,216,97536,6,0,L|340:216,1,50,2|0,1:2|0:2,0:2:0:0:
136,144,97686,2,0,L|192:144,1,50,2|0,0:2|0:2,0:2:0:0:
356,148,97836,2,0,L|356:72,1,50,2|0,1:2|0:2,0:2:0:0:
184,80,97986,2,0,L|116:80,2,50,2|0|0,0:2|0:2|1:2,0:2:0:0:
408,208,98286,6,0,L|408:144,1,50,2|0,0:2|0:2,0:2:0:0:
236,156,98436,2,0,L|120:156,1,100,2|0,1:2|0:2,0:2:0:0:
184,156,98661,1,0,0:2:0:0:
348,152,98736,2,0,P|372:104|324:72,1,100,2|0,1:2|0:2,0:2:0:0:
296,76,98961,1,0,0:2:0:0:
144,80,99036,1,2,1:2:0:0:
360,24,99186,1,2,0:2:0:0:
140,264,99336,6,2,P|116:208|160:184,1,100,2|0,1:2|0:2,0:2:0:0:
188,188,99561,1,0,0:2:0:0:
336,192,99636,2,0,L|336:112,1,50,2|0,1:2|0:2,0:2:0:0:
288,144,99786,2,0,L|224:144,1,50,2|0,0:2|0:2,0:2:0:0:
404,100,99936,6,0,L|468:100,1,50,2|0,1:2|0:2,0:2:0:0:
288,52,100086,2,0,L|216:52,1,50,2|0,0:2|0:2,0:2:0:0:
68,52,100236,2,0,L|152:52,1,50,2|0,1:2|0:2,0:2:0:0:
288,52,100386,2,2,L|344:52,2,50,2|0|0,0:2|0:2|1:2,0:2:0:0:
68,240,100686,6,0,L|68:168,1,50,2|0,0:2|0:2,0:2:0:0:
256,192,100836,2,0,L|380:192,1,100,2|0,1:2|0:2,0:2:0:0:
308,192,101061,1,0,0:2:0:0:
108,188,101136,2,0,P|60:152|124:96,1,150,2|0,1:2|0:2,0:2:0:0:
264,88,101436,1,2,1:2:0:0:
48,40,101586,1,2,0:2:0:0:
268,216,101736,6,0,L|268:144,1,50,2|0,1:2|0:2,0:2:0:0:
212,164,101886,1,2,0:2:0:0:
156,164,101961,1,0,0:2:0:0:
328,116,102036,1,2,1:2:0:0:
384,116,102111,1,0,0:2:0:0:
240,64,102186,1,0,0:2:0:0:
104,64,102261,1,0,0:2:0:0:
264,64,102336,6,0,L|264:132,1,50,2|0,1:2|0:2,0:2:0:0:
208,112,102486,1,2,0:2:0:0:
152,112,102561,1,0,0:2:0:0:
316,324,102636,1,2,1:2:0:0:
372,324,102711,1,0,0:2:0:0:
192,268,102786,1,0,0:2:0:0:
136,268,102861,1,0,0:2:0:0:
312,228,102936,6,0,L|312:164,1,50,2|0,1:2|0:2,0:2:0:0:
256,184,103086,2,0,L|256:104,1,50,0|0,0:2|0:2,0:2:0:0:
440,80,103236,1,2,1:2:0:0:
384,80,103311,1,0,0:2:0:0:
247,81,103386,1,0,0:2:0:0:
112,81,103461,1,0,0:2:0:0:
286,302,103536,5,2,1:2:0:0:
340,304,103611,1,0,0:2:0:0:
176,256,103686,1,0,0:2:0:0:
344,212,103761,2,0,L|344:148,1,50,0|2,0:2|1:2,0:2:0:0:
288,164,103911,1,0,0:2:0:0:
136,168,103986,1,2,0:2:0:0:
80,168,104061,1,0,0:2:0:0:
256,116,104136,5,2,1:2:0:0:
312,116,104211,1,0,0:2:0:0:
140,52,104286,1,0,0:2:0:0:
196,52,104361,1,0,0:2:0:0:
360,360,104436,2,0,L|360:276,1,50,2|0,1:2|0:2,0:2:0:0:
304,308,104586,1,2,0:2:0:0:
248,308,104661,1,0,0:2:0:0:
424,240,104736,6,0,L|424:168,1,50,2|0,1:2|0:2,0:2:0:0:
260,188,104886,1,2,0:2:0:0:
204,188,104961,1,0,0:2:0:0:
360,136,105036,1,2,1:2:0:0:
416,136,105111,1,0,0:2:0:0:
216,128,105186,1,0,0:2:0:0:
160,128,105261,1,0,0:2:0:0:
360,68,105336,5,2,1:2:0:0:
224,68,105411,1,0,0:2:0:0:
88,72,105486,1,0,0:2:0:0:
144,72,105561,1,0,0:2:0:0:
296,232,105636,1,2,1:2:0:0:
160,232,105711,1,0,0:2:0:0:
24,228,105786,1,0,0:2:0:0:
80,228,105861,1,0,0:2:0:0:
248,320,105936,5,2,1:2:0:0:
384,320,106011,1,0,0:2:0:0:
248,320,106086,1,0,0:2:0:0:
192,320,106161,1,0,0:2:0:0:
356,252,106236,1,2,1:2:0:0:
492,252,106311,1,0,0:2:0:0:
356,252,106386,1,0,0:2:0:0:
300,252,106461,1,0,0:2:0:0:
464,192,106536,6,0,L|464:124,1,50,4|0,1:1|0:1,0:1:0:0:
304,136,106686,1,2,0:2:0:0:
248,136,106761,1,0,0:2:0:0:
408,80,106836,1,2,1:2:0:0:
260,80,106911,1,0,0:2:0:0:
112,80,106986,1,2,0:2:0:0:
56,80,107061,1,0,0:2:0:0:
248,300,107136,5,2,1:2:0:0:
304,300,107211,1,0,0:2:0:0:
136,248,107286,2,0,L|136:168,1,50,2|0,0:2|0:2,0:2:0:0:
296,188,107436,1,2,1:2:0:0:
352,188,107511,1,0,0:2:0:0:
408,188,107586,1,2,0:2:0:0:
352,188,107661,1,0,0:2:0:0:
176,132,107736,5,2,1:2:0:0:
324,128,107811,1,0,0:2:0:0:
472,124,107886,1,0,0:2:0:0:
416,124,107961,1,0,0:2:0:0:
224,280,108036,2,0,L|96:280,1,100,2|0,1:2|0:2,0:2:0:0:
180,280,108261,1,0,0:2:0:0:
344,280,108336,6,0,P|372:232|320:192,1,100,2|0,1:2|0:2,0:2:0:0:
296,200,108561,1,0,0:2:0:0:
148,204,108636,1,2,1:2:0:0:
368,128,108786,1,2,0:2:0:0:
152,128,108936,5,2,1:2:0:0:
96,128,109011,1,0,0:2:0:0:
272,72,109086,1,2,0:2:0:0:
328,72,109161,1,0,0:2:0:0:
156,32,109236,1,2,1:2:0:0:
8,32,109311,1,0,0:2:0:0:
156,32,109386,1,2,0:2:0:0:
212,32,109461,1,0,0:2:0:0:
32,364,109536,6,0,L|32:292,1,50,2|0,1:2|0:2,0:2:0:0:
200,312,109686,1,2,0:2:0:0:
256,312,109761,1,0,0:2:0:0:
80,256,109836,1,2,1:2:0:0:
136,256,109911,1,0,0:2:0:0:
300,256,109986,1,2,0:2:0:0:
356,256,110061,1,0,0:2:0:0:
192,200,110136,5,2,1:2:0:0:
44,200,110211,1,0,0:2:0:0:
208,208,110286,1,0,0:2:0:0:
264,208,110361,1,0,0:2:0:0:
420,280,110436,2,0,L|420:172,1,100,2|0,1:2|0:2,0:2:0:0:
364,148,110661,1,0,0:2:0:0:
200,148,110736,5,2,1:2:0:0:
144,148,110811,1,0,0:2:0:0:
332,92,110886,2,0,L|332:24,1,50,2|0,0:2|0:2,0:2:0:0:
176,148,111036,1,2,1:2:0:0:
120,148,111111,1,0,0:2:0:0:
304,96,111186,2,0,L|304:28,1,50,2|0,0:2|0:2,0:2:0:0:
120,56,111336,5,2,1:2:0:0:
64,56,111411,1,0,0:2:0:0:
232,256,111486,1,0,0:2:0:0:
176,256,111561,1,0,0:2:0:0:
336,216,111636,1,2,1:2:0:0:
484,220,111711,1,0,0:2:0:0:
336,152,111786,1,0,0:2:0:0:
280,152,111861,1,0,0:2:0:0:
444,148,111936,5,2,1:2:0:0:
500,148,112011,1,0,0:2:0:0:
340,68,112086,1,0,0:2:0:0:
396,68,112161,1,0,0:2:0:0:
240,72,112236,1,2,1:2:0:0:
88,76,112311,1,0,0:2:0:0:
240,72,112386,1,0,0:2:0:0:
296,72,112461,1,0,0:2:0:0:
124,260,112536,6,0,L|124:196,1,50,2|0,1:2|0:2,0:2:0:0:
280,200,112686,1,0,0:2:0:0:
224,200,112761,1,0,0:2:0:0:
384,136,112836,1,2,1:2:0:0:
232,132,112911,1,0,0:2:0:0:
80,108,112986,1,0,0:2:0:0:
136,108,113061,1,0,0:2:0:0:
316,356,113136,5,2,1:2:0:0:
372,356,113211,1,0,0:2:0:0:
216,356,113286,1,0,0:2:0:0:
160,356,113361,1,0,0:2:0:0:
404,216,113436,1,2,1:2:0:0:
252,220,113511,1,0,0:2:0:0:
100,204,113586,1,0,0:2:0:0:
156,204,113661,1,0,0:2:0:0:
324,140,113736,5,4,1:2:0:0:
380,140,113811,1,0,0:2:0:0:
228,100,113886,2,0,L|228:44,1,50,0|0,0:2|0:2,0:2:0:0:
380,48,114036,1,2,1:2:0:0:
232,48,114111,1,0,0:2:0:0:
84,48,114186,1,0,0:2:0:0:
140,48,114261,1,0,0:2:0:0:
288,300,114336,5,2,1:2:0:0:
232,300,114411,1,0,0:2:0:0:
404,296,114486,2,0,L|404:220,1,50,0|0,0:2|0:2,0:2:0:0:
256,244,114636,1,2,1:2:0:0:
108,248,114711,1,0,0:2:0:0:
256,244,114786,1,0,0:2:0:0:
312,244,114861,1,0,0:2:0:0:
108,180,114936,5,4,1:2:0:0:
256,180,115011,1,0,0:2:0:0:
408,180,115086,1,0,0:2:0:0:
352,180,115161,1,0,0:2:0:0:
128,120,115236,1,6,1:2:0:0:
276,116,115311,1,0,0:2:0:0:
424,116,115386,1,0,0:2:0:0:
368,116,115461,1,0,0:2:0:0:
216,308,115536,5,6,1:2:0:0:
68,308,115611,1,0,0:2:0:0:
216,308,115686,1,2,0:2:0:0:
272,308,115761,1,0,0:2:0:0:
68,244,115836,1,6,1:2:0:0:
124,244,115911,1,0,0:2:0:0:
316,188,115986,1,2,0:2:0:0:
372,188,116061,1,0,0:2:0:0:
152,180,116136,5,4,1:1:0:0:
256,192,116286,12,0,118536,0:2:0:0:
