osu file format v14

[General]
AudioFilename: audio.mp3
AudioLeadIn: 0
PreviewTime: 19019
Countdown: 1
SampleSet: Normal
StackLeniency: 0.7
Mode: 1
LetterboxInBreaks: 0
WidescreenStoryboard: 0

[Editor]
Bookmarks: 1019,10619,20219,29819,39419,41819,44219,53819,63419,73019,75419,80219,82619,87419,97019,106619,116219
DistanceSpacing: 1.2
BeatDivisor: 4
GridSize: 4
TimelineZoom: 1.9

[Metadata]
Title:Dopamine
TitleUnicode:Dopamine
Artist:U1 overground
ArtistUnicode:U1 overground
Creator:Kin
Version:C8H11NO2
Source:
Tags:
BeatmapID:1612388
BeatmapSetID:767066

[Difficulty]
HPDrainRate:6
CircleSize:5
OverallDifficulty:7
ApproachRate:5
SliderMultiplier:1.4
SliderTickRate:1

[Events]
//Background and Video events
0,0,"ftg.jpg",0,150
//Break Periods
//Storyboard Layer 0 (Background)
//Storyboard Layer 1 (Fail)
//Storyboard Layer 2 (Pass)
//Storyboard Layer 3 (Foreground)
//Storyboard Sound Samples

[TimingPoints]
1019,300,4,1,0,100,1,0
20219,-100,4,1,0,100,0,1
39419,-100,4,1,0,100,0,0
97019,-100,4,1,0,100,0,1
116219,-100,4,1,0,100,0,0

[HitObjects]
252,192,1019,5,0,0:0:0:0:
252,192,1094,1,0,0:0:0:0:
252,192,1169,1,8,0:0:0:0:
252,192,1244,1,8,0:0:0:0:
252,192,1319,1,0,0:0:0:0:
252,192,1619,1,8,0:0:0:0:
252,192,1694,1,8,0:0:0:0:
252,192,1769,1,0,0:0:0:0:
252,192,1919,1,0,0:0:0:0:
252,192,1994,1,0,0:0:0:0:
252,192,2069,1,8,0:0:0:0:
252,192,2144,1,8,0:0:0:0:
252,192,2219,1,0,0:0:0:0:
252,192,2369,1,8,0:0:0:0:
252,192,2444,1,8,0:0:0:0:
252,192,2519,1,0,0:0:0:0:
252,192,2669,1,8,0:0:0:0:
252,192,2819,1,0,0:0:0:0:
252,192,2894,1,0,0:0:0:0:
252,192,2969,1,8,0:0:0:0:
252,192,3044,1,8,0:0:0:0:
252,192,3119,1,0,0:0:0:0:
252,192,3269,1,8,0:0:0:0:
252,192,3419,1,0,0:0:0:0:
252,192,3569,1,8,0:0:0:0:
252,192,3644,1,8,0:0:0:0:
252,192,3719,1,0,0:0:0:0:
252,192,3869,1,0,0:0:0:0:
252,192,3944,1,0,0:0:0:0:
252,192,4019,1,8,0:0:0:0:
252,192,4094,1,8,0:0:0:0:
252,192,4169,1,0,0:0:0:0:
252,192,4319,1,0,0:0:0:0:
252,192,4394,1,0,0:0:0:0:
252,192,4469,1,8,0:0:0:0:
252,192,4544,1,8,0:0:0:0:
252,192,4619,1,0,0:0:0:0:
252,192,4769,1,8,0:0:0:0:
252,192,4844,1,8,0:0:0:0:
252,192,4919,1,0,0:0:0:0:
252,192,4994,1,0,0:0:0:0:
252,192,5069,1,0,0:0:0:0:
252,192,5219,1,8,0:0:0:0:
252,192,5294,1,8,0:0:0:0:
252,192,5369,1,0,0:0:0:0:
252,192,5519,1,8,0:0:0:0:
252,192,5594,1,8,0:0:0:0:
252,192,5669,1,0,0:0:0:0:
252,192,5819,1,8,0:0:0:0:
252,192,5894,1,8,0:0:0:0:
252,192,5969,1,0,0:0:0:0:
252,192,6044,1,0,0:0:0:0:
252,192,6119,1,0,0:0:0:0:
252,192,6269,1,8,0:0:0:0:
252,192,6344,1,8,0:0:0:0:
252,192,6419,1,0,0:0:0:0:
252,192,6719,1,0,0:0:0:0:
252,192,6794,1,0,0:0:0:0:
252,192,6869,1,8,0:0:0:0:
252,192,6944,1,8,0:0:0:0:
252,192,7019,1,0,0:0:0:0:
252,192,7169,1,0,0:0:0:0:
252,192,7319,1,8,0:0:0:0:
252,192,7394,1,8,0:0:0:0:
252,192,7469,1,0,0:0:0:0:
252,192,7619,1,8,0:0:0:0:
252,192,7919,1,8,0:0:0:0:
252,192,7994,1,8,0:0:0:0:
252,192,8069,1,0,0:0:0:0:
252,192,8219,1,8,0:0:0:0:
252,192,8294,1,8,0:0:0:0:
252,192,8369,1,0,0:0:0:0:
252,192,8444,1,0,0:0:0:0:
252,192,8519,1,0,0:0:0:0:
252,192,8819,1,8,0:0:0:0:
252,192,8894,1,8,0:0:0:0:
252,192,8969,1,0,0:0:0:0:
252,192,9119,1,8,0:0:0:0:
252,192,9194,1,8,0:0:0:0:
252,192,9269,1,0,0:0:0:0:
252,192,9419,1,8,0:0:0:0:
252,192,9494,1,8,0:0:0:0:
252,192,9569,1,0,0:0:0:0:
252,192,9644,1,0,0:0:0:0:
252,192,9719,1,0,0:0:0:0:
252,192,9869,1,8,0:0:0:0:
252,192,9944,1,8,0:0:0:0:
252,192,10019,1,0,0:0:0:0:
252,192,10169,1,8,0:0:0:0:
252,192,10244,1,8,0:0:0:0:
252,192,10319,1,0,0:0:0:0:
252,192,10469,1,8,0:0:0:0:
252,192,10619,1,4,0:0:0:0:
252,192,10919,1,0,0:0:0:0:
252,192,11069,1,8,0:0:0:0:
252,192,11219,1,0,0:0:0:0:
252,192,11369,1,8,0:0:0:0:
252,192,11444,1,8,0:0:0:0:
252,192,11519,1,0,0:0:0:0:
252,192,11669,1,8,0:0:0:0:
252,192,11819,1,0,0:0:0:0:
252,192,11894,1,8,0:0:0:0:
252,192,12044,1,8,0:0:0:0:
252,192,12119,1,0,0:0:0:0:
252,192,12269,1,8,0:0:0:0:
252,192,12419,1,0,0:0:0:0:
252,192,12569,1,8,0:0:0:0:
252,192,12644,1,8,0:0:0:0:
252,192,12719,1,0,0:0:0:0:
252,192,12869,1,8,0:0:0:0:
252,192,13019,1,0,0:0:0:0:
252,192,13244,1,8,0:0:0:0:
252,192,13319,1,0,0:0:0:0:
252,192,13469,1,8,0:0:0:0:
252,192,13544,1,8,0:0:0:0:
252,192,13619,1,0,0:0:0:0:
252,192,13769,1,0,0:0:0:0:
252,192,13844,1,0,0:0:0:0:
252,192,13919,1,8,0:0:0:0:
252,192,13994,1,0,0:0:0:0:
252,192,14069,1,8,0:0:0:0:
252,192,14219,1,0,0:0:0:0:
252,192,14294,1,8,0:0:0:0:
252,192,14444,1,8,0:0:0:0:
252,192,14519,1,0,0:0:0:0:
252,192,14669,1,8,0:0:0:0:
252,192,14819,1,0,0:0:0:0:
252,192,14894,1,0,0:0:0:0:
252,192,14969,1,8,0:0:0:0:
252,192,15119,1,0,0:0:0:0:
252,192,15269,1,8,0:0:0:0:
252,192,15419,1,0,0:0:0:0:
252,192,15494,1,8,0:0:0:0:
252,192,15644,1,8,0:0:0:0:
252,192,15719,1,0,0:0:0:0:
252,192,15869,1,8,0:0:0:0:
252,192,16019,1,0,0:0:0:0:
252,192,16094,1,0,0:0:0:0:
252,192,16169,1,8,0:0:0:0:
252,192,16244,1,0,0:0:0:0:
252,192,16319,1,8,0:0:0:0:
252,192,16469,1,0,0:0:0:0:
252,192,16619,1,8,0:0:0:0:
252,192,16769,1,8,0:0:0:0:
252,192,16844,1,8,0:0:0:0:
252,192,16919,1,0,0:0:0:0:
252,192,17069,1,8,0:0:0:0:
252,192,17219,1,0,0:0:0:0:
252,192,17294,1,0,0:0:0:0:
252,192,17369,1,8,0:0:0:0:
252,192,17444,1,8,0:0:0:0:
252,192,17519,1,0,0:0:0:0:
252,192,17669,1,8,0:0:0:0:
252,192,17819,1,0,0:0:0:0:
252,192,17969,1,8,0:0:0:0:
252,192,18044,1,8,0:0:0:0:
252,192,18119,1,0,0:0:0:0:
252,192,18194,1,8,0:0:0:0:
252,192,18344,1,8,0:0:0:0:
252,192,18419,1,0,0:0:0:0:
252,192,18494,1,0,0:0:0:0:
252,192,18569,1,0,0:0:0:0:
252,192,18719,1,8,0:0:0:0:
252,192,18869,1,8,0:0:0:0:
252,192,19019,1,0,0:0:0:0:
252,192,19119,1,8,0:0:0:0:
252,192,19219,1,8,0:0:0:0:
252,192,19319,1,0,0:0:0:0:
252,192,19419,1,8,0:0:0:0:
252,192,19519,1,8,0:0:0:0:
252,192,19619,1,0,0:0:0:0:
252,192,19719,1,8,0:0:0:0:
252,192,19819,1,8,0:0:0:0:
252,192,19919,1,0,0:0:0:0:
252,192,20019,1,8,0:0:0:0:
252,192,20219,1,4,0:0:0:0:
252,192,20369,1,8,0:0:0:0:
252,192,20444,1,8,0:0:0:0:
252,192,20519,1,0,0:0:0:0:
252,192,20594,1,0,0:0:0:0:
252,192,20669,1,8,0:0:0:0:
252,192,20744,1,0,0:0:0:0:
252,192,20819,1,8,0:0:0:0:
252,192,20894,1,8,0:0:0:0:
252,192,20969,1,0,0:0:0:0:
252,192,21119,1,8,0:0:0:0:
252,192,21194,1,8,0:0:0:0:
252,192,21269,1,8,0:0:0:0:
252,192,21344,1,8,0:0:0:0:
252,192,21419,1,0,0:0:0:0:
252,192,21569,1,8,0:0:0:0:
252,192,21644,1,8,0:0:0:0:
252,192,21719,1,0,0:0:0:0:
252,192,21869,1,8,0:0:0:0:
252,192,21906,1,8,0:0:0:0:
252,192,22019,1,8,0:0:0:0:
252,192,22056,1,8,0:0:0:0:
252,192,22169,1,0,0:0:0:0:
252,192,22319,1,8,0:0:0:0:
252,192,22394,1,8,0:0:0:0:
252,192,22469,1,8,0:0:0:0:
252,192,22544,1,8,0:0:0:0:
252,192,22619,1,0,0:0:0:0:
252,192,22769,1,8,0:0:0:0:
252,192,22844,1,8,0:0:0:0:
252,192,22919,1,0,0:0:0:0:
252,192,22994,1,0,0:0:0:0:
252,192,23069,1,8,0:0:0:0:
252,192,23144,1,8,0:0:0:0:
252,192,23219,1,0,0:0:0:0:
252,192,23369,1,0,0:0:0:0:
252,192,23419,1,8,0:0:0:0:
252,192,23469,1,8,0:0:0:0:
252,192,23519,1,0,0:0:0:0:
252,192,23669,1,8,0:0:0:0:
252,192,23744,1,8,0:0:0:0:
252,192,23819,1,0,0:0:0:0:
252,192,23894,1,0,0:0:0:0:
252,192,23969,1,8,0:0:0:0:
252,192,24044,1,8,0:0:0:0:
252,192,24119,1,0,0:0:0:0:
252,192,24269,1,8,0:0:0:0:
252,192,24319,1,0,0:0:0:0:
252,192,24369,1,0,0:0:0:0:
252,192,24419,1,8,0:0:0:0:
252,192,24569,1,8,0:0:0:0:
252,192,24619,1,8,0:0:0:0:
252,192,24669,1,8,0:0:0:0:
252,192,24719,1,0,0:0:0:0:
252,192,24869,1,0,0:0:0:0:
252,192,25019,1,14,0:0:0:0:
252,192,25169,1,0,0:0:0:0:
252,192,25319,1,8,0:0:0:0:
252,192,25394,1,8,0:0:0:0:
252,192,25469,1,0,0:0:0:0:
252,192,25544,1,8,0:0:0:0:
252,192,25619,1,0,0:0:0:0:
252,192,25694,1,0,0:0:0:0:
252,192,25769,1,8,0:0:0:0:
252,192,25919,1,8,0:0:0:0:
252,192,25994,1,8,0:0:0:0:
252,192,26069,1,8,0:0:0:0:
252,192,26144,1,8,0:0:0:0:
252,192,26219,1,0,0:0:0:0:
252,192,26294,1,8,0:0:0:0:
252,192,26444,1,8,0:0:0:0:
252,192,26519,1,0,0:0:0:0:
252,192,26669,1,8,0:0:0:0:
252,192,26706,1,8,0:0:0:0:
252,192,26819,1,8,0:0:0:0:
252,192,26856,1,8,0:0:0:0:
252,192,26969,1,0,0:0:0:0:
252,192,27119,1,8,0:0:0:0:
252,192,27194,1,8,0:0:0:0:
252,192,27269,1,8,0:0:0:0:
252,192,27344,1,8,0:0:0:0:
252,192,27419,1,0,0:0:0:0:
252,192,27569,1,8,0:0:0:0:
252,192,27644,1,8,0:0:0:0:
252,192,27719,1,0,0:0:0:0:
252,192,27794,1,0,0:0:0:0:
252,192,27869,1,8,0:0:0:0:
252,192,27944,1,8,0:0:0:0:
252,192,28019,1,0,0:0:0:0:
252,192,28169,1,8,0:0:0:0:
252,192,28219,1,8,0:0:0:0:
252,192,28269,1,8,0:0:0:0:
252,192,28319,1,0,0:0:0:0:
252,192,28469,1,8,0:0:0:0:
252,192,28544,1,8,0:0:0:0:
252,192,28619,1,0,0:0:0:0:
252,192,28694,1,0,0:0:0:0:
252,192,28769,1,8,0:0:0:0:
252,192,28844,1,0,0:0:0:0:
252,192,28919,1,8,0:0:0:0:
252,192,29069,1,8,0:0:0:0:
252,192,29119,1,8,0:0:0:0:
252,192,29169,1,8,0:0:0:0:
252,192,29219,1,0,0:0:0:0:
252,192,29369,1,8,0:0:0:0:
252,192,29519,1,0,0:0:0:0:
252,192,29594,1,0,0:0:0:0:
252,192,29669,1,0,0:0:0:0:
252,192,29744,1,0,0:0:0:0:
252,192,29819,1,14,0:0:0:0:
252,192,30119,1,0,0:0:0:0:
252,192,30269,1,8,0:0:0:0:
252,192,30419,1,0,0:0:0:0:
252,192,30494,1,0,0:0:0:0:
252,192,30569,1,0,0:0:0:0:
252,192,30719,1,8,0:0:0:0:
252,192,30794,1,8,0:0:0:0:
252,192,30869,1,8,0:0:0:0:
252,192,30944,1,8,0:0:0:0:
252,192,31019,1,0,0:0:0:0:
252,192,31094,1,8,0:0:0:0:
252,192,31244,1,8,0:0:0:0:
252,192,31319,1,0,0:0:0:0:
252,192,31469,1,8,0:0:0:0:
252,192,31506,1,8,0:0:0:0:
252,192,31619,1,8,0:0:0:0:
252,192,31656,1,8,0:0:0:0:
252,192,31769,1,0,0:0:0:0:
252,192,31844,1,0,0:0:0:0:
252,192,31919,1,8,0:0:0:0:
252,192,31994,1,8,0:0:0:0:
252,192,32069,1,8,0:0:0:0:
252,192,32144,1,8,0:0:0:0:
252,192,32219,1,0,0:0:0:0:
252,192,32369,1,8,0:0:0:0:
252,192,32444,1,8,0:0:0:0:
252,192,32519,1,0,0:0:0:0:
252,192,32594,1,0,0:0:0:0:
252,192,32669,1,8,0:0:0:0:
252,192,32744,1,0,0:0:0:0:
252,192,32819,1,8,0:0:0:0:
252,192,32894,1,8,0:0:0:0:
252,192,32969,1,0,0:0:0:0:
252,192,33019,1,0,0:0:0:0:
252,192,33069,1,0,0:0:0:0:
252,192,33119,1,0,0:0:0:0:
252,192,33194,1,8,0:0:0:0:
252,192,33269,1,8,0:0:0:0:
252,192,33344,1,0,0:0:0:0:
252,192,33419,1,8,0:0:0:0:
252,192,33569,1,8,0:0:0:0:
252,192,33644,1,8,0:0:0:0:
252,192,33719,1,0,0:0:0:0:
252,192,33869,1,8,0:0:0:0:
252,192,33919,1,8,0:0:0:0:
252,192,33969,1,8,0:0:0:0:
252,192,34019,1,0,0:0:0:0:
252,192,34169,1,8,0:0:0:0:
252,192,34206,1,8,0:0:0:0:
252,192,34319,1,0,0:0:0:0:
252,192,34394,1,0,0:0:0:0:
252,192,34469,1,0,0:0:0:0:
252,192,34619,1,14,0:0:0:0:
252,192,34844,1,8,0:0:0:0:
252,192,34919,1,8,0:0:0:0:
252,192,35069,1,0,0:0:0:0:
252,192,35144,1,0,0:0:0:0:
252,192,35219,1,8,0:0:0:0:
252,192,35294,1,0,0:0:0:0:
252,192,35369,1,8,0:0:0:0:
252,192,35519,1,8,0:0:0:0:
252,192,35594,1,8,0:0:0:0:
252,192,35669,1,8,0:0:0:0:
252,192,35744,1,8,0:0:0:0:
252,192,35819,1,0,0:0:0:0:
252,192,35969,1,8,0:0:0:0:
252,192,36019,1,0,0:0:0:0:
252,192,36069,1,0,0:0:0:0:
252,192,36119,1,8,0:0:0:0:
252,192,36269,1,0,0:0:0:0:
252,192,36419,1,8,0:0:0:0:
252,192,36494,1,8,0:0:0:0:
252,192,36569,1,0,0:0:0:0:
252,192,36644,1,0,0:0:0:0:
252,192,36719,1,8,0:0:0:0:
252,192,36794,1,8,0:0:0:0:
252,192,36869,1,8,0:0:0:0:
252,192,36944,1,8,0:0:0:0:
252,192,37019,1,0,0:0:0:0:
252,192,37169,1,8,0:0:0:0:
252,192,37244,1,0,0:0:0:0:
252,192,37319,1,8,0:0:0:0:
252,192,37394,1,8,0:0:0:0:
252,192,37469,1,0,0:0:0:0:
252,192,37544,1,0,0:0:0:0:
252,192,37619,1,8,0:0:0:0:
252,192,37769,1,8,0:0:0:0:
252,192,37806,1,8,0:0:0:0:
252,192,37919,1,0,0:0:0:0:
252,192,37994,1,0,0:0:0:0:
252,192,38069,1,0,0:0:0:0:
252,192,38144,1,0,0:0:0:0:
252,192,38219,1,8,0:0:0:0:
252,192,38369,1,0,0:0:0:0:
252,192,38444,1,8,0:0:0:0:
252,192,38519,1,0,0:0:0:0:
252,192,38594,1,0,0:0:0:0:
252,192,38669,1,8,0:0:0:0:
252,192,38744,1,0,0:0:0:0:
252,192,38819,1,8,0:0:0:0:
252,192,38894,1,8,0:0:0:0:
252,192,38969,1,8,0:0:0:0:
252,192,39044,1,8,0:0:0:0:
252,192,39119,1,0,0:0:0:0:
252,192,39269,1,8,0:0:0:0:
252,192,39419,1,4,0:0:0:0:
252,192,39719,1,0,0:0:0:0:
252,192,40019,1,0,0:0:0:0:
252,192,40319,1,0,0:0:0:0:
252,192,40619,1,0,0:0:0:0:
252,192,40769,1,8,0:0:0:0:
252,192,40919,1,0,0:0:0:0:
252,192,41219,1,0,0:0:0:0:
252,192,41519,1,0,0:0:0:0:
252,192,41819,1,4,0:0:0:0:
252,192,41969,1,12,0:0:0:0:
252,192,42119,1,0,0:0:0:0:
252,192,42194,1,0,0:0:0:0:
252,192,42269,1,0,0:0:0:0:
252,192,42419,1,8,0:0:0:0:
252,192,42569,1,0,0:0:0:0:
252,192,42644,1,0,0:0:0:0:
252,192,42719,1,8,0:0:0:0:
252,192,42869,1,0,0:0:0:0:
252,192,43019,1,8,0:0:0:0:
252,192,43094,1,8,0:0:0:0:
252,192,43169,1,0,0:0:0:0:
252,192,43244,1,0,0:0:0:0:
252,192,43319,1,8,0:0:0:0:
252,192,43394,1,0,0:0:0:0:
252,192,43469,1,8,0:0:0:0:
252,192,43544,1,8,0:0:0:0:
252,192,43619,1,0,0:0:0:0:
252,192,43694,1,0,0:0:0:0:
252,192,43769,1,0,0:0:0:0:
252,192,43844,1,0,0:0:0:0:
252,192,43919,1,8,0:0:0:0:
252,192,43994,1,0,0:0:0:0:
252,192,44069,1,8,0:0:0:0:
252,192,44219,1,4,0:0:0:0:
252,192,44444,1,8,0:0:0:0:
252,192,44519,1,0,0:0:0:0:
252,192,44669,1,8,0:0:0:0:
252,192,44744,1,8,0:0:0:0:
252,192,44819,1,0,0:0:0:0:
252,192,44969,1,8,0:0:0:0:
252,192,45119,1,0,0:0:0:0:
252,192,45194,1,0,0:0:0:0:
252,192,45269,1,8,0:0:0:0:
252,192,45344,1,8,0:0:0:0:
252,192,45419,1,0,0:0:0:0:
252,192,45719,1,0,0:0:0:0:
252,192,45756,1,0,0:0:0:0:
252,192,45869,1,8,0:0:0:0:
252,192,45906,1,8,0:0:0:0:
252,192,46019,1,0,0:0:0:0:
252,192,46169,1,8,0:0:0:0:
252,192,46244,1,8,0:0:0:0:
252,192,46319,1,0,0:0:0:0:
252,192,46469,1,8,0:0:0:0:
252,192,46619,1,0,0:0:0:0:
252,192,46694,1,0,0:0:0:0:
252,192,46769,1,8,0:0:0:0:
252,192,46844,1,8,0:0:0:0:
252,192,46919,1,0,0:0:0:0:
252,192,47069,1,8,0:0:0:0:
252,192,47219,1,0,0:0:0:0:
252,192,47294,1,0,0:0:0:0:
252,192,47369,1,8,0:0:0:0:
252,192,47444,1,0,0:0:0:0:
252,192,47519,1,8,0:0:0:0:
252,192,47594,1,8,0:0:0:0:
252,192,47669,1,0,0:0:0:0:
252,192,47819,1,8,0:0:0:0:
252,192,48119,1,8,0:0:0:0:
252,192,48156,1,8,0:0:0:0:
252,192,48269,1,8,0:0:0:0:
252,192,48306,1,8,0:0:0:0:
252,192,48419,1,0,0:0:0:0:
252,192,48569,1,8,0:0:0:0:
252,192,48644,1,8,0:0:0:0:
252,192,48719,1,0,0:0:0:0:
252,192,48794,1,0,0:0:0:0:
252,192,48869,1,8,0:0:0:0:
252,192,49019,1,8,0:0:0:0:
252,192,49069,1,0,0:0:0:0:
252,192,49119,1,0,0:0:0:0:
252,192,49169,1,8,0:0:0:0:
252,192,49319,1,0,0:0:0:0:
252,192,49469,1,8,0:0:0:0:
252,192,49544,1,8,0:0:0:0:
252,192,49619,1,0,0:0:0:0:
252,192,49694,1,0,0:0:0:0:
252,192,49769,1,8,0:0:0:0:
252,192,49844,1,0,0:0:0:0:
252,192,49919,1,8,0:0:0:0:
252,192,49994,1,8,0:0:0:0:
252,192,50069,1,0,0:0:0:0:
252,192,50219,1,8,0:0:0:0:
252,192,50294,1,8,0:0:0:0:
252,192,50369,1,0,0:0:0:0:
252,192,50444,1,8,0:0:0:0:
252,192,50519,1,0,0:0:0:0:
252,192,50594,1,0,0:0:0:0:
252,192,50669,1,8,0:0:0:0:
252,192,50819,1,0,0:0:0:0:
252,192,50969,1,8,0:0:0:0:
252,192,51119,1,8,0:0:0:0:
252,192,51169,1,8,0:0:0:0:
252,192,51219,1,8,0:0:0:0:
252,192,51269,1,0,0:0:0:0:
252,192,51419,1,8,0:0:0:0:
252,192,51569,1,0,0:0:0:0:
252,192,51644,1,0,0:0:0:0:
252,192,51719,1,8,0:0:0:0:
252,192,51794,1,0,0:0:0:0:
252,192,51869,1,8,0:0:0:0:
252,192,51944,1,8,0:0:0:0:
252,192,52019,1,0,0:0:0:0:
252,192,52169,1,8,0:0:0:0:
252,192,52244,1,8,0:0:0:0:
252,192,52319,1,0,0:0:0:0:
252,192,52394,1,0,0:0:0:0:
252,192,52469,1,8,0:0:0:0:
252,192,52544,1,0,0:0:0:0:
252,192,53819,1,4,0:0:0:0:
252,192,53969,1,8,0:0:0:0:
252,192,54044,1,8,0:0:0:0:
252,192,54119,1,0,0:0:0:0:
252,192,54194,1,0,0:0:0:0:
252,192,54269,1,0,0:0:0:0:
252,192,54344,1,0,0:0:0:0:
252,192,54419,1,8,0:0:0:0:
252,192,54569,1,0,0:0:0:0:
252,192,54719,1,8,0:0:0:0:
252,192,54756,1,8,0:0:0:0:
252,192,54869,1,8,0:0:0:0:
252,192,54906,1,8,0:0:0:0:
252,192,55019,1,0,0:0:0:0:
252,192,55169,1,8,0:0:0:0:
252,192,55206,1,8,0:0:0:0:
252,192,55319,1,0,0:0:0:0:
252,192,55394,1,0,0:0:0:0:
252,192,55469,1,0,0:0:0:0:
252,192,55544,1,0,0:0:0:0:
252,192,55619,1,8,0:0:0:0:
252,192,55769,1,0,0:0:0:0:
252,192,55919,1,8,0:0:0:0:
252,192,55994,1,0,0:0:0:0:
252,192,56069,1,0,0:0:0:0:
252,192,56144,1,8,0:0:0:0:
252,192,56219,1,0,0:0:0:0:
252,192,56319,1,8,0:0:0:0:
252,192,56419,1,8,0:0:0:0:
252,192,56519,1,0,0:0:0:0:
252,192,56619,1,0,0:0:0:0:
252,192,56719,1,0,0:0:0:0:
252,192,56819,1,8,0:0:0:0:
252,192,56919,1,0,0:0:0:0:
252,192,57019,1,0,0:0:0:0:
252,192,57119,1,8,0:0:0:0:
252,192,57219,1,0,0:0:0:0:
252,192,57319,1,0,0:0:0:0:
252,192,57419,1,8,0:0:0:0:
252,192,57569,1,0,0:0:0:0:
252,192,57719,1,8,0:0:0:0:
252,192,57794,1,8,0:0:0:0:
252,192,57869,1,8,0:0:0:0:
252,192,57944,1,0,0:0:0:0:
252,192,58019,1,8,0:0:0:0:
252,192,58169,1,8,0:0:0:0:
252,192,58319,1,0,0:0:0:0:
252,192,58356,1,0,0:0:0:0:
252,192,58469,1,8,0:0:0:0:
252,192,58506,1,8,0:0:0:0:
252,192,58619,1,4,0:0:0:0:
252,192,58769,1,8,0:0:0:0:
252,192,58844,1,0,0:0:0:0:
252,192,58919,1,8,0:0:0:0:
252,192,58994,1,8,0:0:0:0:
252,192,59069,1,8,0:0:0:0:
252,192,59144,1,8,0:0:0:0:
252,192,59219,1,0,0:0:0:0:
252,192,59369,1,8,0:0:0:0:
252,192,59519,1,0,0:0:0:0:
252,192,59556,1,0,0:0:0:0:
252,192,59669,1,0,0:0:0:0:
252,192,59706,1,0,0:0:0:0:
252,192,59819,1,8,0:0:0:0:
252,192,59856,1,0,0:0:0:0:
252,192,59969,1,8,0:0:0:0:
252,192,60119,1,0,0:0:0:0:
252,192,60194,1,0,0:0:0:0:
252,192,60269,1,0,0:0:0:0:
252,192,60344,1,0,0:0:0:0:
252,192,60419,1,8,0:0:0:0:
252,192,60569,1,0,0:0:0:0:
252,192,60644,1,0,0:0:0:0:
252,192,60719,1,8,0:0:0:0:
252,192,60794,1,0,0:0:0:0:
252,192,60869,1,8,0:0:0:0:
252,192,61019,1,0,0:0:0:0:
252,192,61056,1,0,0:0:0:0:
252,192,61169,1,8,0:0:0:0:
252,192,61206,1,8,0:0:0:0:
252,192,61319,1,0,0:0:0:0:
252,192,61356,1,0,0:0:0:0:
252,192,61469,1,0,0:0:0:0:
252,192,61506,1,0,0:0:0:0:
252,192,61619,1,8,0:0:0:0:
252,192,61656,1,8,0:0:0:0:
252,192,61769,1,8,0:0:0:0:
252,192,61806,1,8,0:0:0:0:
252,192,61919,1,0,0:0:0:0:
252,192,61956,1,0,0:0:0:0:
252,192,62069,1,8,0:0:0:0:
252,192,62106,1,8,0:0:0:0:
252,192,62219,1,0,0:0:0:0:
252,192,62294,1,0,0:0:0:0:
252,192,62369,1,8,0:0:0:0:
252,192,62444,1,8,0:0:0:0:
252,192,62519,1,0,0:0:0:0:
252,192,62594,1,0,0:0:0:0:
252,192,62669,1,0,0:0:0:0:
252,192,62744,1,0,0:0:0:0:
252,192,62819,1,8,0:0:0:0:
252,192,62969,1,0,0:0:0:0:
252,192,63119,1,8,0:0:0:0:
252,192,63269,1,8,0:0:0:0:
252,192,63419,1,0,0:0:0:0:
252,192,63569,1,8,0:0:0:0:
252,192,63619,1,8,0:0:0:0:
252,192,63669,1,8,0:0:0:0:
252,192,63719,1,0,0:0:0:0:
252,192,63869,1,0,0:0:0:0:
252,192,63944,1,0,0:0:0:0:
252,192,64019,1,8,0:0:0:0:
252,192,64094,1,0,0:0:0:0:
252,192,64169,1,8,0:0:0:0:
252,192,64244,1,8,0:0:0:0:
252,192,64319,1,0,0:0:0:0:
252,192,64469,1,8,0:0:0:0:
252,192,64506,1,8,0:0:0:0:
252,192,64619,1,0,0:0:0:0:
252,192,64769,1,8,0:0:0:0:
252,192,64806,1,8,0:0:0:0:
252,192,64919,1,0,0:0:0:0:
252,192,65069,1,8,0:0:0:0:
252,192,65144,1,8,0:0:0:0:
252,192,65219,1,0,0:0:0:0:
252,192,65294,1,0,0:0:0:0:
252,192,65369,1,8,0:0:0:0:
252,192,65519,1,0,0:0:0:0:
252,192,65594,1,0,0:0:0:0:
252,192,65669,1,8,0:0:0:0:
252,192,65819,1,0,0:0:0:0:
252,192,65919,1,8,0:0:0:0:
252,192,66019,1,8,0:0:0:0:
252,192,66119,1,0,0:0:0:0:
252,192,66219,1,8,0:0:0:0:
252,192,66319,1,8,0:0:0:0:
252,192,66419,1,0,0:0:0:0:
252,192,66519,1,8,0:0:0:0:
252,192,66619,1,8,0:0:0:0:
252,192,66719,1,0,0:0:0:0:
252,192,66819,1,8,0:0:0:0:
252,192,66919,1,8,0:0:0:0:
252,192,67019,1,0,0:0:0:0:
252,192,67069,1,8,0:0:0:0:
252,192,67119,1,8,0:0:0:0:
252,192,67169,1,0,0:0:0:0:
252,192,67319,1,8,0:0:0:0:
252,192,67394,1,0,0:0:0:0:
252,192,67469,1,8,0:0:0:0:
252,192,67544,1,8,0:0:0:0:
252,192,67619,1,0,0:0:0:0:
252,192,67669,1,0,0:0:0:0:
252,192,67719,1,0,0:0:0:0:
252,192,67769,1,0,0:0:0:0:
252,192,67919,1,8,0:0:0:0:
252,192,67956,1,8,0:0:0:0:
252,192,68069,1,8,0:0:0:0:
252,192,68106,1,8,0:0:0:0:
252,192,68219,1,4,0:0:0:0:
252,192,68369,1,8,0:0:0:0:
252,192,68406,1,8,0:0:0:0:
252,192,68519,1,0,0:0:0:0:
252,192,68556,1,0,0:0:0:0:
252,192,68669,1,0,0:0:0:0:
252,192,68706,1,0,0:0:0:0:
252,192,68819,1,8,0:0:0:0:
252,192,68856,1,8,0:0:0:0:
252,192,68969,1,8,0:0:0:0:
252,192,69006,1,8,0:0:0:0:
252,192,69119,1,0,0:0:0:0:
252,192,69156,1,0,0:0:0:0:
252,192,69269,1,8,0:0:0:0:
252,192,69306,1,8,0:0:0:0:
252,192,69419,1,0,0:0:0:0:
252,192,69469,1,8,0:0:0:0:
252,192,69519,1,8,0:0:0:0:
252,192,69569,1,0,0:0:0:0:
252,192,69719,1,8,0:0:0:0:
252,192,69794,1,8,0:0:0:0:
252,192,69869,1,8,0:0:0:0:
252,192,69944,1,8,0:0:0:0:
252,192,70019,1,0,0:0:0:0:
252,192,70169,1,0,0:0:0:0:
252,192,70244,1,0,0:0:0:0:
252,192,70319,1,8,0:0:0:0:
252,192,70394,1,0,0:0:0:0:
252,192,70469,1,8,0:0:0:0:
252,192,70619,1,0,0:0:0:0:
252,192,70669,1,0,0:0:0:0:
252,192,70719,1,0,0:0:0:0:
252,192,70769,1,8,0:0:0:0:
252,192,70919,1,0,0:0:0:0:
252,192,70956,1,0,0:0:0:0:
252,192,71069,1,8,0:0:0:0:
252,192,71106,1,8,0:0:0:0:
252,192,71219,1,0,0:0:0:0:
252,192,71319,1,8,0:0:0:0:
252,192,71419,1,8,0:0:0:0:
252,192,71519,1,0,0:0:0:0:
252,192,71619,1,8,0:0:0:0:
252,192,71719,1,8,0:0:0:0:
252,192,71819,1,0,0:0:0:0:
252,192,71856,1,0,0:0:0:0:
252,192,71968,1,8,0:0:0:0:
252,192,72006,1,8,0:0:0:0:
252,192,72119,1,8,0:0:0:0:
252,192,72169,1,0,0:0:0:0:
252,192,72219,1,0,0:0:0:0:
252,192,72269,1,8,0:0:0:0:
252,192,72419,1,0,0:0:0:0:
252,192,72456,1,0,0:0:0:0:
252,192,72569,1,8,0:0:0:0:
252,192,72606,1,8,0:0:0:0:
252,192,72719,1,0,0:0:0:0:
252,192,72756,1,0,0:0:0:0:
252,192,72869,1,8,0:0:0:0:
252,192,72906,1,8,0:0:0:0:
252,192,73019,1,4,0:0:0:0:
252,192,73169,1,8,0:0:0:0:
252,192,73244,1,8,0:0:0:0:
252,192,73319,1,0,0:0:0:0:
252,192,73394,1,0,0:0:0:0:
252,192,73469,1,8,0:0:0:0:
252,192,73544,1,0,0:0:0:0:
252,192,73619,1,8,0:0:0:0:
252,192,73769,1,0,0:0:0:0:
252,192,73844,1,0,0:0:0:0:
252,192,73919,1,8,0:0:0:0:
252,192,73994,1,8,0:0:0:0:
252,192,74069,1,0,0:0:0:0:
252,192,74219,1,8,0:0:0:0:
252,192,74369,1,0,0:0:0:0:
252,192,74444,1,0,0:0:0:0:
252,192,74519,1,8,0:0:0:0:
252,192,74594,1,0,0:0:0:0:
252,192,74669,1,8,0:0:0:0:
252,192,74744,1,8,0:0:0:0:
252,192,74819,1,0,0:0:0:0:
252,192,74969,1,8,0:0:0:0:
252,192,75044,1,8,0:0:0:0:
252,192,75119,1,0,0:0:0:0:
252,192,75269,1,8,0:0:0:0:
252,192,75419,1,4,0:0:0:0:
252,192,75569,1,8,0:0:0:0:
252,192,75644,1,8,0:0:0:0:
252,192,75719,1,0,0:0:0:0:
252,192,75794,1,0,0:0:0:0:
252,192,75869,1,0,0:0:0:0:
252,192,75944,1,0,0:0:0:0:
252,192,76019,1,8,0:0:0:0:
252,192,76094,1,0,0:0:0:0:
252,192,76169,1,8,0:0:0:0:
252,192,76244,1,8,0:0:0:0:
252,192,76319,1,0,0:0:0:0:
252,192,76469,1,8,0:0:0:0:
252,192,76619,1,0,0:0:0:0:
252,192,76769,1,8,0:0:0:0:
252,192,76844,1,0,0:0:0:0:
252,192,76994,1,8,0:0:0:0:
252,192,77069,1,0,0:0:0:0:
252,192,77219,1,8,0:0:0:0:
252,192,77294,1,8,0:0:0:0:
252,192,77369,1,0,0:0:0:0:
252,192,77444,1,0,0:0:0:0:
252,192,77519,1,8,0:0:0:0:
252,192,77669,1,0,0:0:0:0:
252,192,77819,1,0,0:0:0:0:
252,192,77869,1,8,0:0:0:0:
252,192,77919,1,8,0:0:0:0:
252,192,77969,1,0,0:0:0:0:
252,192,78119,1,8,0:0:0:0:
252,192,78219,1,0,0:0:0:0:
252,192,78319,1,0,0:0:0:0:
252,192,78419,1,8,0:0:0:0:
252,192,78569,1,0,0:0:0:0:
252,192,78719,1,8,0:0:0:0:
252,192,78756,1,8,0:0:0:0:
252,192,78869,1,8,0:0:0:0:
252,192,78906,1,8,0:0:0:0:
252,192,79019,1,0,0:0:0:0:
252,192,79094,1,0,0:0:0:0:
252,192,79169,1,8,0:0:0:0:
252,192,79244,1,0,0:0:0:0:
252,192,79319,1,8,0:0:0:0:
252,192,79394,1,8,0:0:0:0:
252,192,79469,1,0,0:0:0:0:
252,192,79619,1,8,0:0:0:0:
252,192,79694,1,8,0:0:0:0:
252,192,79769,1,8,0:0:0:0:
252,192,79844,1,8,0:0:0:0:
252,192,79919,1,0,0:0:0:0:
252,192,80069,1,8,0:0:0:0:
252,192,80106,1,8,0:0:0:0:
252,192,80219,1,4,0:0:0:0:
252,192,80444,1,8,0:0:0:0:
252,192,80519,1,0,0:0:0:0:
252,192,80669,1,8,0:0:0:0:
252,192,80744,1,8,0:0:0:0:
252,192,80819,1,0,0:0:0:0:
252,192,80894,1,0,0:0:0:0:
252,192,80969,1,8,0:0:0:0:
252,192,81044,1,0,0:0:0:0:
252,192,81119,1,8,0:0:0:0:
252,192,81269,1,0,0:0:0:0:
252,192,81344,1,0,0:0:0:0:
252,192,81419,1,8,0:0:0:0:
252,192,81569,1,0,0:0:0:0:
252,192,81719,1,8,0:0:0:0:
252,192,81794,1,8,0:0:0:0:
252,192,81869,1,0,0:0:0:0:
252,192,81944,1,8,0:0:0:0:
252,192,82019,1,0,0:0:0:0:
252,192,82094,1,0,0:0:0:0:
252,192,82169,1,8,0:0:0:0:
252,192,82319,1,0,0:0:0:0:
252,192,82394,1,0,0:0:0:0:
252,192,82469,1,8,0:0:0:0:
252,192,82619,1,4,0:0:0:0:
252,192,82769,1,8,0:0:0:0:
252,192,82819,1,0,0:0:0:0:
252,192,82869,1,0,0:0:0:0:
252,192,82919,1,8,0:0:0:0:
252,192,82994,1,8,0:0:0:0:
252,192,83069,1,0,0:0:0:0:
252,192,83144,1,0,0:0:0:0:
252,192,83219,1,8,0:0:0:0:
252,192,83369,1,8,0:0:0:0:
252,192,83519,1,0,0:0:0:0:
252,192,83556,1,0,0:0:0:0:
252,192,83669,1,8,0:0:0:0:
252,192,83706,1,8,0:0:0:0:
252,192,83819,1,0,0:0:0:0:
252,192,83969,1,8,0:0:0:0:
252,192,84006,1,8,0:0:0:0:
252,192,84119,1,0,0:0:0:0:
252,192,84194,1,0,0:0:0:0:
252,192,84269,1,0,0:0:0:0:
252,192,84344,1,0,0:0:0:0:
252,192,84419,1,8,0:0:0:0:
252,192,84569,1,0,0:0:0:0:
252,192,84644,1,0,0:0:0:0:
252,192,84719,1,8,0:0:0:0:
252,192,84794,1,8,0:0:0:0:
252,192,84869,1,0,0:0:0:0:
252,192,84944,1,0,0:0:0:0:
252,192,85019,1,0,0:0:0:0:
252,192,85069,1,8,0:0:0:0:
252,192,85119,1,8,0:0:0:0:
252,192,85169,1,0,0:0:0:0:
252,192,85319,1,0,0:0:0:0:
252,192,85419,1,0,0:0:0:0:
252,192,85519,1,0,0:0:0:0:
252,192,85619,1,8,0:0:0:0:
252,192,85669,1,8,0:0:0:0:
252,192,85719,1,8,0:0:0:0:
252,192,85769,1,8,0:0:0:0:
252,192,85919,1,0,0:0:0:0:
252,192,85956,1,0,0:0:0:0:
252,192,86069,1,0,0:0:0:0:
252,192,86106,1,0,0:0:0:0:
252,192,86219,1,8,0:0:0:0:
252,192,86256,1,8,0:0:0:0:
252,192,86369,1,0,0:0:0:0:
252,192,86406,1,0,0:0:0:0:
252,192,86519,1,8,0:0:0:0:
252,192,86569,1,0,0:0:0:0:
252,192,86619,1,0,0:0:0:0:
252,192,86669,1,8,0:0:0:0:
252,192,86819,1,0,0:0:0:0:
252,192,86856,1,0,0:0:0:0:
252,192,86969,1,8,0:0:0:0:
252,192,87006,1,8,0:0:0:0:
252,192,87119,1,0,0:0:0:0:
252,192,87156,1,0,0:0:0:0:
252,192,87269,1,8,0:0:0:0:
252,192,87306,1,8,0:0:0:0:
252,192,87419,1,4,0:0:0:0:
252,192,87644,1,8,0:0:0:0:
252,192,87719,1,0,0:0:0:0:
252,192,87869,1,8,0:0:0:0:
252,192,88019,1,0,0:0:0:0:
252,192,88094,1,0,0:0:0:0:
252,192,88169,1,0,0:0:0:0:
252,192,88319,1,8,0:0:0:0:
252,192,88469,1,8,0:0:0:0:
252,192,88619,1,0,0:0:0:0:
252,192,88694,1,0,0:0:0:0:
252,192,88769,1,0,0:0:0:0:
252,192,88919,1,8,0:0:0:0:
252,192,89069,1,0,0:0:0:0:
252,192,89144,1,0,0:0:0:0:
252,192,89219,1,8,0:0:0:0:
252,192,89369,1,8,0:0:0:0:
252,192,89519,1,0,0:0:0:0:
252,192,89594,1,0,0:0:0:0:
252,192,89669,1,8,0:0:0:0:
252,192,89819,1,0,0:0:0:0:
252,192,89894,1,0,0:0:0:0:
252,192,89969,1,8,0:0:0:0:
252,192,90044,1,0,0:0:0:0:
252,192,90194,1,8,0:0:0:0:
252,192,90269,1,0,0:0:0:0:
252,192,90419,1,8,0:0:0:0:
252,192,90569,1,0,0:0:0:0:
252,192,90644,1,0,0:0:0:0:
252,192,90719,1,8,0:0:0:0:
252,192,90869,1,8,0:0:0:0:
252,192,91019,1,0,0:0:0:0:
252,192,91169,1,8,0:0:0:0:
252,192,91319,1,0,0:0:0:0:
252,192,91394,1,0,0:0:0:0:
252,192,91469,1,8,0:0:0:0:
252,192,91544,1,0,0:0:0:0:
252,192,91619,1,8,0:0:0:0:
252,192,91694,1,8,0:0:0:0:
252,192,91769,1,0,0:0:0:0:
252,192,91919,1,8,0:0:0:0:
252,192,92069,1,0,0:0:0:0:
252,192,92144,1,0,0:0:0:0:
252,192,92219,1,0,0:0:0:0:
252,192,92369,1,8,0:0:0:0:
252,192,92519,1,0,0:0:0:0:
252,192,92669,1,8,0:0:0:0:
252,192,92744,1,8,0:0:0:0:
252,192,92819,1,0,0:0:0:0:
252,192,92969,1,8,0:0:0:0:
252,192,93119,1,0,0:0:0:0:
252,192,93194,1,0,0:0:0:0:
252,192,93269,1,0,0:0:0:0:
252,192,93419,1,0,0:0:0:0:
252,192,93569,1,8,0:0:0:0:
252,192,93719,1,0,0:0:0:0:
252,192,93794,1,0,0:0:0:0:
252,192,93869,1,8,0:0:0:0:
252,192,93944,1,0,0:0:0:0:
252,192,94019,1,8,0:0:0:0:
252,192,94169,1,0,0:0:0:0:
252,192,94319,1,8,0:0:0:0:
252,192,94394,1,8,0:0:0:0:
252,192,94469,1,0,0:0:0:0:
252,192,94619,1,8,0:0:0:0:
252,192,94769,1,0,0:0:0:0:
252,192,94844,1,8,0:0:0:0:
252,192,94919,1,0,0:0:0:0:
252,192,95069,1,0,0:0:0:0:
252,192,95144,1,0,0:0:0:0:
252,192,95219,1,8,0:0:0:0:
252,192,95369,1,0,0:0:0:0:
252,192,95519,1,8,0:0:0:0:
252,192,95669,1,8,0:0:0:0:
252,192,95819,1,0,0:0:0:0:
252,192,95894,1,0,0:0:0:0:
252,192,95969,1,0,0:0:0:0:
252,192,96119,1,8,0:0:0:0:
252,192,96194,1,8,0:0:0:0:
252,192,96269,1,0,0:0:0:0:
252,192,96344,1,0,0:0:0:0:
252,192,96419,1,8,0:0:0:0:
252,192,96569,1,0,0:0:0:0:
252,192,96719,1,8,0:0:0:0:
252,192,96869,1,8,0:0:0:0:
252,192,97019,1,4,0:0:0:0:
252,192,97244,1,8,0:0:0:0:
252,192,97319,1,0,0:0:0:0:
252,192,97469,1,8,0:0:0:0:
252,192,97544,1,8,0:0:0:0:
252,192,97619,1,0,0:0:0:0:
252,192,97694,1,0,0:0:0:0:
252,192,97769,1,8,0:0:0:0:
252,192,97844,1,0,0:0:0:0:
252,192,97919,1,8,0:0:0:0:
252,192,97994,1,8,0:0:0:0:
252,192,98069,1,0,0:0:0:0:
252,192,98219,1,8,0:0:0:0:
252,192,98369,1,0,0:0:0:0:
252,192,98444,1,0,0:0:0:0:
252,192,98519,1,8,0:0:0:0:
252,192,98594,1,0,0:0:0:0:
252,192,98669,1,8,0:0:0:0:
252,192,98819,1,0,0:0:0:0:
252,192,98894,1,0,0:0:0:0:
252,192,98969,1,0,0:0:0:0:
252,192,99119,1,8,0:0:0:0:
252,192,99269,1,8,0:0:0:0:
252,192,99419,1,0,0:0:0:0:
252,192,99494,1,0,0:0:0:0:
252,192,99569,1,8,0:0:0:0:
252,192,99644,1,0,0:0:0:0:
252,192,99719,1,8,0:0:0:0:
252,192,99794,1,8,0:0:0:0:
252,192,99869,1,0,0:0:0:0:
252,192,99944,1,0,0:0:0:0:
252,192,100019,1,8,0:0:0:0:
252,192,100094,1,8,0:0:0:0:
252,192,100169,1,0,0:0:0:0:
252,192,100244,1,0,0:0:0:0:
252,192,100319,1,8,0:0:0:0:
252,192,100394,1,0,0:0:0:0:
252,192,100469,1,8,0:0:0:0:
252,192,100619,1,0,0:0:0:0:
252,192,100769,1,8,0:0:0:0:
252,192,100844,1,8,0:0:0:0:
252,192,100919,1,0,0:0:0:0:
252,192,100994,1,0,0:0:0:0:
252,192,101069,1,0,0:0:0:0:
252,192,101219,1,8,0:0:0:0:
252,192,101294,1,8,0:0:0:0:
252,192,101369,1,0,0:0:0:0:
252,192,101444,1,0,0:0:0:0:
252,192,101519,1,8,0:0:0:0:
252,192,101669,1,0,0:0:0:0:
252,192,101819,1,8,0:0:0:0:
252,192,101894,1,8,0:0:0:0:
252,192,101969,1,0,0:0:0:0:
252,192,102044,1,0,0:0:0:0:
252,192,102119,1,8,0:0:0:0:
252,192,102194,1,0,0:0:0:0:
252,192,102269,1,8,0:0:0:0:
252,192,102344,1,8,0:0:0:0:
252,192,102419,1,0,0:0:0:0:
252,192,102494,1,0,0:0:0:0:
252,192,102569,1,8,0:0:0:0:
252,192,102644,1,0,0:0:0:0:
252,192,102719,1,8,0:0:0:0:
252,192,102869,1,0,0:0:0:0:
252,192,103019,1,8,0:0:0:0:
252,192,103094,1,8,0:0:0:0:
252,192,103169,1,0,0:0:0:0:
252,192,103244,1,0,0:0:0:0:
252,192,103319,1,8,0:0:0:0:
252,192,103394,1,8,0:0:0:0:
252,192,103469,1,0,0:0:0:0:
252,192,103544,1,0,0:0:0:0:
252,192,103619,1,8,0:0:0:0:
252,192,103694,1,0,0:0:0:0:
252,192,103769,1,8,0:0:0:0:
252,192,103844,1,8,0:0:0:0:
252,192,103919,1,0,0:0:0:0:
252,192,104069,1,0,0:0:0:0:
252,192,104144,1,0,0:0:0:0:
252,192,104219,1,8,0:0:0:0:
252,192,104294,1,8,0:0:0:0:
252,192,104369,1,0,0:0:0:0:
252,192,104444,1,0,0:0:0:0:
252,192,104519,1,8,0:0:0:0:
252,192,104594,1,8,0:0:0:0:
252,192,104669,1,0,0:0:0:0:
252,192,104744,1,8,0:0:0:0:
252,192,104819,1,0,0:0:0:0:
252,192,104894,1,0,0:0:0:0:
252,192,104969,1,8,0:0:0:0:
252,192,105119,1,8,0:0:0:0:
252,192,105194,1,8,0:0:0:0:
252,192,105269,1,0,0:0:0:0:
252,192,105344,1,8,0:0:0:0:
252,192,105419,1,0,0:0:0:0:
252,192,105494,1,0,0:0:0:0:
252,192,105569,1,0,0:0:0:0:
252,192,105644,1,0,0:0:0:0:
252,192,105719,1,8,0:0:0:0:
252,192,105794,1,0,0:0:0:0:
252,192,105869,1,8,0:0:0:0:
252,192,105944,1,8,0:0:0:0:
252,192,106019,1,0,0:0:0:0:
252,192,106169,1,8,0:0:0:0:
252,192,106244,1,8,0:0:0:0:
252,192,106319,1,0,0:0:0:0:
252,192,106394,1,0,0:0:0:0:
252,192,106469,1,8,0:0:0:0:
252,192,106619,1,4,0:0:0:0:
252,192,106844,1,8,0:0:0:0:
252,192,106919,1,0,0:0:0:0:
252,192,107069,1,8,0:0:0:0:
252,192,107144,1,8,0:0:0:0:
252,192,107219,1,0,0:0:0:0:
252,192,107294,1,0,0:0:0:0:
252,192,107369,1,8,0:0:0:0:
252,192,107519,1,0,0:0:0:0:
252,192,107594,1,0,0:0:0:0:
252,192,107669,1,8,0:0:0:0:
252,192,107819,1,0,0:0:0:0:
252,192,107969,1,8,0:0:0:0:
252,192,108044,1,8,0:0:0:0:
252,192,108119,1,0,0:0:0:0:
252,192,108194,1,0,0:0:0:0:
252,192,108269,1,8,0:0:0:0:
252,192,108344,1,0,0:0:0:0:
252,192,108419,1,8,0:0:0:0:
252,192,108569,1,0,0:0:0:0:
252,192,108644,1,8,0:0:0:0:
252,192,108719,1,0,0:0:0:0:
252,192,108794,1,0,0:0:0:0:
252,192,108869,1,8,0:0:0:0:
252,192,109019,1,8,0:0:0:0:
252,192,109094,1,8,0:0:0:0:
252,192,109169,1,0,0:0:0:0:
252,192,109244,1,0,0:0:0:0:
252,192,109319,1,8,0:0:0:0:
252,192,109469,1,0,0:0:0:0:
252,192,109544,1,0,0:0:0:0:
252,192,109619,1,8,0:0:0:0:
252,192,109769,1,0,0:0:0:0:
252,192,109919,1,8,0:0:0:0:
252,192,109994,1,0,0:0:0:0:
252,192,110069,1,8,0:0:0:0:
252,192,110144,1,8,0:0:0:0:
252,192,110219,1,0,0:0:0:0:
252,192,110369,1,8,0:0:0:0:
252,192,110519,1,0,0:0:0:0:
252,192,110594,1,0,0:0:0:0:
252,192,110669,1,8,0:0:0:0:
252,192,110744,1,8,0:0:0:0:
252,192,110819,1,0,0:0:0:0:
252,192,110894,1,8,0:0:0:0:
252,192,110969,1,0,0:0:0:0:
252,192,111119,1,8,0:0:0:0:
252,192,111269,1,0,0:0:0:0:
252,192,111419,1,8,0:0:0:0:
252,192,111494,1,8,0:0:0:0:
252,192,111569,1,0,0:0:0:0:
252,192,111644,1,8,0:0:0:0:
252,192,111719,1,0,0:0:0:0:
252,192,111794,1,0,0:0:0:0:
252,192,111869,1,8,0:0:0:0:
252,192,112019,1,0,0:0:0:0:
252,192,112094,1,8,0:0:0:0:
252,192,112169,1,0,0:0:0:0:
252,192,112244,1,0,0:0:0:0:
252,192,112319,1,8,0:0:0:0:
252,192,112469,1,8,0:0:0:0:
252,192,112544,1,0,0:0:0:0:
252,192,112619,1,0,0:0:0:0:
252,192,112769,1,8,0:0:0:0:
252,192,112844,1,8,0:0:0:0:
252,192,112919,1,0,0:0:0:0:
252,192,112994,1,8,0:0:0:0:
252,192,113069,1,0,0:0:0:0:
252,192,113219,1,8,0:0:0:0:
252,192,113369,1,0,0:0:0:0:
252,192,113444,1,0,0:0:0:0:
252,192,113519,1,8,0:0:0:0:
252,192,113594,1,0,0:0:0:0:
252,192,113669,1,8,0:0:0:0:
252,192,113819,1,4,0:0:0:0:
252,192,114044,1,8,0:0:0:0:
252,192,114119,1,0,0:0:0:0:
252,192,114269,1,8,0:0:0:0:
252,192,114344,1,8,0:0:0:0:
252,192,114419,1,0,0:0:0:0:
252,192,114494,1,0,0:0:0:0:
252,192,114569,1,8,0:0:0:0:
252,192,114719,1,0,0:0:0:0:
252,192,114794,1,0,0:0:0:0:
252,192,114869,1,8,0:0:0:0:
252,192,115019,1,8,0:0:0:0:
252,192,115094,1,0,0:0:0:0:
252,192,115169,1,0,0:0:0:0:
252,192,115244,1,0,0:0:0:0:
252,192,115319,1,8,0:0:0:0:
252,192,115394,1,8,0:0:0:0:
252,192,115469,1,0,0:0:0:0:
252,192,115544,1,0,0:0:0:0:
252,192,115619,1,8,0:0:0:0:
252,192,115694,1,0,0:0:0:0:
252,192,115769,1,8,0:0:0:0:
252,192,115844,1,8,0:0:0:0:
252,192,115919,1,0,0:0:0:0:
252,192,115994,1,0,0:0:0:0:
252,192,116069,1,8,0:0:0:0:
252,192,116219,5,4,0:0:0:0:
