osu file format v14

[General]
AudioFilename: audio.mp3
AudioLeadIn: 0
PreviewTime: 52579
Countdown: 0
SampleSet: Normal
StackLeniency: 0.2
Mode: 1
LetterboxInBreaks: 0
WidescreenStoryboard: 0

[Editor]
DistanceSpacing: 0.7
BeatDivisor: 3
GridSize: 32
TimelineZoom: 3.1

[Metadata]
Title:Dopamine
TitleUnicode:ドーパミン
Artist:U1 overground
ArtistUnicode:U1 overground
Creator:Genjuro
Version:Oni
Source:jubeat saucer fulfill
Tags:rhythm video game electronic instrumental dubstep u1-asami 浅見祐一 yuichi asami dancedancerevolution 2014 sound voltex gravity wars plus
BeatmapID:2297395
BeatmapSetID:1099728

[Difficulty]
HPDrainRate:5
CircleSize:2
OverallDifficulty:5
ApproachRate:10
SliderMultiplier:1.4
SliderTickRate:1

[Events]
//Background and Video events
0,0,"bg.jpg",0,-10
//Break Periods
//Storyboard Layer 0 (Background)
//Storyboard Layer 1 (Fail)
//Storyboard Layer 2 (Pass)
//Storyboard Layer 3 (Foreground)
//Storyboard Layer 4 (Overlay)
//Storyboard Sound Samples

[TimingPoints]
942,300,4,1,0,100,1,0
1242,-101.693398471345,4,1,0,100,0,0
1392,-102.561788349391,4,1,0,100,0,0
1842,-105.258393567449,4,1,0,100,0,0
2142,-107.136237653888,4,1,0,100,0,0
2292,-108.100511855924,4,1,0,100,0,0
2742,-111.100371408542,4,1,0,100,0,0
3042,-113.194519121384,4,1,0,100,0,0
3342,-115.369262398158,4,1,0,100,0,0
3792,-118.792498016165,4,1,0,100,0,0
4242,-122.42509420611,4,1,0,100,0,0
4542,-124.972974594244,4,1,0,100,0,0
4692,-126.287022619269,4,1,0,100,0,0
5142,-130.40036825064,4,1,0,100,0,0
5442,-133.294766714164,4,1,0,100,0,0
5742,-136.320571455836,4,1,0,100,0,0
6192,-141.126130067487,4,1,0,100,0,0
6642,-146.282664919076,4,1,0,100,0,0
6942,-149.934928241143,4,1,0,100,0,0
7092,-151.830314440581,4,1,0,100,0,0
7542,-157.815579869676,4,1,0,100,0,0
7842,-162.074816977013,4,1,0,100,0,0
8142,-166.666666666667,4,1,0,100,0,0
8592,-154.618532886589,4,1,0,100,0,0
9042,-144.194859164881,4,1,0,100,0,0
9342,-137.992893365992,4,1,0,100,0,0
9492,-135.087671899062,4,1,0,100,0,0
9792,-129.629557613209,4,1,0,100,0,0
9942,-127.062704173883,4,1,0,100,0,0
10242,-122.222195061734,4,1,0,100,0,0
10542,-100.104008064379,4,1,0,100,0,0
19042,-101.513258139079,4,1,0,100,0,0
19142,-103.073018988112,4,1,0,100,0,0
19242,-104.681349970689,4,1,0,100,0,0
19342,-106.34078179616,4,1,0,100,0,0
19542,-109.822647406703,4,1,0,100,0,0
19642,-111.650507116603,4,1,0,100,0,0
19742,-113.540241500094,4,1,0,100,0,0
19842,-115.494913026556,4,1,0,100,0,0
19942,-117.518203569733,4,1,0,100,0,0
20142,-90.9090909090909,4,1,0,100,0,0
20442,-100,4,1,0,100,0,0
24942,-90.9090909090909,4,1,0,100,0,0
25242,-100,4,1,0,100,0,0
29742,-90.9090909090909,4,1,0,100,0,0
30042,-100,4,1,0,100,0,0
34542,-90.9090909090909,4,1,0,100,0,0
34842,-100,4,1,0,100,0,0
39342,-90.9090909090909,4,1,0,100,0,0
39642,-95.2263053145801,4,1,0,100,0,0
39942,-99.9740067582429,4,1,0,100,0,0
40242,-105.219962331253,4,1,0,100,0,0
40542,-111.047073965125,4,1,0,100,0,0
40692,-114.285714285714,4,1,0,100,0,0
40842,-117.557300367131,4,1,0,100,0,0
41142,-124.878399658333,4,1,0,100,0,0
41442,-133.171928955439,4,1,0,100,0,0
41742,-142.857142857143,4,1,0,100,0,0
41892,-139.139920495449,4,1,0,100,0,0
42042,-135.61105664067,4,1,0,100,0,0
42117,-133.913087727803,4,1,0,100,0,0
42192,-132.256938198978,4,1,0,100,0,0
42342,-129.064732416544,4,1,0,100,0,0
42492,-126.022991634594,4,1,0,100,0,0
42642,-123.121170931584,4,1,0,100,0,0
42792,-120.3501225766,4,1,0,100,0,0
42942,-117.701062840597,4,1,0,100,0,0
43092,-115.16597720635,4,1,0,100,0,0
43167,-113.939079053212,4,1,0,100,0,0
43242,-112.737919286414,4,1,0,100,0,0
43392,-110.410129466918,4,1,0,100,0,0
43467,-109.281854294504,4,1,0,100,0,0
43542,-108.176405427859,4,1,0,100,0,0
43692,-106.03138316879,4,1,0,100,0,0
43767,-104.990403877086,4,1,0,100,0,0
43842,-103.96977390733,4,1,0,100,0,0
43917,-102.968690310337,4,1,0,100,0,0
43992,-101.986804947176,4,1,0,100,0,0
44142,-100.07796073141,4,1,0,100,0,0
53742,-125,4,1,0,100,0,1
63342,-100,4,1,0,100,0,0
75042,-111.111111111111,4,1,0,100,0,0
75342,-125,4,1,0,100,0,1
80142,-100,4,1,0,100,0,0
81342,-100,4,1,0,100,0,0
81492,-102.550429173546,4,1,0,100,0,0
81567,-103.875166979331,4,1,0,100,0,0
81642,-105.23446765566,4,1,0,100,0,0
81792,-108.062663377239,4,1,0,100,0,0
81942,-111.047197279788,4,1,0,100,0,0
82092,-114.201140184184,4,1,0,100,0,0
82167,-115.846396945362,4,1,0,100,0,0
82242,-117.539613788337,4,1,0,100,0,0
82392,-121.079007684885,4,1,0,100,0,0
82542,-124.838334357008,4,1,0,100,0,1
86142,-125,4,1,0,100,0,0
87342,-111.175098556725,4,1,0,100,0,0
96942,-100,4,1,0,100,0,0

[HitObjects]
256,192,942,5,0,0:0:0:0:
256,192,1242,1,0,0:0:0:0:
256,192,1392,1,8,0:0:0:0:
256,192,1842,1,8,0:0:0:0:
256,192,2292,1,0,0:0:0:0:
256,192,2742,1,8,0:0:0:0:
256,192,3042,1,8,0:0:0:0:
256,192,3342,1,0,0:0:0:0:
256,192,3792,1,8,0:0:0:0:
256,192,4242,1,8,0:0:0:0:
256,192,4692,1,0,0:0:0:0:
256,192,5142,1,8,0:0:0:0:
256,192,5442,1,0,0:0:0:0:
256,192,5742,1,8,0:0:0:0:
256,192,6192,1,8,0:0:0:0:
256,192,6642,1,0,0:0:0:0:
256,192,7092,1,8,0:0:0:0:
256,192,7542,1,8,0:0:0:0:
256,192,7842,1,8,0:0:0:0:
256,192,8142,1,0,0:0:0:0:
256,192,8592,1,8,0:0:0:0:
256,192,9042,1,8,0:0:0:0:
256,192,9342,1,0,0:0:0:0:
256,192,9492,1,8,0:0:0:0:
256,192,9792,1,0,0:0:0:0:
256,192,9942,1,8,0:0:0:0:
256,192,10242,1,8,0:0:0:0:
256,192,10542,1,4,0:0:0:0:
256,192,10767,1,8,0:0:0:0:
256,192,10992,1,0,0:0:0:0:
256,192,11142,1,8,0:0:0:0:
256,192,11292,1,8,0:0:0:0:
256,192,11442,1,0,0:0:0:0:
256,192,11742,1,8,0:0:0:0:
256,192,11892,1,0,0:0:0:0:
256,192,11967,1,8,0:0:0:0:
256,192,12192,1,8,0:0:0:0:
256,192,12342,1,0,0:0:0:0:
256,192,12492,1,8,0:0:0:0:
256,192,12567,1,8,0:0:0:0:
256,192,12642,1,0,0:0:0:0:
256,192,12792,1,8,0:0:0:0:
256,192,12942,1,0,0:0:0:0:
256,192,13167,1,8,0:0:0:0:
256,192,13392,1,0,0:0:0:0:
256,192,13542,1,8,0:0:0:0:
256,192,13842,1,8,0:0:0:0:
256,192,14142,1,8,0:0:0:0:
256,192,14292,1,0,0:0:0:0:
256,192,14367,1,8,0:0:0:0:
256,192,14517,1,8,0:0:0:0:
256,192,14592,1,0,0:0:0:0:
256,192,14742,1,0,0:0:0:0:
256,192,14892,1,8,0:0:0:0:
256,192,14967,1,8,0:0:0:0:
256,192,15042,1,0,0:0:0:0:
256,192,15192,1,8,0:0:0:0:
256,192,15342,1,0,0:0:0:0:
256,192,15567,1,8,0:0:0:0:
256,192,15792,1,0,0:0:0:0:
256,192,15942,1,8,0:0:0:0:
256,192,16242,1,0,0:0:0:0:
256,192,16542,1,8,0:0:0:0:
256,192,16692,1,0,0:0:0:0:
256,192,16767,1,8,0:0:0:0:
256,192,16992,1,8,0:0:0:0:
256,192,17142,1,0,0:0:0:0:
256,192,17292,1,8,0:0:0:0:
256,192,17367,1,8,0:0:0:0:
256,192,17442,1,0,0:0:0:0:
256,192,17592,1,0,0:0:0:0:
256,192,17742,1,8,0:0:0:0:
256,192,17967,1,8,0:0:0:0:
256,192,18192,1,0,0:0:0:0:
256,192,18342,1,8,0:0:0:0:
256,192,18642,1,8,0:0:0:0:
256,192,18942,1,0,0:0:0:0:
256,192,19042,1,0,0:0:0:0:
256,192,19142,1,8,0:0:0:0:
256,192,19242,1,8,0:0:0:0:
256,192,19342,1,0,0:0:0:0:
256,192,19542,1,8,0:0:0:0:
256,192,19642,1,8,0:0:0:0:
256,192,19742,1,0,0:0:0:0:
256,192,19842,1,0,0:0:0:0:
256,192,19942,1,8,0:0:0:0:
256,192,20142,1,4,0:0:0:0:
256,192,20442,1,8,0:0:0:0:
256,192,20517,1,0,0:0:0:0:
256,192,20592,1,8,0:0:0:0:
256,192,20742,1,0,0:0:0:0:
256,192,20892,1,8,0:0:0:0:
256,192,21042,1,8,0:0:0:0:
256,192,21117,1,8,0:0:0:0:
256,192,21192,1,8,0:0:0:0:
256,192,21267,1,8,0:0:0:0:
256,192,21342,1,0,0:0:0:0:
256,192,21492,1,8,0:0:0:0:
256,192,21642,1,0,0:0:0:0:
256,192,21717,1,8,0:0:0:0:
256,192,21792,1,0,0:0:0:0:
256,192,21942,1,8,0:0:0:0:
256,192,22092,1,0,0:0:0:0:
256,192,22242,1,8,0:0:0:0:
256,192,22317,1,8,0:0:0:0:
256,192,22392,1,8,0:0:0:0:
256,192,22542,1,0,0:0:0:0:
256,192,22842,1,8,0:0:0:0:
256,192,22917,1,0,0:0:0:0:
256,192,22992,1,8,0:0:0:0:
256,192,23142,1,0,0:0:0:0:
256,192,23292,1,8,0:0:0:0:
256,192,23442,1,0,0:0:0:0:
256,192,23517,1,0,0:0:0:0:
256,192,23592,1,0,0:0:0:0:
256,192,23667,1,0,0:0:0:0:
256,192,23742,1,8,0:0:0:0:
256,192,23892,1,0,0:0:0:0:
256,192,24042,1,8,0:0:0:0:
256,192,24117,1,8,0:0:0:0:
256,192,24192,1,0,0:0:0:0:
256,192,24342,1,8,0:0:0:0:
256,192,24492,1,8,0:0:0:0:
256,192,24642,1,0,0:0:0:0:
256,192,24942,1,4,0:0:0:0:
256,192,25242,1,8,0:0:0:0:
256,192,25317,1,0,0:0:0:0:
256,192,25392,1,8,0:0:0:0:
256,192,25542,1,0,0:0:0:0:
256,192,25692,1,8,0:0:0:0:
256,192,25842,1,8,0:0:0:0:
256,192,25917,1,8,0:0:0:0:
256,192,25992,1,8,0:0:0:0:
256,192,26067,1,8,0:0:0:0:
256,192,26142,1,0,0:0:0:0:
256,192,26292,1,8,0:0:0:0:
256,192,26442,1,0,0:0:0:0:
256,192,26517,1,8,0:0:0:0:
256,192,26592,1,0,0:0:0:0:
256,192,26742,1,8,0:0:0:0:
256,192,26892,1,0,0:0:0:0:
256,192,27042,1,8,0:0:0:0:
256,192,27117,1,8,0:0:0:0:
256,192,27192,1,8,0:0:0:0:
256,192,27342,1,0,0:0:0:0:
256,192,27642,1,8,0:0:0:0:
256,192,27717,1,0,0:0:0:0:
256,192,27792,1,8,0:0:0:0:
256,192,27942,1,0,0:0:0:0:
256,192,28092,1,8,0:0:0:0:
256,192,28242,1,0,0:0:0:0:
256,192,28317,1,0,0:0:0:0:
256,192,28392,1,0,0:0:0:0:
256,192,28467,1,0,0:0:0:0:
256,192,28542,1,8,0:0:0:0:
256,192,28692,1,8,0:0:0:0:
256,192,28842,1,0,0:0:0:0:
256,192,28992,1,0,0:0:0:0:
256,192,29142,1,8,0:0:0:0:
256,192,29442,1,8,0:0:0:0:
256,192,29517,1,8,0:0:0:0:
256,192,29592,1,8,0:0:0:0:
256,192,29742,1,4,0:0:0:0:
256,192,30042,1,8,0:0:0:0:
256,192,30117,1,0,0:0:0:0:
256,192,30192,1,8,0:0:0:0:
256,192,30342,1,0,0:0:0:0:
256,192,30492,1,8,0:0:0:0:
256,192,30642,1,8,0:0:0:0:
256,192,30717,1,8,0:0:0:0:
256,192,30792,1,8,0:0:0:0:
256,192,30867,1,8,0:0:0:0:
256,192,30942,1,0,0:0:0:0:
256,192,31167,1,8,0:0:0:0:
256,192,31317,1,0,0:0:0:0:
256,192,31392,1,8,0:0:0:0:
256,192,31542,1,0,0:0:0:0:
256,192,31692,1,8,0:0:0:0:
256,192,31842,1,8,0:0:0:0:
256,192,31917,1,8,0:0:0:0:
256,192,31992,1,8,0:0:0:0:
256,192,32142,1,0,0:0:0:0:
256,192,32367,1,8,0:0:0:0:
256,192,32592,1,0,0:0:0:0:
256,192,32742,1,8,0:0:0:0:
256,192,32892,1,0,0:0:0:0:
256,192,33042,1,8,0:0:0:0:
256,192,33117,1,8,0:0:0:0:
256,192,33192,1,0,0:0:0:0:
256,192,33267,1,0,0:0:0:0:
256,192,33342,1,8,0:0:0:0:
256,192,33492,1,0,0:0:0:0:
256,192,33567,1,8,0:0:0:0:
256,192,33792,1,0,0:0:0:0:
256,192,33942,1,8,0:0:0:0:
256,192,34092,1,8,0:0:0:0:
256,192,34242,1,0,0:0:0:0:
256,192,34542,1,4,0:0:0:0:
256,192,34842,1,8,0:0:0:0:
256,192,34917,1,8,0:0:0:0:
256,192,34992,1,0,0:0:0:0:
256,192,35142,1,8,0:0:0:0:
256,192,35292,1,0,0:0:0:0:
256,192,35442,1,8,0:0:0:0:
256,192,35517,1,8,0:0:0:0:
256,192,35592,1,8,0:0:0:0:
256,192,35667,1,8,0:0:0:0:
256,192,35742,1,0,0:0:0:0:
256,192,35967,1,8,0:0:0:0:
256,192,36117,1,0,0:0:0:0:
256,192,36192,1,8,0:0:0:0:
256,192,36342,1,0,0:0:0:0:
256,192,36492,1,8,0:0:0:0:
256,192,36642,1,8,0:0:0:0:
256,192,36717,1,8,0:0:0:0:
256,192,36792,1,8,0:0:0:0:
256,192,36942,1,0,0:0:0:0:
256,192,37167,1,8,0:0:0:0:
256,192,37317,1,0,0:0:0:0:
256,192,37392,1,8,0:0:0:0:
256,192,37542,1,0,0:0:0:0:
256,192,37692,1,8,0:0:0:0:
256,192,37842,1,0,0:0:0:0:
256,192,37917,1,0,0:0:0:0:
256,192,37992,1,0,0:0:0:0:
256,192,38142,1,8,0:0:0:0:
256,192,38367,1,8,0:0:0:0:
256,192,38517,1,0,0:0:0:0:
256,192,38592,1,8,0:0:0:0:
256,192,38742,1,0,0:0:0:0:
256,192,38892,1,8,0:0:0:0:
256,192,38967,1,8,0:0:0:0:
256,192,39042,1,0,0:0:0:0:
256,192,39192,1,0,0:0:0:0:
256,192,39342,1,12,0:0:0:0:
256,192,39642,1,0,0:0:0:0:
256,192,39942,1,0,0:0:0:0:
256,192,40242,1,0,0:0:0:0:
256,192,40542,1,0,0:0:0:0:
256,192,40692,1,8,0:0:0:0:
256,192,40842,1,0,0:0:0:0:
256,192,41142,1,0,0:0:0:0:
256,192,41442,1,0,0:0:0:0:
256,192,41742,1,8,0:0:0:0:
256,192,41892,1,0,0:0:0:0:
256,192,42042,1,0,0:0:0:0:
256,192,42117,1,0,0:0:0:0:
256,192,42192,1,0,0:0:0:0:
256,192,42342,1,0,0:0:0:0:
256,192,42492,1,8,0:0:0:0:
256,192,42642,1,8,0:0:0:0:
256,192,42792,1,8,0:0:0:0:
256,192,42942,1,0,0:0:0:0:
256,192,43092,1,8,0:0:0:0:
256,192,43167,1,8,0:0:0:0:
256,192,43242,1,0,0:0:0:0:
256,192,43392,1,8,0:0:0:0:
256,192,43467,1,8,0:0:0:0:
256,192,43542,1,0,0:0:0:0:
256,192,43692,1,8,0:0:0:0:
256,192,43767,1,8,0:0:0:0:
256,192,43842,1,0,0:0:0:0:
256,192,43917,1,0,0:0:0:0:
256,192,43992,1,8,0:0:0:0:
256,192,44142,1,0,0:0:0:0:
256,192,44442,1,0,0:0:0:0:
256,192,44592,1,8,0:0:0:0:
256,192,44742,1,0,0:0:0:0:
256,192,44892,1,0,0:0:0:0:
256,192,45042,1,8,0:0:0:0:
256,192,45192,1,8,0:0:0:0:
256,192,45342,1,0,0:0:0:0:
256,192,45642,1,8,0:0:0:0:
256,192,45792,1,8,0:0:0:0:
256,192,45942,1,0,0:0:0:0:
256,192,46092,1,8,0:0:0:0:
256,192,46242,1,0,0:0:0:0:
256,192,46317,1,0,0:0:0:0:
256,192,46392,1,8,0:0:0:0:
256,192,46542,1,0,0:0:0:0:
256,192,46842,1,0,0:0:0:0:
256,192,46992,1,8,0:0:0:0:
256,192,47142,1,0,0:0:0:0:
256,192,47292,1,8,0:0:0:0:
256,192,47442,1,8,0:0:0:0:
256,192,47592,1,8,0:0:0:0:
256,192,47742,1,0,0:0:0:0:
256,192,48042,1,8,0:0:0:0:
256,192,48192,1,8,0:0:0:0:
256,192,48342,1,0,0:0:0:0:
256,192,48492,1,8,0:0:0:0:
256,192,48642,1,0,0:0:0:0:
256,192,48717,1,0,0:0:0:0:
256,192,48792,1,8,0:0:0:0:
256,192,48942,1,0,0:0:0:0:
256,192,49242,1,0,0:0:0:0:
256,192,49392,1,0,0:0:0:0:
256,192,49542,1,8,0:0:0:0:
256,192,49692,1,0,0:0:0:0:
256,192,49842,1,8,0:0:0:0:
256,192,49992,1,8,0:0:0:0:
256,192,50142,1,0,0:0:0:0:
256,192,50442,1,8,0:0:0:0:
256,192,50592,1,8,0:0:0:0:
256,192,50742,1,0,0:0:0:0:
256,192,50892,1,8,0:0:0:0:
256,192,51042,1,0,0:0:0:0:
256,192,51117,1,8,0:0:0:0:
256,192,51192,1,8,0:0:0:0:
256,192,51342,1,0,0:0:0:0:
256,192,51642,1,0,0:0:0:0:
256,192,51792,1,8,0:0:0:0:
256,192,51942,1,0,0:0:0:0:
256,192,52092,1,8,0:0:0:0:
256,192,52242,1,8,0:0:0:0:
256,192,52392,1,8,0:0:0:0:
256,192,53742,1,4,0:0:0:0:
256,192,53967,1,8,0:0:0:0:
256,192,54042,1,0,0:0:0:0:
256,192,54192,1,0,0:0:0:0:
256,192,54342,1,8,0:0:0:0:
256,192,54642,1,0,0:0:0:0:
256,192,54792,1,8,0:0:0:0:
256,192,54942,1,0,0:0:0:0:
256,192,55242,1,0,0:0:0:0:
256,192,55542,1,8,0:0:0:0:
256,192,55842,1,8,0:0:0:0:
256,192,55942,1,8,0:0:0:0:
256,192,56042,1,8,0:0:0:0:
256,192,56142,1,0,0:0:0:0:
256,192,56342,1,0,0:0:0:0:
256,192,56442,1,8,0:0:0:0:
256,192,56542,1,0,0:0:0:0:
256,192,56742,1,8,0:0:0:0:
256,192,56942,1,8,0:0:0:0:
256,192,57042,1,0,0:0:0:0:
256,192,57142,1,8,0:0:0:0:
256,192,57342,1,0,0:0:0:0:
256,192,57642,1,0,0:0:0:0:
256,192,57717,1,0,0:0:0:0:
256,192,57792,1,0,0:0:0:0:
256,192,57867,1,0,0:0:0:0:
256,192,57942,1,8,0:0:0:0:
256,192,58092,1,0,0:0:0:0:
256,192,58242,1,8,0:0:0:0:
256,192,58392,1,8,0:0:0:0:
256,192,58542,1,0,0:0:0:0:
256,192,58767,1,8,0:0:0:0:
256,192,58842,1,0,0:0:0:0:
256,192,58992,1,0,0:0:0:0:
256,192,59142,1,8,0:0:0:0:
256,192,59442,1,0,0:0:0:0:
256,192,59517,1,0,0:0:0:0:
256,192,59592,1,8,0:0:0:0:
256,192,59742,1,0,0:0:0:0:
256,192,60042,1,0,0:0:0:0:
256,192,60117,1,0,0:0:0:0:
256,192,60192,1,0,0:0:0:0:
256,192,60342,1,8,0:0:0:0:
256,192,60642,1,8,0:0:0:0:
256,192,60717,1,0,0:0:0:0:
256,192,60792,1,8,0:0:0:0:
256,192,60942,1,0,0:0:0:0:
256,192,61092,1,8,0:0:0:0:
256,192,61242,1,0,0:0:0:0:
256,192,61542,1,8,0:0:0:0:
256,192,61692,1,0,0:0:0:0:
256,192,61842,1,8,0:0:0:0:
256,192,62142,1,0,0:0:0:0:
256,192,62442,1,0,0:0:0:0:
256,192,62517,1,0,0:0:0:0:
256,192,62592,1,0,0:0:0:0:
256,192,62667,1,0,0:0:0:0:
256,192,62742,1,8,0:0:0:0:
256,192,62892,1,0,0:0:0:0:
256,192,63342,1,4,0:0:0:0:
256,192,63492,1,8,0:0:0:0:
256,192,63642,1,0,0:0:0:0:
256,192,63717,1,8,0:0:0:0:
256,192,63792,1,0,0:0:0:0:
256,192,63942,1,8,0:0:0:0:
256,192,64092,1,0,0:0:0:0:
256,192,64242,1,8,0:0:0:0:
256,192,64317,1,8,0:0:0:0:
256,192,64392,1,0,0:0:0:0:
256,192,64542,1,8,0:0:0:0:
256,192,64692,1,8,0:0:0:0:
256,192,64842,1,0,0:0:0:0:
256,192,64917,1,0,0:0:0:0:
256,192,64992,1,8,0:0:0:0:
256,192,65067,1,8,0:0:0:0:
256,192,65142,1,0,0:0:0:0:
256,192,65292,1,8,0:0:0:0:
256,192,65442,1,0,0:0:0:0:
256,192,65517,1,0,0:0:0:0:
256,192,65592,1,8,0:0:0:0:
256,192,65742,1,0,0:0:0:0:
256,192,65942,1,8,0:0:0:0:
256,192,66042,1,8,0:0:0:0:
256,192,66142,1,0,0:0:0:0:
256,192,66242,1,0,0:0:0:0:
256,192,66342,1,8,0:0:0:0:
256,192,66442,1,8,0:0:0:0:
256,192,66542,1,0,0:0:0:0:
256,192,66642,1,0,0:0:0:0:
256,192,66742,1,8,0:0:0:0:
256,192,66942,1,0,0:0:0:0:
256,192,67242,1,0,0:0:0:0:
256,192,67317,1,0,0:0:0:0:
256,192,67392,1,0,0:0:0:0:
256,192,67467,1,0,0:0:0:0:
256,192,67542,1,8,0:0:0:0:
256,192,67842,1,0,0:0:0:0:
256,192,67992,1,8,0:0:0:0:
256,192,68142,1,4,0:0:0:0:
256,192,68442,1,8,0:0:0:0:
256,192,68592,1,0,0:0:0:0:
256,192,68742,1,8,0:0:0:0:
256,192,68892,1,0,0:0:0:0:
256,192,69042,1,8,0:0:0:0:
256,192,69192,1,8,0:0:0:0:
256,192,69342,1,0,0:0:0:0:
256,192,69642,1,8,0:0:0:0:
256,192,69717,1,8,0:0:0:0:
256,192,69792,1,8,0:0:0:0:
256,192,69942,1,0,0:0:0:0:
256,192,70242,1,8,0:0:0:0:
256,192,70317,1,0,0:0:0:0:
256,192,70392,1,8,0:0:0:0:
256,192,70542,1,0,0:0:0:0:
256,192,70842,1,8,0:0:0:0:
256,192,70992,1,8,0:0:0:0:
256,192,71142,1,0,0:0:0:0:
256,192,71242,1,0,0:0:0:0:
256,192,71342,1,8,0:0:0:0:
256,192,71442,1,8,0:0:0:0:
256,192,71542,1,0,0:0:0:0:
256,192,71642,1,0,0:0:0:0:
256,192,71742,1,8,0:0:0:0:
256,192,71892,1,0,0:0:0:0:
256,192,72042,1,0,0:0:0:0:
256,192,72117,1,0,0:0:0:0:
256,192,72192,1,0,0:0:0:0:
256,192,72342,1,8,0:0:0:0:
256,192,72492,1,0,0:0:0:0:
256,192,72642,1,8,0:0:0:0:
256,192,72792,1,0,0:0:0:0:
256,192,72942,1,4,0:0:0:0:
256,192,73242,1,8,0:0:0:0:
256,192,73392,1,0,0:0:0:0:
256,192,73542,1,8,0:0:0:0:
256,192,73692,1,8,0:0:0:0:
256,192,73842,1,0,0:0:0:0:
256,192,74142,1,0,0:0:0:0:
256,192,74292,1,8,0:0:0:0:
256,192,74442,1,0,0:0:0:0:
256,192,74517,1,0,0:0:0:0:
256,192,74592,1,0,0:0:0:0:
256,192,74742,1,8,0:0:0:0:
256,192,75042,1,8,0:0:0:0:
256,192,75342,1,4,0:0:0:0:
256,192,75642,1,8,0:0:0:0:
256,192,75717,1,8,0:0:0:0:
256,192,75792,1,0,0:0:0:0:
256,192,75942,1,8,0:0:0:0:
256,192,76092,1,8,0:0:0:0:
256,192,76242,1,0,0:0:0:0:
256,192,76542,1,8,0:0:0:0:
256,192,76692,1,0,0:0:0:0:
256,192,76767,1,8,0:0:0:0:
256,192,76917,1,8,0:0:0:0:
256,192,76992,1,0,0:0:0:0:
256,192,77142,1,8,0:0:0:0:
256,192,77442,1,0,0:0:0:0:
256,192,77742,1,8,0:0:0:0:
256,192,78042,1,0,0:0:0:0:
256,192,78142,1,0,0:0:0:0:
256,192,78242,1,0,0:0:0:0:
256,192,78342,1,8,0:0:0:0:
256,192,78492,1,0,0:0:0:0:
256,192,78642,1,8,0:0:0:0:
256,192,78792,1,8,0:0:0:0:
256,192,78942,1,0,0:0:0:0:
256,192,79092,1,8,0:0:0:0:
256,192,79167,1,0,0:0:0:0:
256,192,79392,1,0,0:0:0:0:
256,192,79542,1,8,0:0:0:0:
256,192,79692,1,0,0:0:0:0:
256,192,79767,1,0,0:0:0:0:
256,192,79842,1,8,0:0:0:0:
256,192,80142,1,4,0:0:0:0:
256,192,80442,1,8,0:0:0:0:
256,192,80517,1,0,0:0:0:0:
256,192,80592,1,8,0:0:0:0:
256,192,80742,1,0,0:0:0:0:
256,192,80892,1,8,0:0:0:0:
256,192,81042,1,0,0:0:0:0:
256,192,81117,1,0,0:0:0:0:
256,192,81192,1,0,0:0:0:0:
256,192,81342,1,8,0:0:0:0:
256,192,81492,1,8,0:0:0:0:
256,192,81567,1,8,0:0:0:0:
256,192,81642,1,8,0:0:0:0:
256,192,81792,1,8,0:0:0:0:
256,192,81942,1,8,0:0:0:0:
256,192,82092,1,8,0:0:0:0:
256,192,82167,1,8,0:0:0:0:
256,192,82242,1,8,0:0:0:0:
256,192,82392,1,8,0:0:0:0:
256,192,82542,1,4,0:0:0:0:
256,192,82842,1,8,0:0:0:0:
256,192,82917,1,8,0:0:0:0:
256,192,82992,1,0,0:0:0:0:
256,192,83142,1,8,0:0:0:0:
256,192,83442,1,0,0:0:0:0:
256,192,83592,1,8,0:0:0:0:
256,192,83742,1,0,0:0:0:0:
256,192,84042,1,0,0:0:0:0:
256,192,84342,1,8,0:0:0:0:
256,192,84642,1,0,0:0:0:0:
256,192,84717,1,0,0:0:0:0:
256,192,84792,1,8,0:0:0:0:
256,192,84942,1,0,0:0:0:0:
256,192,85242,1,0,0:0:0:0:
256,192,85317,1,0,0:0:0:0:
256,192,85392,1,0,0:0:0:0:
256,192,85467,1,0,0:0:0:0:
256,192,85542,1,8,0:0:0:0:
256,192,85842,1,0,0:0:0:0:
256,192,85992,1,0,0:0:0:0:
256,192,86142,1,8,0:0:0:0:
256,192,86292,1,0,0:0:0:0:
256,192,86742,1,8,0:0:0:0:
256,192,86892,1,0,0:0:0:0:
256,192,87042,1,8,0:0:0:0:
256,192,87192,1,0,0:0:0:0:
256,192,87342,1,4,0:0:0:0:
256,192,87567,1,0,0:0:0:0:
256,192,87942,1,8,0:0:0:0:
256,192,88542,1,0,0:0:0:0:
256,192,88992,1,0,0:0:0:0:
256,192,89142,1,8,0:0:0:0:
256,192,89742,1,0,0:0:0:0:
256,192,89967,1,0,0:0:0:0:
256,192,90342,1,8,0:0:0:0:
256,192,90942,1,0,0:0:0:0:
256,192,91392,1,0,0:0:0:0:
256,192,91542,1,8,0:0:0:0:
256,192,91692,1,0,0:0:0:0:
256,192,92142,1,0,0:0:0:0:
256,192,92367,1,0,0:0:0:0:
256,192,92592,1,0,0:0:0:0:
256,192,92742,1,8,0:0:0:0:
256,192,93342,1,0,0:0:0:0:
256,192,93642,1,0,0:0:0:0:
256,192,93792,1,0,0:0:0:0:
256,192,93942,1,8,0:0:0:0:
256,192,94542,1,0,0:0:0:0:
256,192,94767,1,0,0:0:0:0:
256,192,94992,1,0,0:0:0:0:
256,192,95142,1,8,0:0:0:0:
256,192,95442,1,0,0:0:0:0:
256,192,95742,1,0,0:0:0:0:
256,192,96042,1,0,0:0:0:0:
256,192,96192,1,0,0:0:0:0:
256,192,96342,1,8,0:0:0:0:
256,192,96492,1,0,0:0:0:0:
256,192,96942,1,4,0:0:0:0:
256,192,97242,1,8,0:0:0:0:
256,192,97392,1,0,0:0:0:0:
256,192,97542,1,8,0:0:0:0:
256,192,97617,1,0,0:0:0:0:
256,192,97692,1,8,0:0:0:0:
256,192,97842,1,0,0:0:0:0:
256,192,97992,1,8,0:0:0:0:
256,192,98142,1,0,0:0:0:0:
256,192,98217,1,0,0:0:0:0:
256,192,98292,1,8,0:0:0:0:
256,192,98442,1,0,0:0:0:0:
256,192,98592,1,0,0:0:0:0:
256,192,98742,1,8,0:0:0:0:
256,192,98817,1,8,0:0:0:0:
256,192,98892,1,0,0:0:0:0:
256,192,99042,1,8,0:0:0:0:
256,192,99342,1,0,0:0:0:0:
256,192,99492,1,0,0:0:0:0:
256,192,99642,1,8,0:0:0:0:
256,192,99792,1,0,0:0:0:0:
256,192,99942,1,8,0:0:0:0:
256,192,100017,1,0,0:0:0:0:
256,192,100092,1,8,0:0:0:0:
256,192,100242,1,0,0:0:0:0:
256,192,100392,1,8,0:0:0:0:
256,192,100542,1,0,0:0:0:0:
256,192,100692,1,8,0:0:0:0:
256,192,100767,1,8,0:0:0:0:
256,192,100842,1,0,0:0:0:0:
256,192,100992,1,0,0:0:0:0:
256,192,101142,1,8,0:0:0:0:
256,192,101442,1,0,0:0:0:0:
256,192,101742,1,8,0:0:0:0:
256,192,101892,1,0,0:0:0:0:
256,192,102042,1,8,0:0:0:0:
256,192,102117,1,0,0:0:0:0:
256,192,102267,1,0,0:0:0:0:
256,192,102342,1,8,0:0:0:0:
256,192,102492,1,0,0:0:0:0:
256,192,102642,1,8,0:0:0:0:
256,192,102717,1,8,0:0:0:0:
256,192,102792,1,0,0:0:0:0:
256,192,102942,1,8,0:0:0:0:
256,192,103092,1,0,0:0:0:0:
256,192,103167,1,0,0:0:0:0:
256,192,103242,1,8,0:0:0:0:
256,192,103392,1,0,0:0:0:0:
256,192,103542,1,8,0:0:0:0:
256,192,103692,1,0,0:0:0:0:
256,192,103767,1,8,0:0:0:0:
256,192,103917,1,8,0:0:0:0:
256,192,103992,1,0,0:0:0:0:
256,192,104142,1,8,0:0:0:0:
256,192,104442,1,0,0:0:0:0:
256,192,104592,1,8,0:0:0:0:
256,192,104667,1,0,0:0:0:0:
256,192,104742,1,8,0:0:0:0:
256,192,104892,1,0,0:0:0:0:
256,192,104967,1,0,0:0:0:0:
256,192,105042,1,8,0:0:0:0:
256,192,105192,1,0,0:0:0:0:
256,192,105342,1,8,0:0:0:0:
256,192,105417,1,8,0:0:0:0:
256,192,105492,1,0,0:0:0:0:
256,192,105567,1,0,0:0:0:0:
256,192,105642,1,8,0:0:0:0:
256,192,105792,1,0,0:0:0:0:
256,192,105942,1,8,0:0:0:0:
256,192,106017,1,8,0:0:0:0:
256,192,106092,1,8,0:0:0:0:
256,192,106167,1,8,0:0:0:0:
256,192,106242,1,0,0:0:0:0:
256,192,106392,1,8,0:0:0:0:
256,192,106542,1,4,0:0:0:0:
256,192,106842,1,8,0:0:0:0:
256,192,106992,1,0,0:0:0:0:
256,192,107142,1,8,0:0:0:0:
256,192,107217,1,0,0:0:0:0:
256,192,107292,1,8,0:0:0:0:
256,192,107442,1,0,0:0:0:0:
256,192,107592,1,8,0:0:0:0:
256,192,107742,1,8,0:0:0:0:
256,192,107817,1,8,0:0:0:0:
256,192,107892,1,0,0:0:0:0:
256,192,108042,1,8,0:0:0:0:
256,192,108342,1,0,0:0:0:0:
256,192,108492,1,8,0:0:0:0:
256,192,108642,1,0,0:0:0:0:
256,192,108942,1,0,0:0:0:0:
256,192,109092,1,8,0:0:0:0:
256,192,109167,1,8,0:0:0:0:
256,192,109242,1,0,0:0:0:0:
256,192,109392,1,8,0:0:0:0:
256,192,109542,1,0,0:0:0:0:
256,192,109617,1,0,0:0:0:0:
256,192,109692,1,8,0:0:0:0:
256,192,109842,1,0,0:0:0:0:
256,192,109992,1,0,0:0:0:0:
256,192,110142,1,8,0:0:0:0:
256,192,110292,1,0,0:0:0:0:
256,192,110442,1,8,0:0:0:0:
256,192,110517,1,0,0:0:0:0:
256,192,110592,1,8,0:0:0:0:
256,192,110742,1,0,0:0:0:0:
256,192,111042,1,0,0:0:0:0:
256,192,111342,1,8,0:0:0:0:
256,192,111492,1,0,0:0:0:0:
256,192,111642,1,8,0:0:0:0:
256,192,111717,1,8,0:0:0:0:
256,192,111792,1,0,0:0:0:0:
256,192,111942,1,8,0:0:0:0:
256,192,112092,1,0,0:0:0:0:
256,192,112242,1,8,0:0:0:0:
256,192,112317,1,8,0:0:0:0:
256,192,112392,1,0,0:0:0:0:
256,192,112542,1,8,0:0:0:0:
256,192,112692,1,0,0:0:0:0:
256,192,112767,1,0,0:0:0:0:
256,192,112842,1,8,0:0:0:0:
256,192,112917,1,8,0:0:0:0:
256,192,112992,1,0,0:0:0:0:
256,192,113142,1,8,0:0:0:0:
256,192,113292,1,0,0:0:0:0:
256,192,113367,1,0,0:0:0:0:
256,192,113442,1,8,0:0:0:0:
256,192,113517,1,8,0:0:0:0:
256,192,113592,1,0,0:0:0:0:
256,192,113742,1,12,0:0:0:0:
256,192,113892,1,0,0:0:0:0:
256,192,113967,1,8,0:0:0:0:
256,192,114117,1,8,0:0:0:0:
256,192,114192,1,0,0:0:0:0:
256,192,114342,1,8,0:0:0:0:
256,192,114492,1,0,0:0:0:0:
256,192,114642,1,8,0:0:0:0:
256,192,114717,1,8,0:0:0:0:
256,192,114792,1,0,0:0:0:0:
256,192,114942,1,12,0:0:0:0:
256,192,115092,1,0,0:0:0:0:
256,192,115242,1,12,0:0:0:0:
256,192,115392,1,0,0:0:0:0:
256,192,115542,1,12,0:0:0:0:
256,192,115692,1,0,0:0:0:0:
256,192,115842,1,12,0:0:0:0:
256,192,115992,1,8,0:0:0:0:
256,192,116142,1,4,0:0:0:0:
