osu file format v14

[General]
AudioFilename: audio.mp3
AudioLeadIn: 0
PreviewTime: 9638
Countdown: 0
SampleSet: Normal
StackLeniency: 0.7
Mode: 1
LetterboxInBreaks: 0
WidescreenStoryboard: 1

[Editor]
Bookmarks: 9706,27160,35888,45706,63160,78433,92888
DistanceSpacing: 0.8
BeatDivisor: 4
GridSize: 32
TimelineZoom: 2.7

[Metadata]
Title:EGOISM 440
TitleUnicode:EGOISM 440
Artist:U1 High-Speed
ArtistUnicode:U1 High-Speed
Creator:radar
Version:Cychlo's Oni
Source:DanceDanceRevolution
Tags:cychloryn idealism DakeDekaane rhythm video game electronic instrumental Replicant D-ignition 浅見祐一 yuichi asami DDR revolution
BeatmapID:2426393
BeatmapSetID:1155286

[Difficulty]
HPDrainRate:5
CircleSize:2
OverallDifficulty:6
ApproachRate:10
SliderMultiplier:1.4
SliderTickRate:1

[Events]
//Background and Video events
0,0,"Lol.jpg",0,0
//Break Periods
//Storyboard Layer 0 (Background)
//Storyboard Layer 1 (Fail)
//Storyboard Layer 2 (Pass)
//Storyboard Layer 3 (Foreground)
//Storyboard Layer 4 (Overlay)
//Storyboard Sound Samples

[TimingPoints]
979,272.727272727273,4,1,0,70,1,0
979,-111.111111111111,4,1,0,70,0,0
1115,-111.111111111111,4,1,0,40,0,0
1524,-111.111111111111,4,1,0,35,0,0
2069,-111.111111111111,4,1,0,30,0,0
2615,-111.111111111111,4,1,0,25,0,0
5274,-111.111111111111,4,1,0,70,0,0
9638,-100,4,1,0,85,0,0
18160,-99.009900990099,4,1,0,85,0,0
18229,-98.0392156862745,4,1,0,85,0,0
18297,-97.0873786407767,4,1,0,85,0,0
18365,-96.1538461538461,4,1,0,85,0,0
18433,-95.2380952380952,4,1,0,90,0,1
22524,-96.1538461538461,4,1,0,90,0,1
22592,-97.0873786407767,4,1,0,90,0,1
22660,-98.0392156862745,4,1,0,90,0,1
22729,-99.009900990099,4,1,0,90,0,1
22797,-100,4,1,0,85,0,0
26342,-99.009900990099,4,1,0,85,0,0
26479,-98.0392156862745,4,1,0,85,0,0
26615,-97.0873786407767,4,1,0,85,0,0
26751,-96.1538461538461,4,1,0,85,0,0
26888,-94.3396226415094,4,1,0,85,0,0
26956,-93.4579439252336,4,1,0,85,0,0
27024,-92.5925925925926,4,1,0,85,0,0
27092,-91.743119266055,4,1,0,85,0,0
27160,-90.9090909090909,4,1,0,95,0,0
35888,-100,4,1,0,85,0,0
45638,-111.111111111111,4,1,0,80,0,0
49797,-107.52688172043,4,1,0,80,0,0
49933,-104.166666666667,4,1,0,80,0,0
50069,-100,4,1,0,90,0,0
54433,-100,4,1,0,80,0,0
54706,-105.263157894737,4,1,0,80,0,0
54979,-108.695652173913,4,1,0,80,0,0
55115,-109.89010989011,4,1,0,80,0,0
55251,-111.111111111111,4,1,0,80,0,0
58797,-100,4,1,0,90,0,0
62751,-99.009900990099,4,1,0,90,0,0
62819,-98.0392156862745,4,1,0,90,0,0
62888,-97.0873786407767,4,1,0,90,0,0
63024,-94.3396226415094,4,1,0,80,0,0
63160,-90.9090909090909,4,1,0,95,0,0
67456,-100,4,1,0,75,0,0
69638,-100,4,1,0,90,0,0
78365,-90.9090909090909,4,1,0,100,0,0
78433,-90.9090909090909,4,1,0,100,0,1
86751,-90.9090909090909,4,1,0,100,0,1
86819,-90.0900900900901,4,1,0,100,0,1
86888,-89.2857142857143,4,1,0,100,0,1
86956,-88.4955752212389,4,1,0,100,0,1
87024,-87.719298245614,4,1,0,100,0,1
87160,-86.9565217391304,4,1,0,100,0,0
92751,-85.4700854700855,4,1,0,100,0,0
92888,-83.3333333333333,4,1,0,100,0,0

[HitObjects]
256,192,979,5,4,0:0:0:0:
256,192,1115,12,0,5206,0:0:0:0:
256,192,5342,5,0,0:0:0:0:
256,192,5479,1,0,0:0:0:0:
256,192,5547,1,0,0:0:0:0:
256,192,5615,1,8,0:0:0:0:
256,192,5888,1,8,0:0:0:0:
256,192,6024,1,8,0:0:0:0:
256,192,6092,1,8,0:0:0:0:
256,192,6160,1,0,0:0:0:0:
256,192,6433,1,8,0:0:0:0:
256,192,6706,1,0,0:0:0:0:
256,192,6842,1,8,0:0:0:0:
256,192,7524,1,0,0:0:0:0:
256,192,7660,1,0,0:0:0:0:
256,192,7729,1,0,0:0:0:0:
256,192,7797,1,8,0:0:0:0:
256,192,8069,1,8,0:0:0:0:
256,192,8206,1,8,0:0:0:0:
256,192,8274,1,8,0:0:0:0:
256,192,8342,1,0,0:0:0:0:
256,192,8615,1,8,0:0:0:0:
256,192,8888,1,0,0:0:0:0:
256,192,9024,1,8,0:0:0:0:
256,192,9706,1,12,0:0:0:0:
256,192,9842,1,0,0:0:0:0:
256,192,9979,1,8,0:0:0:0:
256,192,10115,1,0,0:0:0:0:
256,192,10388,1,0,0:0:0:0:
256,192,10524,1,8,0:0:0:0:
256,192,10660,1,8,0:0:0:0:
256,192,10797,1,0,0:0:0:0:
256,192,10933,1,8,0:0:0:0:
256,192,11069,1,0,0:0:0:0:
256,192,11206,1,0,0:0:0:0:
256,192,11342,1,8,0:0:0:0:
256,192,11410,1,0,0:0:0:0:
256,192,11479,1,8,0:0:0:0:
256,192,11615,1,8,0:0:0:0:
256,192,11683,1,8,0:0:0:0:
256,192,11751,1,0,0:0:0:0:
256,192,11819,1,0,0:0:0:0:
256,192,11888,1,8,0:0:0:0:
256,192,12024,1,8,0:0:0:0:
256,192,12160,1,0,0:0:0:0:
256,192,12297,1,8,0:0:0:0:
256,192,12433,1,0,0:0:0:0:
256,192,12706,1,8,0:0:0:0:
256,192,12842,1,0,0:0:0:0:
256,192,12979,1,8,0:0:0:0:
256,192,13115,1,8,0:0:0:0:
256,192,13251,1,0,0:0:0:0:
256,192,13388,1,0,0:0:0:0:
256,192,13524,1,8,0:0:0:0:
256,192,13660,1,0,0:0:0:0:
256,192,13797,1,8,0:0:0:0:
256,192,13865,1,0,0:0:0:0:
256,192,13933,1,8,0:0:0:0:
256,192,14001,1,8,0:0:0:0:
256,192,14069,1,4,0:0:0:0:
256,192,14206,1,0,0:0:0:0:
256,192,14274,1,0,0:0:0:0:
256,192,14342,1,8,0:0:0:0:
256,192,14479,1,0,0:0:0:0:
256,192,14615,1,8,0:0:0:0:
256,192,14683,1,8,0:0:0:0:
256,192,14751,1,8,0:0:0:0:
256,192,14819,1,8,0:0:0:0:
256,192,14888,1,0,0:0:0:0:
256,192,15024,1,0,0:0:0:0:
256,192,15160,1,8,0:0:0:0:
256,192,15433,1,0,0:0:0:0:
256,192,15569,1,8,0:0:0:0:
256,192,15706,1,0,0:0:0:0:
256,192,15842,1,0,0:0:0:0:
256,192,15979,1,8,0:0:0:0:
256,192,16047,1,0,0:0:0:0:
256,192,16115,1,8,0:0:0:0:
256,192,16183,1,8,0:0:0:0:
256,192,16251,1,4,0:0:0:0:
256,192,16388,1,0,0:0:0:0:
256,192,16456,1,0,0:0:0:0:
256,192,16524,1,8,0:0:0:0:
256,192,16660,1,0,0:0:0:0:
256,192,16797,1,8,0:0:0:0:
256,192,16865,1,8,0:0:0:0:
256,192,16933,1,8,0:0:0:0:
256,192,17001,1,8,0:0:0:0:
256,192,17069,1,0,0:0:0:0:
256,192,17206,1,0,0:0:0:0:
256,192,17342,1,12,0:0:0:0:
256,192,17479,1,0,0:0:0:0:
256,192,17615,1,0,0:0:0:0:
256,192,17751,1,8,0:0:0:0:
256,192,18024,1,0,0:0:0:0:
256,192,18160,1,8,0:0:0:0:
256,192,18229,1,0,0:0:0:0:
256,192,18297,1,8,0:0:0:0:
256,192,18365,1,8,0:0:0:0:
256,192,18433,1,0,0:0:0:0:
256,192,18569,1,0,0:0:0:0:
256,192,18638,1,0,0:0:0:0:
256,192,18706,1,8,0:0:0:0:
256,192,18842,1,8,0:0:0:0:
256,192,18979,1,0,0:0:0:0:
256,192,19115,1,0,0:0:0:0:
256,192,19183,1,0,0:0:0:0:
256,192,19251,1,8,0:0:0:0:
256,192,19319,1,8,0:0:0:0:
256,192,19388,1,0,0:0:0:0:
256,192,19524,1,8,0:0:0:0:
256,192,19660,1,0,0:0:0:0:
256,192,19729,1,0,0:0:0:0:
256,192,19797,1,8,0:0:0:0:
256,192,19933,1,0,0:0:0:0:
256,192,20069,1,8,0:0:0:0:
256,192,20138,1,8,0:0:0:0:
256,192,20206,1,8,0:0:0:0:
256,192,20342,1,0,0:0:0:0:
256,192,20479,1,8,0:0:0:0:
256,192,20751,1,8,0:0:0:0:
256,192,20888,1,8,0:0:0:0:
256,192,20956,1,0,0:0:0:0:
256,192,21024,1,8,0:0:0:0:
256,192,21160,1,0,0:0:0:0:
256,192,21297,1,0,0:0:0:0:
256,192,21365,1,0,0:0:0:0:
256,192,21433,1,8,0:0:0:0:
256,192,21501,1,8,0:0:0:0:
256,192,21569,1,0,0:0:0:0:
256,192,21706,1,8,0:0:0:0:
256,192,21842,1,0,0:0:0:0:
256,192,21910,1,0,0:0:0:0:
256,192,21979,1,8,0:0:0:0:
256,192,22115,1,0,0:0:0:0:
256,192,22251,1,8,0:0:0:0:
256,192,22319,1,8,0:0:0:0:
256,192,22388,1,0,0:0:0:0:
256,192,22524,1,8,0:0:0:0:
256,192,22592,1,0,0:0:0:0:
256,192,22660,1,8,0:0:0:0:
256,192,22729,1,8,0:0:0:0:
256,192,22797,1,4,0:0:0:0:
256,192,23069,1,8,0:0:0:0:
256,192,23206,1,0,0:0:0:0:
256,192,23342,1,8,0:0:0:0:
256,192,23410,1,8,0:0:0:0:
256,192,23479,1,8,0:0:0:0:
256,192,23547,1,8,0:0:0:0:
256,192,23615,1,0,0:0:0:0:
256,192,23751,1,0,0:0:0:0:
256,192,23888,1,8,0:0:0:0:
256,192,24024,1,0,0:0:0:0:
256,192,24092,1,8,0:0:0:0:
256,192,24160,1,0,0:0:0:0:
256,192,24297,1,8,0:0:0:0:
256,192,24569,1,0,0:0:0:0:
256,192,24706,1,8,0:0:0:0:
256,192,24774,1,0,0:0:0:0:
256,192,24842,1,8,0:0:0:0:
256,192,24910,1,8,0:0:0:0:
256,192,24979,1,4,0:0:0:0:
256,192,25115,1,0,0:0:0:0:
256,192,25183,1,0,0:0:0:0:
256,192,25251,1,8,0:0:0:0:
256,192,25388,1,0,0:0:0:0:
256,192,25524,1,8,0:0:0:0:
256,192,25592,1,8,0:0:0:0:
256,192,25660,1,8,0:0:0:0:
256,192,25729,1,8,0:0:0:0:
256,192,25797,1,0,0:0:0:0:
256,192,25933,1,0,0:0:0:0:
256,192,26069,1,12,0:0:0:0:
256,192,26342,1,0,0:0:0:0:
256,192,26479,1,8,0:0:0:0:
256,192,26615,1,0,0:0:0:0:
256,192,26751,1,0,0:0:0:0:
256,192,26888,1,8,0:0:0:0:
256,192,26956,1,8,0:0:0:0:
256,192,27024,1,0,0:0:0:0:
256,192,27092,1,0,0:0:0:0:
256,192,27160,1,8,0:0:0:0:
256,192,27297,1,8,0:0:0:0:
256,192,27433,1,0,0:0:0:0:
256,192,27569,1,8,0:0:0:0:
256,192,27706,1,0,0:0:0:0:
256,192,28115,1,8,0:0:0:0:
256,192,28251,1,0,0:0:0:0:
256,192,28388,1,8,0:0:0:0:
256,192,28524,1,0,0:0:0:0:
256,192,28660,1,8,0:0:0:0:
256,192,28797,1,0,0:0:0:0:
256,192,28933,1,0,0:0:0:0:
256,192,29001,1,0,0:0:0:0:
256,192,29069,1,8,0:0:0:0:
256,192,29615,1,8,0:0:0:0:
256,192,29751,1,0,0:0:0:0:
256,192,29888,1,8,0:0:0:0:
256,192,30024,1,0,0:0:0:0:
256,192,30297,1,8,0:0:0:0:
256,192,30433,1,0,0:0:0:0:
256,192,30569,1,8,0:0:0:0:
256,192,30706,1,0,0:0:0:0:
256,192,30842,1,0,0:0:0:0:
256,192,30979,1,8,0:0:0:0:
256,192,31115,1,8,0:0:0:0:
256,192,31251,1,0,0:0:0:0:
256,192,31797,1,8,0:0:0:0:
256,192,31933,1,0,0:0:0:0:
256,192,32069,1,8,0:0:0:0:
256,192,32206,1,0,0:0:0:0:
256,192,32615,1,8,0:0:0:0:
256,192,32751,1,0,0:0:0:0:
256,192,32888,1,8,0:0:0:0:
256,192,33024,1,0,0:0:0:0:
256,192,33160,1,8,0:0:0:0:
256,192,33297,1,0,0:0:0:0:
256,192,33365,1,0,0:0:0:0:
256,192,33433,1,8,0:0:0:0:
256,192,33501,1,8,0:0:0:0:
256,192,33569,1,0,0:0:0:0:
256,192,33842,1,8,0:0:0:0:
256,192,33910,1,0,0:0:0:0:
256,192,33979,1,8,0:0:0:0:
256,192,34047,1,8,0:0:0:0:
256,192,34115,1,0,0:0:0:0:
256,192,34251,1,8,0:0:0:0:
256,192,34388,1,0,0:0:0:0:
256,192,34660,1,8,0:0:0:0:
256,192,34797,1,0,0:0:0:0:
256,192,34933,1,8,0:0:0:0:
256,192,35069,1,8,0:0:0:0:
256,192,35206,1,0,0:0:0:0:
256,192,35342,1,0,0:0:0:0:
256,192,35479,1,8,0:0:0:0:
256,192,35615,1,0,0:0:0:0:
256,192,35888,1,12,0:0:0:0:
256,192,36024,1,0,0:0:0:0:
256,192,36160,1,0,0:0:0:0:
256,192,36297,1,8,0:0:0:0:
256,192,36433,1,0,0:0:0:0:
256,192,36501,1,0,0:0:0:0:
256,192,36569,1,0,0:0:0:0:
256,192,36638,1,0,0:0:0:0:
256,192,36706,1,8,0:0:0:0:
256,192,36842,1,0,0:0:0:0:
256,192,36979,1,8,0:0:0:0:
256,192,37115,1,0,0:0:0:0:
256,192,37183,1,8,0:0:0:0:
256,192,37251,1,0,0:0:0:0:
256,192,37388,1,0,0:0:0:0:
256,192,37524,1,8,0:0:0:0:
256,192,37660,1,8,0:0:0:0:
256,192,37729,1,8,0:0:0:0:
256,192,37797,1,0,0:0:0:0:
256,192,37933,1,0,0:0:0:0:
256,192,38069,1,8,0:0:0:0:
256,192,38342,1,8,0:0:0:0:
256,192,38479,1,0,0:0:0:0:
256,192,38615,1,8,0:0:0:0:
256,192,38706,1,0,0:0:0:0:
256,192,38797,1,0,0:0:0:0:
256,192,38888,1,8,0:0:0:0:
256,192,39024,1,8,0:0:0:0:
256,192,39160,1,0,0:0:0:0:
256,192,39297,1,0,0:0:0:0:
256,192,39433,1,8,0:0:0:0:
256,192,39524,1,8,0:0:0:0:
256,192,39615,1,8,0:0:0:0:
256,192,39706,1,0,0:0:0:0:
256,192,39842,1,0,0:0:0:0:
256,192,39979,1,8,0:0:0:0:
256,192,40115,1,8,0:0:0:0:
256,192,40183,1,8,0:0:0:0:
256,192,40251,1,0,0:0:0:0:
256,192,40524,1,8,0:0:0:0:
256,192,40660,1,0,0:0:0:0:
256,192,40797,1,8,0:0:0:0:
256,192,40865,1,8,0:0:0:0:
256,192,40933,1,8,0:0:0:0:
256,192,41001,1,8,0:0:0:0:
256,192,41069,1,0,0:0:0:0:
256,192,41206,1,0,0:0:0:0:
256,192,41342,1,8,0:0:0:0:
256,192,41479,1,8,0:0:0:0:
256,192,41547,1,8,0:0:0:0:
256,192,41615,1,0,0:0:0:0:
256,192,41751,1,8,0:0:0:0:
256,192,41888,1,0,0:0:0:0:
256,192,42024,1,0,0:0:0:0:
256,192,42092,1,8,0:0:0:0:
256,192,42160,1,8,0:0:0:0:
256,192,42297,1,8,0:0:0:0:
256,192,42433,1,0,0:0:0:0:
256,192,42706,1,8,0:0:0:0:
256,192,42842,1,0,0:0:0:0:
256,192,42979,1,8,0:0:0:0:
256,192,43069,1,0,0:0:0:0:
256,192,43160,1,0,0:0:0:0:
256,192,43251,1,8,0:0:0:0:
256,192,43388,1,8,0:0:0:0:
256,192,43524,1,0,0:0:0:0:
256,192,43660,1,0,0:0:0:0:
256,192,43797,1,8,0:0:0:0:
256,192,43888,1,8,0:0:0:0:
256,192,43979,1,8,0:0:0:0:
256,192,44069,1,0,0:0:0:0:
256,192,44206,1,0,0:0:0:0:
256,192,44274,1,0,0:0:0:0:
256,192,44342,1,8,0:0:0:0:
256,192,44479,1,8,0:0:0:0:
256,192,44615,1,4,0:0:0:0:
256,192,45706,5,12,0:0:0:0:
256,192,45979,1,0,0:0:0:0:
256,192,46251,1,8,0:0:0:0:
256,192,46524,1,8,0:0:0:0:
256,192,46660,1,0,0:0:0:0:
256,192,46933,1,0,0:0:0:0:
256,192,47206,1,0,0:0:0:0:
256,192,47342,1,8,0:0:0:0:
256,192,47615,1,0,0:0:0:0:
256,192,47751,1,8,0:0:0:0:
256,192,47888,1,0,0:0:0:0:
256,192,48160,1,0,0:0:0:0:
256,192,48297,1,0,0:0:0:0:
256,192,48433,1,8,0:0:0:0:
256,192,48706,1,8,0:0:0:0:
256,192,48842,1,0,0:0:0:0:
256,192,49115,1,8,0:0:0:0:
256,192,49388,1,0,0:0:0:0:
256,192,49524,1,8,0:0:0:0:
256,192,49797,1,0,0:0:0:0:
256,192,49933,1,8,0:0:0:0:
256,192,50069,1,0,0:0:0:0:
256,192,50138,1,0,0:0:0:0:
256,192,50206,1,0,0:0:0:0:
256,192,50342,1,8,0:0:0:0:
256,192,50433,1,0,0:0:0:0:
256,192,50524,1,0,0:0:0:0:
256,192,50615,1,8,0:0:0:0:
256,192,50751,1,0,0:0:0:0:
256,192,50819,1,0,0:0:0:0:
256,192,50888,1,8,0:0:0:0:
256,192,51024,1,0,0:0:0:0:
256,192,51160,1,8,0:0:0:0:
256,192,51297,1,8,0:0:0:0:
256,192,51365,1,0,0:0:0:0:
256,192,51433,1,8,0:0:0:0:
256,192,51501,1,8,0:0:0:0:
256,192,51569,1,0,0:0:0:0:
256,192,51706,1,8,0:0:0:0:
256,192,51979,1,0,0:0:0:0:
256,192,52069,1,8,0:0:0:0:
256,192,52160,1,8,0:0:0:0:
256,192,52251,1,0,0:0:0:0:
256,192,52388,1,8,0:0:0:0:
256,192,52524,1,0,0:0:0:0:
256,192,52592,1,0,0:0:0:0:
256,192,52660,1,0,0:0:0:0:
256,192,52797,1,8,0:0:0:0:
256,192,52933,1,0,0:0:0:0:
256,192,53069,1,8,0:0:0:0:
256,192,53160,1,8,0:0:0:0:
256,192,53251,1,8,0:0:0:0:
256,192,53342,1,0,0:0:0:0:
256,192,53479,1,8,0:0:0:0:
256,192,53547,1,8,0:0:0:0:
256,192,53615,1,8,0:0:0:0:
256,192,53751,1,0,0:0:0:0:
256,192,53888,1,8,0:0:0:0:
256,192,54024,1,8,0:0:0:0:
256,192,54092,1,8,0:0:0:0:
256,192,54160,1,0,0:0:0:0:
256,192,54297,1,0,0:0:0:0:
256,192,54433,1,12,0:0:0:0:
256,192,54706,1,0,0:0:0:0:
256,192,54979,1,8,0:0:0:0:
256,192,55115,1,0,0:0:0:0:
256,192,55251,1,8,0:0:0:0:
256,192,55524,1,8,0:0:0:0:
256,192,55797,1,0,0:0:0:0:
256,192,56069,1,0,0:0:0:0:
256,192,56206,1,0,0:0:0:0:
256,192,56342,1,8,0:0:0:0:
256,192,56615,1,8,0:0:0:0:
256,192,56888,1,8,0:0:0:0:
256,192,57024,1,8,0:0:0:0:
256,192,57160,1,0,0:0:0:0:
256,192,57433,1,8,0:0:0:0:
256,192,57706,1,0,0:0:0:0:
256,192,57979,1,8,0:0:0:0:
256,192,58115,1,0,0:0:0:0:
256,192,58251,1,8,0:0:0:0:
256,192,58388,1,8,0:0:0:0:
256,192,58524,1,0,0:0:0:0:
256,192,58797,1,8,0:0:0:0:
256,192,58865,1,8,0:0:0:0:
256,192,58933,1,0,0:0:0:0:
256,192,59069,1,8,0:0:0:0:
256,192,59160,1,0,0:0:0:0:
256,192,59251,1,0,0:0:0:0:
256,192,59342,1,8,0:0:0:0:
256,192,59479,1,0,0:0:0:0:
256,192,59547,1,0,0:0:0:0:
256,192,59615,1,8,0:0:0:0:
256,192,59751,1,0,0:0:0:0:
256,192,59888,1,8,0:0:0:0:
256,192,60024,1,8,0:0:0:0:
256,192,60092,1,0,0:0:0:0:
256,192,60160,1,8,0:0:0:0:
256,192,60229,1,8,0:0:0:0:
256,192,60297,1,0,0:0:0:0:
256,192,60433,1,8,0:0:0:0:
256,192,60569,1,0,0:0:0:0:
256,192,60706,1,8,0:0:0:0:
256,160,60797,1,8,0:0:0:0:
256,160,60888,1,8,0:0:0:0:
256,160,60979,1,0,0:0:0:0:
256,192,61115,1,0,0:0:0:0:
256,192,61251,1,8,0:0:0:0:
256,192,61319,1,0,0:0:0:0:
256,192,61388,1,8,0:0:0:0:
256,192,61524,1,0,0:0:0:0:
256,192,61660,1,8,0:0:0:0:
256,192,61797,1,0,0:0:0:0:
256,192,61888,1,8,0:0:0:0:
256,192,61979,1,8,0:0:0:0:
256,160,62069,1,0,0:0:0:0:
256,192,62206,1,0,0:0:0:0:
256,192,62342,1,8,0:0:0:0:
256,192,62433,1,8,0:0:0:0:
256,192,62524,1,8,0:0:0:0:
256,192,62615,1,0,0:0:0:0:
256,192,62751,1,0,0:0:0:0:
256,192,62819,1,8,0:0:0:0:
256,192,62888,1,0,0:0:0:0:
256,192,63024,1,0,0:0:0:0:
256,192,63160,1,8,0:0:0:0:
256,192,63297,1,0,0:0:0:0:
256,192,63433,1,8,0:0:0:0:
256,192,63569,1,0,0:0:0:0:
256,192,63979,1,8,0:0:0:0:
256,192,64115,1,0,0:0:0:0:
256,192,64251,1,8,0:0:0:0:
256,192,64388,1,0,0:0:0:0:
256,192,64524,1,8,0:0:0:0:
256,192,64660,1,0,0:0:0:0:
256,192,64797,1,0,0:0:0:0:
256,192,64865,1,0,0:0:0:0:
256,192,64933,1,8,0:0:0:0:
256,192,65479,1,8,0:0:0:0:
256,192,65615,1,0,0:0:0:0:
256,192,65751,1,8,0:0:0:0:
256,192,65888,1,0,0:0:0:0:
256,192,66160,1,8,0:0:0:0:
256,192,66297,1,0,0:0:0:0:
256,192,66433,1,8,0:0:0:0:
256,192,66569,1,8,0:0:0:0:
256,192,66706,1,0,0:0:0:0:
256,192,66842,1,0,0:0:0:0:
256,192,66979,1,8,0:0:0:0:
256,192,67115,1,0,0:0:0:0:
256,192,67524,1,4,0:0:0:0:
256,192,67660,12,0,69569,0:0:0:0:
256,192,69706,5,12,0:0:0:0:
256,192,69842,1,0,0:0:0:0:
256,192,69979,1,8,0:0:0:0:
256,192,70115,1,8,0:0:0:0:
256,192,70183,1,0,0:0:0:0:
256,192,70251,1,8,0:0:0:0:
256,192,70388,1,8,0:0:0:0:
256,192,70456,1,0,0:0:0:0:
256,192,70524,1,8,0:0:0:0:
256,192,70660,1,8,0:0:0:0:
256,192,70797,1,0,0:0:0:0:
256,192,70865,1,0,0:0:0:0:
256,192,70933,1,0,0:0:0:0:
256,192,71069,1,8,0:0:0:0:
256,192,71138,1,0,0:0:0:0:
256,192,71206,1,8,0:0:0:0:
256,192,71274,1,8,0:0:0:0:
256,192,71342,1,0,0:0:0:0:
256,192,71479,1,8,0:0:0:0:
256,192,71615,1,8,0:0:0:0:
256,192,71751,1,0,0:0:0:0:
256,192,71888,1,12,0:0:0:0:
256,192,72160,1,0,0:0:0:0:
256,192,72297,1,8,0:0:0:0:
256,192,72365,1,0,0:0:0:0:
256,192,72433,1,8,0:0:0:0:
256,192,72569,1,8,0:0:0:0:
256,192,72638,1,0,0:0:0:0:
256,192,72706,1,8,0:0:0:0:
256,192,72842,1,8,0:0:0:0:
256,192,72979,1,0,0:0:0:0:
256,192,73047,1,8,0:0:0:0:
256,192,73115,1,8,0:0:0:0:
256,192,73183,1,8,0:0:0:0:
256,192,73251,1,0,0:0:0:0:
256,192,73388,1,0,0:0:0:0:
256,192,73524,1,8,0:0:0:0:
256,192,73592,1,0,0:0:0:0:
256,192,73660,1,0,0:0:0:0:
256,192,73729,1,0,0:0:0:0:
256,192,73797,1,8,0:0:0:0:
256,192,73933,1,0,0:0:0:0:
256,192,74069,1,12,0:0:0:0:
256,192,74342,1,0,0:0:0:0:
256,192,74479,1,8,0:0:0:0:
256,192,74547,1,0,0:0:0:0:
256,192,74615,1,8,0:0:0:0:
256,192,74751,1,8,0:0:0:0:
256,192,74819,1,0,0:0:0:0:
256,192,74888,1,8,0:0:0:0:
256,192,75024,1,8,0:0:0:0:
256,192,75160,1,0,0:0:0:0:
256,192,75229,1,0,0:0:0:0:
256,192,75297,1,0,0:0:0:0:
256,192,75433,1,0,0:0:0:0:
256,192,75501,1,8,0:0:0:0:
256,192,75569,1,8,0:0:0:0:
256,192,75638,1,8,0:0:0:0:
256,192,75706,1,0,0:0:0:0:
256,192,75842,1,0,0:0:0:0:
256,192,75979,1,8,0:0:0:0:
256,192,76115,1,0,0:0:0:0:
256,192,76251,1,12,0:0:0:0:
256,192,76524,1,8,0:0:0:0:
256,192,76660,1,0,0:0:0:0:
256,192,76797,1,8,0:0:0:0:
256,192,76888,1,0,0:0:0:0:
256,192,76979,1,0,0:0:0:0:
256,192,77069,1,8,0:0:0:0:
256,192,77206,1,0,0:0:0:0:
256,192,77342,1,8,0:0:0:0:
256,192,77479,1,8,0:0:0:0:
256,192,77547,1,8,0:0:0:0:
256,192,77615,1,0,0:0:0:0:
256,192,77751,1,0,0:0:0:0:
256,192,78433,1,12,0:0:0:0:
256,192,78569,1,0,0:0:0:0:
256,192,78638,1,0,0:0:0:0:
256,192,78706,1,8,0:0:0:0:
256,192,78774,1,8,0:0:0:0:
256,192,78842,1,0,0:0:0:0:
256,192,78979,1,8,0:0:0:0:
256,192,79047,1,8,0:0:0:0:
256,192,79115,1,8,0:0:0:0:
256,192,79251,1,0,0:0:0:0:
256,192,79388,1,8,0:0:0:0:
256,192,79524,1,8,0:0:0:0:
256,192,79592,1,0,0:0:0:0:
256,192,79660,1,8,0:0:0:0:
256,192,79797,1,0,0:0:0:0:
256,192,79865,1,8,0:0:0:0:
256,192,79933,1,0,0:0:0:0:
256,192,80069,1,8,0:0:0:0:
256,192,80138,1,8,0:0:0:0:
256,192,80206,1,0,0:0:0:0:
256,192,80274,1,0,0:0:0:0:
256,192,80342,1,8,0:0:0:0:
256,192,80479,1,0,0:0:0:0:
256,192,80751,1,8,0:0:0:0:
256,192,80819,1,0,0:0:0:0:
256,192,80888,1,8,0:0:0:0:
256,192,80956,1,8,0:0:0:0:
256,192,81024,1,0,0:0:0:0:
256,192,81160,1,8,0:0:0:0:
256,192,81297,1,0,0:0:0:0:
256,192,81365,1,0,0:0:0:0:
256,192,81433,1,8,0:0:0:0:
256,192,81569,1,0,0:0:0:0:
256,192,81706,1,8,0:0:0:0:
256,192,81774,1,0,0:0:0:0:
256,192,81842,1,8,0:0:0:0:
256,192,81979,1,8,0:0:0:0:
256,192,82115,1,0,0:0:0:0:
256,192,82251,1,8,0:0:0:0:
256,192,82319,1,8,0:0:0:0:
256,192,82388,1,0,0:0:0:0:
256,192,82524,1,8,0:0:0:0:
256,192,82592,1,8,0:0:0:0:
256,192,82660,1,0,0:0:0:0:
256,192,82729,1,0,0:0:0:0:
256,192,82797,1,8,0:0:0:0:
256,192,82933,1,0,0:0:0:0:
256,192,83001,1,0,0:0:0:0:
256,192,83069,1,8,0:0:0:0:
256,192,83206,1,0,0:0:0:0:
256,192,83342,1,8,0:0:0:0:
256,192,83410,1,8,0:0:0:0:
256,192,83479,1,8,0:0:0:0:
256,192,83615,1,0,0:0:0:0:
256,192,83751,1,8,0:0:0:0:
256,192,83888,1,8,0:0:0:0:
256,192,83956,1,8,0:0:0:0:
256,192,84024,1,0,0:0:0:0:
256,192,84160,1,8,0:0:0:0:
256,192,84297,1,0,0:0:0:0:
256,192,84433,1,0,0:0:0:0:
256,192,84501,1,8,0:0:0:0:
256,192,84569,1,8,0:0:0:0:
256,192,84638,1,0,0:0:0:0:
256,192,84706,1,8,0:0:0:0:
256,192,84842,1,0,0:0:0:0:
256,192,85115,1,8,0:0:0:0:
256,192,85251,1,0,0:0:0:0:
256,192,85388,1,8,0:0:0:0:
256,192,85456,1,8,0:0:0:0:
256,192,85524,1,0,0:0:0:0:
256,192,85660,1,0,0:0:0:0:
256,192,85729,1,0,0:0:0:0:
256,192,85797,1,8,0:0:0:0:
256,192,85933,1,0,0:0:0:0:
256,192,86069,1,8,0:0:0:0:
256,192,86206,1,0,0:0:0:0:
256,192,86274,1,0,0:0:0:0:
256,192,86342,1,8,0:0:0:0:
256,192,86410,1,8,0:0:0:0:
256,192,86479,1,0,0:0:0:0:
256,192,86615,1,8,0:0:0:0:
256,192,86751,1,0,0:0:0:0:
256,192,86819,1,0,0:0:0:0:
256,192,86888,1,8,0:0:0:0:
256,192,86956,1,0,0:0:0:0:
256,192,87024,1,8,0:0:0:0:
256,192,87160,1,0,0:0:0:0:
256,192,87229,1,8,0:0:0:0:
256,192,87297,1,0,0:0:0:0:
256,192,87706,1,0,0:0:0:0:
256,192,87774,1,8,0:0:0:0:
256,192,87842,1,0,0:0:0:0:
256,192,88251,1,8,0:0:0:0:
256,192,88388,1,0,0:0:0:0:
256,192,88524,1,8,0:0:0:0:
256,192,88660,1,8,0:0:0:0:
256,192,88797,1,0,0:0:0:0:
256,192,88933,1,8,0:0:0:0:
256,192,89069,1,0,0:0:0:0:
256,192,89206,1,8,0:0:0:0:
256,192,89479,1,0,0:0:0:0:
256,192,89615,1,8,0:0:0:0:
256,192,89751,1,0,0:0:0:0:
256,192,89888,1,8,0:0:0:0:
256,192,90024,1,8,0:0:0:0:
256,192,90297,1,0,0:0:0:0:
256,192,90433,1,8,0:0:0:0:
256,192,90569,1,0,0:0:0:0:
256,192,90706,1,8,0:0:0:0:
256,192,90842,1,8,0:0:0:0:
256,192,91115,1,0,0:0:0:0:
256,192,91251,1,8,0:0:0:0:
256,192,91388,1,0,0:0:0:0:
256,192,91524,1,8,0:0:0:0:
256,192,91660,1,8,0:0:0:0:
256,192,91933,1,8,0:0:0:0:
256,192,92001,1,8,0:0:0:0:
256,192,92069,1,0,0:0:0:0:
256,192,92206,1,0,0:0:0:0:
256,192,92479,1,8,0:0:0:0:
256,192,92547,1,8,0:0:0:0:
256,192,92615,1,0,0:0:0:0:
256,192,92751,1,0,0:0:0:0:
256,192,92888,1,12,0:0:0:0:
