osu file format v14

[General]
AudioFilename: audio.mp3
AudioLeadIn: 0
PreviewTime: -1
Countdown: 0
SampleSet: Normal
StackLeniency: 0.7
Mode: 0
LetterboxInBreaks: 0
WidescreenStoryboard: 1

[Editor]
DistanceSpacing: 6
BeatDivisor: 4
GridSize: 8
TimelineZoom: 2.650002

[Metadata]
Title:EGOISM 440
TitleUnicode:EGOISM 440
Artist:U1 High-Speed
ArtistUnicode:U1 High-Speed
Creator:chezbananas
Version:Challenge Lv.19
Source:DanceDanceRevolution (2014)
Tags:replicant d-ignition ddr
BeatmapID:1186281
BeatmapSetID:561021

[Difficulty]
HPDrainRate:0
CircleSize:4
OverallDifficulty:9
ApproachRate:9.6
SliderMultiplier:1.4
SliderTickRate:1

[Events]
//Background and Video events
0,0,"EGOISM 440-bg.png",0,0
//Break Periods
//Storyboard Layer 0 (Background)
//Storyboard Layer 1 (Fail)
//Storyboard Layer 2 (Pass)
//Storyboard Layer 3 (Foreground)
//Storyboard Sound Samples

[TimingPoints]
10915,272.727272727273,4,1,0,100,1,0
10915,-100,4,1,0,100,0,0

[HitObjects]
256,192,2188,5,0,0:0:0:0:
256,192,2256,12,0,5461,0:0:0:0:
384,272,6552,5,0,0:0:0:0:
464,336,6688,1,0,0:0:0:0:
464,336,6756,1,0,0:0:0:0:
464,336,6824,1,0,0:0:0:0:
384,272,7097,1,0,0:0:0:0:
384,272,7165,1,0,0:0:0:0:
384,272,7234,1,0,0:0:0:0:
384,272,7302,1,0,0:0:0:0:
384,272,7370,1,0,0:0:0:0:
320,160,7643,6,0,L|192:256,1,140
96,336,8052,1,0,0:0:0:0:
128,112,8733,5,0,0:0:0:0:
48,48,8869,1,0,0:0:0:0:
48,48,8937,1,0,0:0:0:0:
48,48,9005,1,0,0:0:0:0:
128,112,9278,1,0,0:0:0:0:
128,112,9346,1,0,0:0:0:0:
128,112,9415,1,0,0:0:0:0:
128,112,9484,1,0,0:0:0:0:
128,112,9552,1,0,0:0:0:0:
192,224,9824,6,0,L|304:140,1,140
416,48,10234,1,0,0:0:0:0:
416,48,10915,5,0,0:0:0:0:
352,128,11052,1,0,0:0:0:0:
272,48,11188,1,0,0:0:0:0:
256,176,11324,2,0,P|176:224|128:208,1,140
136,213,11734,5,0,0:0:0:0:
240,240,11870,1,0,0:0:0:0:
336,192,12006,1,0,0:0:0:0:
416,112,12143,1,0,0:0:0:0:
432,224,12279,1,0,0:0:0:0:
336,192,12415,2,0,P|256:240|208:240,1,140
211,240,12756,1,0,0:0:0:0:
211,240,12824,1,0,0:0:0:0:
211,240,12893,1,0,0:0:0:0:
80,80,13234,5,0,0:0:0:0:
160,144,13371,1,0,0:0:0:0:
256,176,13507,1,0,0:0:0:0:
352,128,13643,2,0,P|384:192|368:272,1,140
368,256,13915,5,0,0:0:0:0:
256,176,14052,1,0,0:0:0:0:
224,288,14188,1,0,0:0:0:0:
144,208,14324,1,0,0:0:0:0:
160,96,14461,2,0,P|224:96|208:112,1,140
225,91,14802,1,0,0:0:0:0:
225,91,14870,1,0,0:0:0:0:
416,48,15006,1,0,0:0:0:0:
416,48,15074,1,0,0:0:0:0:
416,48,15143,1,0,0:0:0:0:
208,64,15278,5,0,0:0:0:0:
312,96,15415,1,0,0:0:0:0:
144,136,15551,1,0,0:0:0:0:
368,192,15687,1,0,0:0:0:0:
104,256,15824,1,0,0:0:0:0:
408,320,15960,1,0,0:0:0:0:
72,344,16096,1,0,0:0:0:0:
464,264,16233,1,0,0:0:0:0:
72,200,16369,1,0,0:0:0:0:
464,144,16505,1,0,0:0:0:0:
72,48,16642,1,0,0:0:0:0:
472,32,16778,1,0,0:0:0:0:
304,64,17460,5,0,0:0:0:0:
200,96,17597,1,0,0:0:0:0:
368,136,17733,1,0,0:0:0:0:
144,192,17869,1,0,0:0:0:0:
408,256,18006,1,0,0:0:0:0:
104,320,18142,1,0,0:0:0:0:
440,344,18278,1,0,0:0:0:0:
48,264,18415,1,0,0:0:0:0:
440,200,18551,1,0,0:0:0:0:
48,144,18687,1,0,0:0:0:0:
440,48,18824,1,0,0:0:0:0:
40,32,18960,1,0,0:0:0:0:
128,80,19643,5,0,0:0:0:0:
116,100,19711,1,0,0:0:0:0:
108,120,19779,1,0,0:0:0:0:
104,140,19847,1,0,0:0:0:0:
104,140,19915,1,0,0:0:0:0:
100,168,19984,1,0,0:0:0:0:
96,192,20052,1,0,0:0:0:0:
92,216,20120,1,0,0:0:0:0:
88,252,20188,1,0,0:0:0:0:
140,240,20256,1,0,0:0:0:0:
168,260,20324,1,0,0:0:0:0:
200,276,20393,1,0,0:0:0:0:
232,288,20461,1,0,0:0:0:0:
268,284,20529,1,0,0:0:0:0:
300,272,20597,1,0,0:0:0:0:
336,264,20665,1,0,0:0:0:0:
348,232,20734,1,0,0:0:0:0:
352,208,20802,1,0,0:0:0:0:
352,176,20870,1,0,0:0:0:0:
352,144,20938,1,0,0:0:0:0:
336,128,21006,1,0,0:0:0:0:
320,112,21074,1,0,0:0:0:0:
304,96,21143,1,0,0:0:0:0:
288,96,21211,1,0,0:0:0:0:
256,96,21279,1,0,0:0:0:0:
224,96,21347,1,0,0:0:0:0:
192,112,21415,1,0,0:0:0:0:
176,128,21484,1,0,0:0:0:0:
160,144,21552,1,0,0:0:0:0:
144,160,21620,1,0,0:0:0:0:
128,176,21688,1,0,0:0:0:0:
456,32,21961,5,0,0:0:0:0:
452,52,22029,1,0,0:0:0:0:
448,88,22097,1,0,0:0:0:0:
444,124,22165,1,0,0:0:0:0:
436,160,22233,1,0,0:0:0:0:
428,196,22302,1,0,0:0:0:0:
408,224,22370,1,0,0:0:0:0:
368,256,22438,1,0,0:0:0:0:
324,284,22506,1,0,0:0:0:0:
276,304,22574,1,0,0:0:0:0:
224,304,22643,1,0,0:0:0:0:
172,292,22711,1,0,0:0:0:0:
124,268,22779,1,0,0:0:0:0:
84,232,22847,1,0,0:0:0:0:
60,200,22915,1,0,0:0:0:0:
84,232,22984,1,0,0:0:0:0:
124,268,23052,1,0,0:0:0:0:
172,292,23120,1,0,0:0:0:0:
224,304,23188,1,0,0:0:0:0:
276,304,23256,1,0,0:0:0:0:
328,288,23324,1,0,0:0:0:0:
368,256,23393,1,0,0:0:0:0:
408,224,23461,1,0,0:0:0:0:
440,180,23529,1,0,0:0:0:0:
456,132,23597,1,0,0:0:0:0:
464,80,23665,1,0,0:0:0:0:
460,40,23734,1,0,0:0:0:0:
460,40,23802,1,0,0:0:0:0:
460,40,23870,1,0,0:0:0:0:
120,56,24005,5,0,0:0:0:0:
368,80,24142,1,0,0:0:0:0:
88,176,24278,1,0,0:0:0:0:
384,248,24415,1,0,0:0:0:0:
72,304,24551,1,0,0:0:0:0:
424,336,24687,1,0,0:0:0:0:
48,248,24824,1,0,0:0:0:0:
464,232,24960,1,0,0:0:0:0:
64,112,25096,1,0,0:0:0:0:
440,88,25233,1,0,0:0:0:0:
24,48,25369,1,0,0:0:0:0:
424,184,25505,1,0,0:0:0:0:
120,56,26187,5,0,0:0:0:0:
368,80,26324,1,0,0:0:0:0:
88,176,26460,1,0,0:0:0:0:
384,248,26597,1,0,0:0:0:0:
72,304,26733,1,0,0:0:0:0:
424,336,26869,1,0,0:0:0:0:
48,248,27006,1,0,0:0:0:0:
464,232,27142,1,0,0:0:0:0:
64,112,27278,1,0,0:0:0:0:
440,88,27415,1,0,0:0:0:0:
24,48,27551,1,0,0:0:0:0:
424,184,27687,1,0,0:0:0:0:
256,192,27824,1,0,0:0:0:0:
256,192,27960,1,0,0:0:0:0:
256,192,28096,1,0,0:0:0:0:
256,192,28165,1,0,0:0:0:0:
256,192,28233,1,0,0:0:0:0:
112,64,28370,5,0,0:1:0:0:
400,64,28506,1,0,0:0:0:0:
400,320,28643,1,0,0:1:0:0:
112,320,28779,1,0,0:0:0:0:
112,64,28915,1,0,0:0:0:0:
256,192,29052,1,0,0:0:0:0:
256,192,29120,1,0,0:0:0:0:
256,192,29188,1,0,0:0:0:0:
112,192,29324,5,0,0:0:0:0:
256,320,29461,1,0,0:0:0:0:
400,192,29597,1,0,0:0:0:0:
256,64,29734,1,0,0:0:0:0:
112,192,29870,1,0,0:0:0:0:
400,192,30006,1,0,0:0:0:0:
400,192,30143,1,0,0:0:0:0:
112,192,30279,1,0,0:0:0:0:
112,320,30824,5,0,0:0:0:0:
112,64,30961,1,0,0:0:0:0:
400,64,31097,1,0,0:0:0:0:
400,320,31234,1,0,0:0:0:0:
400,192,31506,5,0,0:0:0:0:
256,320,31643,1,0,0:0:0:0:
112,192,31779,1,0,0:0:0:0:
256,64,31915,1,0,0:0:0:0:
256,320,32052,1,0,0:0:0:0:
256,64,32188,1,0,0:0:0:0:
112,192,32324,1,0,0:0:0:0:
384,192,32461,1,0,0:0:0:0:
112,64,33006,5,0,0:0:0:0:
384,320,33143,1,0,0:0:0:0:
112,320,33279,1,0,0:0:0:0:
384,64,33415,1,0,0:0:0:0:
256,192,33552,1,0,0:0:0:0:
256,192,33620,1,0,0:0:0:0:
256,192,33688,1,0,0:0:0:0:
384,320,33824,5,0,0:0:0:0:
112,64,33961,1,0,0:0:0:0:
384,64,34097,1,0,0:0:0:0:
112,320,34234,1,0,0:0:0:0:
384,192,34370,1,0,0:0:0:0:
112,192,34506,1,0,0:0:0:0:
384,192,34643,1,0,0:0:0:0:
256,64,34779,1,0,0:0:0:0:
112,320,35052,5,0,0:0:0:0:
256,64,35188,1,0,0:0:0:0:
384,320,35324,1,0,0:0:0:0:
112,176,35461,1,0,0:0:0:0:
384,176,35597,1,0,0:0:0:0:
112,64,35870,5,0,0:0:0:0:
112,320,36006,1,0,0:0:0:0:
384,320,36143,1,0,0:0:0:0:
384,64,36279,1,0,0:0:0:0:
112,64,36415,1,0,0:0:0:0:
384,64,36552,1,0,0:0:0:0:
384,320,36688,1,0,0:0:0:0:
112,320,36824,1,0,0:0:0:0:
64,64,37097,6,0,P|112:128|176:144,1,140
160,144,37370,1,0,0:0:0:0:
224,208,37506,1,0,0:0:0:0:
288,144,37643,1,0,0:0:0:0:
352,192,37711,1,0,0:0:0:0:
384,272,37779,1,0,0:0:0:0:
80,80,37915,5,0,0:0:0:0:
144,304,38052,1,0,0:0:0:0:
208,64,38188,5,0,0:0:0:0:
272,288,38325,1,0,0:0:0:0:
320,32,38461,5,0,0:0:0:0:
384,256,38598,1,0,0:0:0:0:
208,64,38734,5,0,0:0:0:0:
272,288,38870,1,0,0:0:0:0:
80,80,39006,5,0,0:0:0:0:
144,304,39143,1,0,0:0:0:0:
64,128,39279,5,0,0:0:0:0:
112,64,39415,1,0,0:0:0:0:
192,48,39552,1,0,0:0:0:0:
320,256,39688,1,0,0:0:0:0:
240,288,39824,1,0,0:0:0:0:
160,256,39961,1,0,0:0:0:0:
416,192,40097,1,0,0:0:0:0:
432,112,40234,1,0,0:0:0:0:
480,48,40370,1,0,0:0:0:0:
112,176,40506,1,0,0:0:0:0:
160,112,40643,1,0,0:0:0:0:
240,96,40779,1,0,0:0:0:0:
240,176,40847,1,0,0:0:0:0:
240,256,40915,1,0,0:0:0:0:
416,192,41052,5,0,0:0:0:0:
352,128,41188,1,0,0:0:0:0:
272,112,41324,1,0,0:0:0:0:
240,320,41461,1,0,0:0:0:0:
160,288,41597,1,0,0:0:0:0:
112,224,41734,1,0,0:0:0:0:
368,224,41870,1,0,0:0:0:0:
128,80,42006,1,0,0:0:0:0:
192,144,42074,1,0,0:0:0:0:
256,80,42143,1,0,0:0:0:0:
128,80,42211,1,0,0:0:0:0:
192,288,42415,5,0,0:0:0:0:
320,192,42552,2,0,L|240:192,1,70
192,192,42824,2,0,L|288:192,1,70
432,80,43097,5,0,0:0:0:0:
384,160,43234,1,0,0:0:0:0:
320,96,43370,1,0,0:0:0:0:
432,80,43506,1,0,0:0:0:0:
384,160,43643,1,0,0:0:0:0:
336,240,43779,1,0,0:0:0:0:
272,176,43915,1,0,0:0:0:0:
384,160,44052,1,0,0:0:0:0:
112,304,44188,5,0,0:0:0:0:
176,304,44256,1,0,0:0:0:0:
112,304,44324,1,0,0:0:0:0:
176,304,44393,1,0,0:0:0:0:
112,304,44461,1,0,0:0:0:0:
176,304,44529,1,0,0:0:0:0:
112,304,44597,1,0,0:0:0:0:
368,288,44734,5,0,0:0:0:0:
400,208,44870,1,0,0:0:0:0:
352,144,45006,1,0,0:0:0:0:
112,192,45143,1,0,0:0:0:0:
192,208,45279,1,0,0:0:0:0:
256,272,45415,1,0,0:0:0:0:
416,64,45552,1,0,0:0:0:0:
144,304,45688,1,0,0:0:0:0:
336,352,45824,5,0,0:0:0:0:
208,64,46097,1,0,0:0:0:0:
448,112,46370,1,0,0:0:0:0:
96,176,46643,1,0,0:0:0:0:
352,64,46915,6,0,B|368:208|368:208|272:320,1,280
280,310,47461,1,0,0:0:0:0:
112,112,47734,1,0,0:0:0:0:
320,80,47870,1,0,0:0:0:0:
144,240,48006,2,0,B|256:240|288:240|288:240|400:160,1,280
398,160,48552,1,0,0:0:0:0:
384,64,48824,1,0,0:0:0:0:
128,288,48961,1,0,0:0:0:0:
336,272,49097,2,0,B|304:176|208:192|208:192|208:80,1,280
208,79,49643,1,0,0:0:0:0:
80,224,49915,1,0,0:0:0:0:
384,64,50052,1,0,0:0:0:0:
384,256,50188,2,0,P|240:272|272:208,1,280
250,230,50734,1,0,0:0:0:0:
96,320,51006,1,0,0:0:0:0:
208,48,51143,1,0,0:0:0:0:
128,240,51279,5,0,0:0:0:0:
128,240,51552,1,0,0:0:0:0:
288,48,51688,1,0,0:0:0:0:
368,128,51824,1,0,0:0:0:0:
368,128,51893,1,0,0:0:0:0:
368,128,51961,1,0,0:0:0:0:
224,160,52097,1,0,0:0:0:0:
400,272,52234,1,0,0:0:0:0:
128,256,52370,5,0,0:0:0:0:
272,64,52506,1,0,0:0:0:0:
324,152,52574,1,0,0:0:0:0:
220,152,52643,1,0,0:0:0:0:
272,64,52711,1,0,0:0:0:0:
416,56,52915,1,0,0:0:0:0:
96,244,53188,1,0,0:0:0:0:
264,200,53256,1,0,0:0:0:0:
436,156,53324,1,0,0:0:0:0:
364,280,53461,5,0,0:0:0:0:
56,184,53734,1,0,0:0:0:0:
432,228,53870,1,0,0:0:0:0:
200,256,54006,1,0,0:0:0:0:
292,76,54279,1,0,0:0:0:0:
248,168,54347,1,0,0:0:0:0:
200,256,54415,1,0,0:0:0:0:
336,256,54552,1,0,0:0:0:0:
480,144,54824,1,0,0:0:0:0:
32,288,54961,1,0,0:0:0:0:
416,48,55097,1,0,0:0:0:0:
112,336,55370,5,0,0:0:0:0:
352,64,55643,1,0,0:0:0:0:
96,160,55915,1,0,0:0:0:0:
448,224,56188,1,0,0:0:0:0:
80,304,56461,1,0,0:0:0:0:
400,48,56734,1,0,0:0:0:0:
160,160,57279,5,0,0:0:0:0:
352,176,57552,1,0,0:0:0:0:
80,176,57824,1,0,0:0:0:0:
464,192,58097,1,0,0:0:0:0:
48,112,58370,1,0,0:0:0:0:
464,272,58643,1,0,0:0:0:0:
224,160,58915,5,0,0:0:0:0:
288,160,59188,1,0,0:0:0:0:
288,224,59461,1,0,0:0:0:0:
224,224,59734,1,0,0:0:0:0:
96,224,60006,5,0,0:0:0:0:
224,80,60279,1,0,0:0:0:0:
224,80,60347,1,0,0:0:0:0:
224,80,60415,1,0,0:0:0:0:
384,128,60552,1,0,0:0:0:0:
304,224,60824,1,0,0:0:0:0:
96,160,60961,1,0,0:0:0:0:
176,288,61097,5,0,0:0:0:0:
240,48,61234,1,0,0:0:0:0:
144,112,61302,1,0,0:0:0:0:
272,144,61370,1,0,0:0:0:0:
368,288,61506,1,0,0:0:0:0:
416,96,61643,1,0,0:0:0:0:
144,224,61915,5,0,0:0:0:0:
432,128,62052,1,0,0:0:0:0:
192,96,62188,5,0,0:0:0:0:
384,272,62461,1,0,0:0:0:0:
192,96,62734,1,0,0:0:0:0:
192,96,63006,1,0,0:0:0:0:
288,192,63074,1,0,0:0:0:0:
384,272,63143,1,0,0:0:0:0:
160,176,63279,5,0,0:0:0:0:
400,224,63552,1,0,0:0:0:0:
208,320,63688,1,0,0:0:0:0:
272,32,63824,1,0,0:0:0:0:
224,160,64097,1,0,0:0:0:0:
224,160,64165,1,0,0:0:0:0:
224,160,64234,1,0,0:0:0:0:
48,48,64370,5,0,0:0:0:0:
48,336,64507,1,0,0:0:0:0:
448,336,64643,1,0,0:0:0:0:
448,64,64779,1,0,0:0:0:0:
256,192,64915,1,0,0:0:0:0:
256,192,64984,1,0,0:0:0:0:
256,192,65052,1,0,0:0:0:0:
352,96,65188,5,0,0:0:0:0:
352,288,65324,1,0,0:0:0:0:
160,288,65461,1,0,0:0:0:0:
160,96,65597,1,0,0:0:0:0:
480,32,65734,1,0,0:0:0:0:
32,352,65870,1,0,0:0:0:0:
32,32,66006,1,0,0:0:0:0:
480,352,66143,1,0,0:0:0:0:
96,192,66688,5,0,0:0:0:0:
256,32,66824,1,0,0:0:0:0:
416,192,66961,1,0,0:0:0:0:
256,352,67097,1,0,0:0:0:0:
96,192,67370,1,0,0:0:0:0:
256,352,67506,1,0,0:0:0:0:
416,192,67643,1,0,0:0:0:0:
256,32,67779,1,0,0:0:0:0:
256,352,67915,1,0,0:0:0:0:
96,192,68052,1,0,0:0:0:0:
416,192,68188,1,0,0:0:0:0:
256,32,68324,1,0,0:0:0:0:
256,192,68734,1,0,0:0:0:0:
256,192,68870,12,0,70643,0:0:0:0:
256,192,70915,5,0,0:0:0:0:
304,128,71188,1,0,0:0:0:0:
208,256,71324,1,0,0:0:0:0:
400,112,71461,1,0,0:0:0:0:
112,272,71597,1,0,0:0:0:0:
400,32,71734,1,0,0:0:0:0:
112,352,71870,1,0,0:0:0:0:
256,192,72006,5,0,0:0:0:0:
256,192,72074,1,0,0:0:0:0:
256,192,72143,1,0,0:0:0:0:
160,192,72279,5,0,0:0:0:0:
336,192,72415,2,0,B|304:160|304:160|272:192,4,70
256,64,73097,5,0,0:0:0:0:
208,128,73370,1,0,0:0:0:0:
304,256,73506,1,0,0:0:0:0:
112,112,73643,1,0,0:0:0:0:
400,272,73779,1,0,0:0:0:0:
112,32,73916,1,0,0:0:0:0:
400,352,74052,1,0,0:0:0:0:
192,192,74188,1,0,0:0:0:0:
320,192,74324,1,0,0:0:0:0:
224,80,74461,5,0,0:0:0:0:
288,80,74597,1,0,0:0:0:0:
160,80,74734,1,0,0:0:0:0:
352,80,74870,1,0,0:0:0:0:
96,80,75006,1,0,0:0:0:0:
416,80,75143,1,0,0:0:0:0:
256,192,75279,5,0,0:0:0:0:
320,240,75552,1,0,0:0:0:0:
192,144,75688,1,0,0:0:0:0:
336,336,75825,1,0,0:0:0:0:
176,48,75961,1,0,0:0:0:0:
416,336,76098,1,0,0:0:0:0:
96,48,76234,1,0,0:0:0:0:
256,192,76370,1,0,0:0:0:0:
256,192,76438,1,0,0:0:0:0:
256,192,76506,1,0,0:0:0:0:
416,304,76643,5,0,0:0:0:0:
96,304,76780,1,0,0:0:0:0:
352,304,76916,1,0,0:0:0:0:
160,304,77052,1,0,0:0:0:0:
288,304,77189,1,0,0:0:0:0:
224,304,77325,1,0,0:0:0:0:
256,192,77461,5,0,0:0:0:0:
256,192,77734,1,0,0:0:0:0:
208,128,78006,1,0,0:0:0:0:
304,256,78074,1,0,0:0:0:0:
144,144,78143,1,0,0:0:0:0:
352,224,78211,1,0,0:0:0:0:
144,80,78279,1,0,0:0:0:0:
368,304,78347,1,0,0:0:0:0:
32,32,78415,1,0,0:0:0:0:
224,192,78552,5,0,0:0:0:0:
256,160,78688,1,0,0:0:0:0:
288,192,78824,1,0,0:0:0:0:
256,224,78961,1,0,0:0:0:0:
384,96,79097,2,0,L|448:32,1,70
128,288,79370,2,0,L|78:337,1,70
96,80,79643,5,0,0:0:0:0:
192,160,79779,1,0,0:0:0:0:
80,208,79915,1,0,0:0:0:0:
208,288,80052,2,0,B|256:288|256:288|272:256,1,70
272,272,80188,1,0,0:0:0:0:
288,272,80256,1,0,0:0:0:0:
265,268,80324,1,0,0:0:0:0:
288,272,80393,1,0,0:0:0:0:
272,272,80461,1,0,0:0:0:0:
352,192,80597,5,0,0:0:0:0:
256,112,80734,1,0,0:0:0:0:
128,128,80870,1,0,0:0:0:0:
256,112,81006,1,0,0:0:0:0:
128,128,81143,1,0,0:0:0:0:
224,192,81279,1,0,0:0:0:0:
256,224,81347,1,0,0:0:0:0:
288,192,81415,1,0,0:0:0:0:
256,160,81484,1,0,0:0:0:0:
192,256,81552,1,0,0:0:0:0:
256,96,81620,1,0,0:0:0:0:
320,256,81688,1,0,0:0:0:0:
416,112,81961,5,0,0:0:0:0:
400,272,82097,1,0,0:0:0:0:
304,96,82234,1,0,0:0:0:0:
272,256,82370,1,0,0:0:0:0:
272,256,82438,1,0,0:0:0:0:
272,256,82506,1,0,0:0:0:0:
272,256,82574,1,0,0:0:0:0:
144,240,82643,1,0,0:0:0:0:
192,80,82779,1,0,0:0:0:0:
272,256,82915,1,0,0:0:0:0:
304,96,83052,1,0,0:0:0:0:
400,272,83188,1,0,0:0:0:0:
192,80,83324,1,0,0:0:0:0:
128,224,83461,5,0,0:0:0:0:
384,192,83597,1,0,0:0:0:0:
256,48,83734,1,0,0:0:0:0:
160,32,83802,1,0,0:0:0:0:
208,32,83870,1,0,0:0:0:0:
256,192,84006,5,0,0:0:0:0:
288,192,84074,1,0,0:0:0:0:
272,160,84143,1,0,0:0:0:0:
240,160,84211,1,0,0:0:0:0:
208,176,84279,1,0,0:0:0:0:
208,208,84347,1,0,0:0:0:0:
224,240,84415,1,0,0:0:0:0:
256,256,84484,1,0,0:0:0:0:
288,256,84552,1,0,0:0:0:0:
320,256,84620,1,0,0:0:0:0:
336,240,84688,1,0,0:0:0:0:
352,208,84756,1,0,0:0:0:0:
352,176,84824,1,0,0:0:0:0:
336,144,84893,1,0,0:0:0:0:
304,112,84961,1,0,0:0:0:0:
256,96,85029,1,0,0:0:0:0:
208,96,85097,1,0,0:0:0:0:
176,112,85165,1,0,0:0:0:0:
160,160,85234,1,0,0:0:0:0:
160,208,85302,1,0,0:0:0:0:
192,240,85370,1,0,0:0:0:0:
240,272,85438,1,0,0:0:0:0:
288,272,85506,1,0,0:0:0:0:
336,240,85574,1,0,0:0:0:0:
352,176,85643,1,0,0:0:0:0:
320,128,85711,1,0,0:0:0:0:
288,80,85779,1,0,0:0:0:0:
240,64,85847,1,0,0:0:0:0:
192,64,85915,1,0,0:0:0:0:
112,80,85984,1,0,0:0:0:0:
64,144,86052,1,0,0:0:0:0:
424,136,86324,5,0,0:0:0:0:
360,96,86393,1,0,0:0:0:0:
288,80,86461,1,0,0:0:0:0:
216,80,86529,1,0,0:0:0:0:
144,88,86597,1,0,0:0:0:0:
96,144,86665,1,0,0:0:0:0:
80,208,86734,1,0,0:0:0:0:
88,272,86802,1,0,0:0:0:0:
152,304,86870,1,0,0:0:0:0:
224,320,86938,1,0,0:0:0:0:
296,304,87006,1,0,0:0:0:0:
352,264,87074,1,0,0:0:0:0:
392,200,87143,1,0,0:0:0:0:
336,128,87211,1,0,0:0:0:0:
248,120,87279,1,0,0:0:0:0:
176,176,87347,1,0,0:0:0:0:
216,256,87415,1,0,0:0:0:0:
296,224,87484,1,0,0:0:0:0:
336,128,87552,1,0,0:0:0:0:
280,64,87620,1,0,0:0:0:0:
192,72,87688,1,0,0:0:0:0:
120,120,87756,1,0,0:0:0:0:
80,200,87824,1,0,0:0:0:0:
120,280,87893,1,0,0:0:0:0:
192,328,87961,1,0,0:0:0:0:
280,336,88029,1,0,0:0:0:0:
416,320,88097,1,0,0:0:0:0:
440,184,88165,1,0,0:0:0:0:
376,56,88234,1,0,0:0:0:0:
96,336,88370,5,0,0:0:0:0:
360,48,88506,1,0,0:0:0:0:
440,56,88915,5,0,0:0:0:0:
40,296,89052,1,0,0:0:0:0:
352,128,89461,5,0,0:0:0:0:
448,216,89597,1,0,0:0:0:0:
440,72,89734,1,0,0:0:0:0:
280,32,89870,1,0,0:0:0:0:
112,248,90006,1,0,0:0:0:0:
184,320,90143,1,0,0:0:0:0:
48,160,90279,1,0,0:0:0:0:
440,72,90415,1,0,0:0:0:0:
144,336,90688,5,0,0:0:0:0:
256,56,90824,1,0,0:0:0:0:
368,336,90961,1,0,0:0:0:0:
72,160,91097,1,0,0:0:0:0:
440,160,91234,1,0,0:0:0:0:
368,336,91506,5,0,0:0:0:0:
256,56,91642,1,0,0:0:0:0:
144,336,91779,1,0,0:0:0:0:
440,160,91915,1,0,0:0:0:0:
72,160,92052,1,0,0:0:0:0:
32,360,92324,5,0,0:0:0:0:
480,32,92461,1,0,0:0:0:0:
256,192,92597,1,0,0:0:0:0:
32,32,92734,1,0,0:0:0:0:
480,352,92870,1,0,0:0:0:0:
384,120,93143,5,0,0:0:0:0:
88,304,93279,1,0,0:0:0:0:
464,40,93415,1,0,0:0:0:0:
128,120,93688,5,0,0:0:0:0:
424,304,93824,1,0,0:0:0:0:
48,40,93960,1,0,0:0:0:0:
256,192,94097,5,0,0:0:0:0:
256,192,94165,12,0,96279,0:0:0:0:
