osu file format v14

[General]
AudioFilename: audio.mp3
AudioLeadIn: 0
PreviewTime: 9664
Countdown: 0
SampleSet: Normal
StackLeniency: 0.7
Mode: 2
LetterboxInBreaks: 0
WidescreenStoryboard: 1

[Editor]
DistanceSpacing: 1
BeatDivisor: 4
GridSize: 4
TimelineZoom: 1.9

[Metadata]
Title:EGOISM 440
TitleUnicode:EGOISM 440
Artist:U1 High-Speed
ArtistUnicode:U1 High-Speed
Creator:Ascendance
Version:ZiRoX's Difficult
Source:DanceDanceRevolution
Tags:Replicant D-ignitioni jbhyperion jbh zirox hareimu deif razor sharp arthas clsw minato yukina ajamez benny- benita bennybananas spectator 浅見祐一 yuichi asami DDR revolution
BeatmapID:1659520
BeatmapSetID:717720

[Difficulty]
HPDrainRate:5
CircleSize:3.5
OverallDifficulty:8.3
ApproachRate:8.3
SliderMultiplier:1.3
SliderTickRate:2

[Events]
//Background and Video events
0,0,"14.jpg",0,0
//Break Periods
//Storyboard Layer 0 (Background)
//Storyboard Layer 1 (Fail)
//Storyboard Layer 2 (Pass)
//Storyboard Layer 3 (Foreground)
//Storyboard Sound Samples

[TimingPoints]
979,272.727272727273,4,2,1,60,1,0
7524,-100,4,2,1,65,0,0
8615,-100,4,2,1,70,0,0
9160,-100,4,2,1,55,0,0
9706,-100,4,1,1,75,0,1
27160,-100,4,1,0,60,0,0
35888,-100,4,1,1,72,0,0
44615,-100,4,1,1,65,0,0
50069,-100,4,1,1,80,0,1
54433,-100,4,1,1,60,0,0
56615,-100,4,1,1,70,0,0
58797,-100,4,1,1,90,0,1
63160,-100,4,1,0,60,0,0
67797,-100,4,1,1,55,0,0
68342,-100,4,1,1,60,0,0
68615,-100,4,1,1,63,0,0
69160,-100,4,1,1,66,0,0
69706,-100,4,1,1,75,0,0
78433,-100,4,1,1,90,0,1
87160,-100,4,1,1,60,0,0
87229,-100,4,1,0,60,0,0
93024,-100,4,2,0,58,0,0
94933,-100,4,2,0,10,0,0

[Colours]
Combo1 : 192,192,192
Combo2 : 0,170,85
Combo3 : 0,85,170

[HitObjects]
256,192,979,12,0,4797,0:0:0:0:
160,240,5342,6,0,L|96:192,2,65,2|0|2,0:0|0:0|0:0,0:0:0:0:
312,240,5888,1,2,0:0:0:0:
372,195,6024,1,0,0:0:0:0:
432,150,6160,1,2,0:0:0:0:
208,240,6433,6,0,L|368:240,1,130,2|0,0:0|0:0,0:0:0:0:
424,240,6842,1,2,0:0:0:0:
240,240,7251,1,0,0:0:0:0:
368,240,7524,6,0,L|432:192,2,65,2|0|2,0:0|0:0|0:0,0:0:0:0:
216,240,8070,1,2,0:0:0:0:
156,195,8206,1,0,0:0:0:0:
96,150,8342,1,2,0:0:0:0:
256,192,8615,12,0,9433,0:0:0:0:
352,104,9706,6,0,L|368:184,1,65,0|0,0:0|0:0,0:0:0:0:
280,184,9979,2,0,L|264:264,1,65,2|0,0:3|0:0,0:0:0:0:
432,272,10251,2,0,P|480:216|464:144,1,130,0|2,0:2|0:3,0:0:0:0:
400,120,10660,1,0,0:0:0:0:
192,120,10797,6,0,L|112:120,1,65,2|0,0:3|0:0,0:0:0:0:
192,120,11069,2,0,L|280:120,1,65,2|0,0:3|0:0,0:0:0:0:
96,200,11342,1,2,0:3:0:0:
72,208,11410,1,0,0:0:0:0:
96,200,11478,1,2,0:0:0:0:
176,200,11615,1,2,0:3:0:0:
200,208,11683,1,0,0:0:0:0:
176,200,11751,1,2,0:0:0:0:
40,104,12024,6,0,L|24:184,1,65,0|2,0:0|0:3,0:0:0:0:
112,184,12297,2,0,L|128:264,1,65,0|4,0:0|0:1,0:0:0:0:
344,256,12706,2,0,L|392:200,1,65,2|0,0:3|0:0,0:0:0:0:
232,184,12979,6,0,L|219:120,1,65,2|0,0:3|0:0,0:0:0:0:
312,120,13251,2,0,L|299:56,1,65,2|0,0:3|0:0,0:0:0:0:
216,104,13524,2,0,L|203:40,1,65,2|0,0:3|0:0,0:0:0:0:
360,40,13797,2,0,L|400:56,2,32.5,2|0|2,0:3|0:0|0:0,0:0:0:0:
120,240,14069,6,0,L|56:192,2,65,4|0|2,0:2|0:0|0:3,0:0:0:0:
272,240,14615,1,8,0:3:0:0:
304,216,14683,1,0,0:0:0:0:
332,195,14751,1,0,0:0:0:0:
360,176,14819,1,0,0:0:0:0:
392,150,14887,1,2,0:3:0:0:
288,96,15024,1,0,0:0:0:0:
144,240,15160,6,0,L|304:240,1,130,4|2,0:3|0:3,0:0:0:0:
360,240,15569,1,2,0:2:0:0:
144,240,15978,1,2,0:3:0:0:
116,221,16046,1,0,0:0:0:0:
84,195,16114,1,0,0:0:0:0:
328,240,16251,6,0,L|392:192,2,65,4|0|2,0:2|0:0|0:3,0:0:0:0:
176,240,16797,1,8,0:3:0:0:
208,216,16865,1,0,0:0:0:0:
236,195,16933,1,0,0:0:0:0:
264,176,17001,1,0,0:0:0:0:
296,150,17069,1,2,0:3:0:0:
208,96,17206,1,0,0:0:0:0:
464,104,17342,6,0,P|495:182|456:240,1,130,4|2,0:0|0:3,0:0:0:0:
384,256,17751,1,2,0:0:0:0:
176,256,18160,1,2,0:3:0:0:
148,237,18228,1,0,0:0:0:0:
176,256,18296,1,2,0:0:0:0:
392,208,18433,6,0,L|408:288,1,65,4|0,0:0|0:0,0:0:0:0:
320,288,18706,2,0,L|304:368,1,65,10|0,0:0|0:0,0:0:0:0:
144,352,18978,2,0,P|96:296|112:224,1,130,10|8,0:0|0:0,0:0:0:0:
192,232,19387,1,0,0:0:0:0:
408,232,19524,6,0,L|488:232,1,65,8|0,0:0|0:0,0:0:0:0:
408,232,19796,2,0,L|320:232,1,65,8|0,0:0|0:0,0:0:0:0:
208,232,20069,1,8,0:0:0:0:
176,240,20137,1,0,0:0:0:0:
208,232,20205,1,2,0:2:0:0:
288,232,20342,1,8,0:0:0:0:
320,240,20410,1,0,0:0:0:0:
352,248,20478,1,2,0:2:0:0:
192,176,20751,6,0,L|176:256,1,65,0|8,0:0|0:0,0:0:0:0:
104,256,21024,2,0,L|120:336,1,65,0|8,0:0|0:0,0:0:0:0:
336,256,21433,2,0,L|348:192,1,65,8|0,0:0|0:0,0:0:0:0:
208,184,21706,6,0,L|195:120,1,65,8|0,0:0|0:0,0:0:0:0:
112,112,21978,2,0,L|125:48,1,65,8|0,0:0|0:0,0:0:0:0:
272,104,22251,2,0,L|259:40,1,65,8|2,0:0|0:0,0:0:0:0:
104,40,22524,2,0,L|64:56,2,32.5,8|0|2,0:0|0:0|0:0,0:0:0:0:
352,240,22796,6,0,L|416:192,2,65,4|0|2,0:2|0:0|0:3,0:0:0:0:
176,240,23342,1,4,0:0:0:0:
144,216,23410,1,0,0:0:0:0:
116,195,23478,1,0,0:0:0:0:
88,176,23546,1,0,0:0:0:0:
56,150,23614,1,2,0:3:0:0:
144,96,23751,1,0,0:0:0:0:
296,96,23887,6,0,L|136:96,1,130,4|2,0:0|0:3,0:0:0:0:
80,96,24296,1,2,0:2:0:0:
336,96,24705,1,2,0:3:0:0:
364,77,24773,1,0,0:0:0:0:
396,51,24841,1,0,0:0:0:0:
152,240,24978,6,0,L|88:192,2,65,4|0|2,0:2|0:0|0:3,0:0:0:0:
384,240,25524,1,4,0:0:0:0:
352,216,25592,1,0,0:0:0:0:
324,195,25660,1,0,0:0:0:0:
296,176,25728,1,0,0:0:0:0:
264,150,25796,1,2,0:3:0:0:
184,96,25933,1,0,0:0:0:0:
400,104,26069,6,0,P|431:182|392:240,1,130,4|2,0:0|0:3,0:0:0:0:
320,256,26478,1,2,0:2:0:0:
128,256,26887,1,2,0:3:0:0:
100,237,26955,1,0,0:0:0:0:
128,256,27023,1,2,0:0:0:0:
368,264,27160,6,0,L|448:264,2,65,0|0|0,1:0|0:0|0:0,0:0:0:0:
296,264,27569,1,0,0:0:0:0:
128,264,27706,2,0,P|72:208|152:128,1,195,2|2,0:2|0:2,0:0:0:0:
296,128,28251,6,0,L|384:128,1,65,2|2,0:2|0:2,0:0:0:0:
432,128,28524,2,0,L|344:128,1,65,2|2,0:2|0:2,0:0:0:0:
296,128,28797,2,0,L|208:128,1,65,2|4,0:2|0:3,0:0:0:0:
400,128,29069,1,8,0:3:0:0:
152,128,29615,6,0,L|216:128,1,65,0|2,0:0|0:2,0:0:0:0:
136,192,29888,2,0,L|200:192,1,65,2|2,0:2|0:2,0:0:0:0:
376,192,30297,6,0,L|288:192,1,65,2|2,0:2|0:2,0:0:0:0:
240,192,30570,2,0,L|328:192,1,65,2|2,0:2|0:2,0:0:0:0:
376,192,30843,2,0,L|464:192,1,65,2|2,0:2|0:2,0:0:0:0:
376,192,31115,1,4,0:3:0:0:
208,192,31251,1,2,0:2:0:0:
40,272,31797,6,0,L|120:272,2,65,0|2|2,0:0|0:2|0:2,0:0:0:0:
208,272,32206,2,0,P|264:216|184:136,1,195,2|2,0:2|0:2,0:0:0:0:
136,136,32751,6,0,L|48:136,1,65,2|2,0:2|0:2,0:0:0:0:
136,136,33024,2,0,L|224:136,1,65,2|2,0:2|0:2,0:0:0:0:
272,136,33297,2,0,L|360:136,1,65,4|0,0:3|0:0,0:0:0:0:
176,136,33569,1,2,0:2:0:0:
320,136,33842,6,0,L|336:224,1,65,2|2,0:2|0:2,0:0:0:0:
248,208,34115,2,0,L|264:296,1,65,2|2,0:2|0:2,0:0:0:0:
320,328,34388,1,2,0:0:0:0:
136,328,34661,6,0,L|224:328,1,65,2|2,0:2|0:2,0:0:0:0:
264,328,34934,2,0,L|176:328,1,65,0|0,0:0|0:0,0:0:0:0:
136,328,35207,2,0,L|48:328,1,65,2|2,0:2|0:2,0:0:0:0:
128,328,35479,2,0,L|192:328,1,65,2|2,0:2|0:2,0:0:0:0:
440,328,35888,6,0,L|368:328,2,65,4|0|8,0:2|0:0|0:0,0:0:0:0:
224,328,36433,2,0,L|192:328,4,32.5,2|0|0|0|8,0:3|0:0|0:0|0:0|0:0,0:0:0:0:
424,256,36979,6,0,L|272:256,1,130,2|8,0:3|0:0,0:0:0:0:
448,256,37388,2,0,P|480:192|440:144,1,130,0|0,0:0|0:0,0:0:0:0:
360,144,37797,2,0,L|264:144,1,65,8|2,0:0|0:2,0:0:0:0:
80,152,38069,6,0,P|49:206|82:258,1,130,4|8,0:2|0:0,0:0:0:0:
280,264,38615,2,0,L|312:264,4,32.5,2|0|0|0|8,0:3|0:0|0:0|0:0|0:0,0:0:0:0:
88,264,39160,6,0,L|240:264,1,130,2|8,0:3|0:0,0:0:0:0:
376,264,39569,2,0,P|408:200|368:152,1,130,2|0,0:2|0:0,0:0:0:0:
296,160,39979,2,0,L|200:160,1,65,8|2,0:0|0:2,0:0:0:0:
448,152,40251,6,0,P|479:206|446:258,1,130,4|8,0:2|0:0,0:0:0:0:
248,264,40797,2,0,L|216:264,4,32.5,2|0|0|0|8,0:3|0:0|0:0|0:0|0:0,0:0:0:0:
424,264,41342,6,0,L|272:264,1,130,2|8,0:3|0:0,0:0:0:0:
136,264,41751,2,0,P|104:200|144:152,1,130,2|0,0:2|0:0,0:0:0:0:
232,160,42160,2,0,L|312:160,1,65,8|0,0:0|0:0,0:0:0:0:
80,160,42433,6,0,P|49:214|82:266,1,130,4|8,0:2|0:0,0:0:0:0:
251,270,42979,2,0,L|283:270,4,32.5,2|0|0|0|2,0:3|0:0|0:0|0:0|0:3,0:0:0:0:
464,160,43524,6,0,P|494:214|461:266,1,130,2|8,0:3|0:0,0:0:0:0:
296,160,43933,2,0,P|265:214|298:266,1,130,0|0,0:0|0:0,0:0:0:0:
400,160,44342,1,8,0:0:0:0:
160,160,44615,5,4,1:2:0:0:
296,160,44888,1,2,0:0:0:0:
432,160,45160,1,2,0:0:0:0:
296,160,45433,1,2,0:0:0:0:
64,160,45706,6,0,L|216:160,1,130,6|2,0:2|0:0,0:0:0:0:
336,160,46251,2,0,L|184:160,1,130,8|2,0:0|0:0,0:0:0:0:
440,152,46797,6,0,P|436:244|278:290,1,260,2|0,0:0|0:0,0:0:0:0:
287,187,47479,1,0,0:0:0:0:
104,224,47751,1,0,0:0:0:0:
191,163,47888,2,0,L|326:150,1,130,0|2,0:0|0:0,0:0:0:0:
128,128,48433,1,8,0:0:0:0:
344,128,48706,2,0,L|352:64,1,65,2|2,0:0|0:0,0:0:0:0:
352,64,49115,5,0,0:0:0:0:
352,64,49388,1,0,0:0:0:0:
439,64,49524,1,8,0:0:0:0:
352,64,49660,1,0,0:0:0:0:
352,64,49933,1,0,0:0:0:0:
144,64,50069,6,0,L|120:88,1,32.5,0|0,0:0|0:0,0:0:0:0:
100,112,50206,1,0,0:0:0:0:
42,147,50342,2,0,L|18:171,2,32.5,8|0|0,0:0|0:0|0:0,0:0:0:0:
227,160,50615,1,0,0:0:0:0:
199,160,50683,1,0,0:0:0:0:
167,160,50751,1,0,0:0:0:0:
147,160,50819,1,0,0:0:0:0:
117,160,50887,1,8,0:0:0:0:
39,160,51024,1,0,0:0:0:0:
312,228,51160,5,0,0:0:0:0:
424,224,51365,2,0,L|456:224,3,32.5,0|8|0|4,0:0|0:1|0:0|0:0,0:0:0:0:
296,232,51706,2,0,P|256:184|296:136,1,130,0|8,0:0|1:1,0:0:0:0:
328,136,52047,1,0,0:0:0:0:
360,136,52115,1,0,0:0:0:0:
144,136,52251,6,0,P|88:184|104:240,1,130,2|8,0:2|0:0,0:0:0:0:
128,248,52592,1,0,0:0:0:0:
160,256,52660,1,0,0:0:0:0:
304,256,52797,2,0,L|384:256,1,65,2|0,0:2|0:0,0:0:0:0:
208,256,53069,2,0,L|176:256,2,32.5,10|0|0,0:0|0:0|0:0,0:0:0:0:
416,256,53342,6,0,L|488:256,2,65,4|0|8,0:0|0:0|0:0,0:0:0:0:
336,256,53751,1,0,0:0:0:0:
176,256,53888,6,0,L|112:256,1,65,4|2,0:0|0:2,0:0:0:0:
80,256,54092,1,0,0:0:0:0:
48,256,54160,1,8,0:0:0:0:
112,256,54297,1,0,0:0:0:0:
336,256,54433,6,0,P|376:213|336:168,1,130,4|4,0:2|0:0,0:0:0:0:
128,168,54979,2,0,P|120:224|176:280,1,130,8|4,0:0|0:0,0:0:0:0:
440,152,55524,6,0,P|432:232|256:280,1,260,2|8,0:2|0:0,0:0:0:0:
152,272,56342,1,2,0:2:0:0:
416,272,56615,5,4,0:2:0:0:
288,200,56888,1,2,0:2:0:0:
416,144,57160,1,8,0:0:0:0:
160,112,57433,2,0,P|240:160|320:104,1,195,4|0,0:0|0:0,0:0:0:0:
200,264,57979,2,0,L|152:272,3,32.5,4|0|0|0,0:0|0:0|0:0|0:0,0:0:0:0:
144,272,58251,2,0,P|96:232|128:160,1,130,8|4,0:0|0:0,0:0:0:0:
368,64,58797,6,0,L|392:88,2,32.5,0|0|0,0:0|0:0|0:0,0:0:0:0:
434,157,59070,2,0,L|458:181,2,32.5,8|0|0,0:0|0:0|0:0,0:0:0:0:
232,160,59343,1,4,0:0:0:0:
265,160,59411,1,0,0:0:0:0:
297,160,59479,1,0,0:0:0:0:
330,160,59547,1,0,0:0:0:0:
362,160,59615,1,8,0:0:0:0:
440,160,59752,1,0,0:0:0:0:
192,224,59888,5,4,0:0:0:0:
88,224,60093,2,0,L|56:224,3,32.5,0|0|0|2,0:0|0:0|0:0|0:2,0:0:0:0:
216,232,60434,2,0,P|256:184|216:136,1,130,4|8,0:0|0:0,0:0:0:0:
184,136,60775,1,0,0:0:0:0:
152,136,60843,1,0,0:0:0:0:
368,136,60979,6,0,P|424:184|408:240,1,130,0|8,0:0|0:0,0:0:0:0:
384,248,61320,1,0,0:0:0:0:
352,256,61388,1,0,0:0:0:0:
208,256,61525,2,0,L|128:256,1,65,6|0,0:0|0:0,0:0:0:0:
304,256,61797,2,0,L|336:256,2,32.5,8|0|0,0:0|0:0|0:0,0:0:0:0:
96,256,62070,6,0,L|24:256,2,65,4|2|8,0:0|0:2|0:0,0:0:0:0:
136,256,62410,1,0,0:0:0:0:
176,256,62479,1,0,0:0:0:0:
336,256,62616,6,0,L|400:256,1,65,4|0,0:0|0:0,0:0:0:0:
432,256,62820,1,0,0:0:0:0:
464,256,62888,1,8,0:0:0:0:
400,256,63025,1,0,0:0:0:0:
176,264,63160,6,0,L|96:264,2,65,2|2|2,0:2|0:2|0:2,0:0:0:0:
344,264,63569,2,0,P|400:208|320:128,1,195,2|2,0:2|0:2,0:0:0:0:
176,128,64114,6,0,L|88:128,1,65,0|2,0:0|0:2,0:0:0:0:
40,128,64387,2,0,L|128:128,1,65,2|2,0:2|0:2,0:0:0:0:
176,128,64660,2,0,L|264:128,1,65,2|0,0:2|0:0,0:0:0:0:
72,128,64932,1,4,0:3:0:0:
320,128,65478,6,0,L|256:128,1,65,2|2,0:2|0:2,0:0:0:0:
336,192,65751,2,0,L|272:192,1,65,2|2,0:2|0:2,0:0:0:0:
96,192,66160,6,0,L|184:192,1,65,2|2,0:2|0:2,0:0:0:0:
232,192,66433,2,0,L|144:192,1,65,2|2,0:2|0:2,0:0:0:0:
96,192,66706,2,0,L|8:192,1,65,2|2,0:2|0:2,0:0:0:0:
96,192,66978,1,2,0:2:0:0:
264,192,67114,1,0,0:0:0:0:
64,192,67524,5,4,0:2:0:0:
208,184,67797,2,0,L|216:248,1,65,4|4,0:0|0:0,0:0:0:0:
256,184,68069,2,0,L|264:248,1,65,4|4,0:0|0:0,0:0:0:0:
304,184,68342,2,0,L|312:248,1,65,4|4,0:0|0:0,0:0:0:0:
152,184,68615,6,0,L|160:248,1,65,4|4,0:0|0:0,0:0:0:0:
216,184,68888,2,0,L|224:248,1,65,4|4,0:0|0:0,0:0:0:0:
392,184,69160,2,0,L|400:248,1,65,4|4,0:0|0:0,0:0:0:0:
464,184,69433,1,4,0:0:0:0:
468,216,69501,1,4,0:0:0:0:
472,248,69569,1,4,0:0:0:0:
244,248,69706,5,4,0:2:0:0:
108,248,69979,2,0,L|44:208,1,65,10|2,0:0|0:0,0:0:0:0:
148,184,70251,2,0,L|84:144,1,65,6|2,0:0|0:0,0:0:0:0:
188,120,70524,2,0,L|124:80,1,65,10|2,0:0|0:0,0:0:0:0:
284,48,70797,6,0,L|316:48,4,32.5,4|0|2|0|8,0:0|0:0|0:2|0:0|0:0,0:0:0:0:
228,48,71206,1,0,0:0:0:0:
380,48,71342,2,0,L|308:88,1,65,4|0,0:0|0:0,0:0:0:0:
412,112,71615,2,0,L|340:152,1,65,8|0,0:0|0:0,0:0:0:0:
140,136,71888,5,4,0:2:0:0:
260,136,72161,2,0,L|315:101,1,65,8|2,0:0|0:0,0:0:0:0:
412,112,72433,2,0,L|348:152,1,65,6|4,0:0|0:0,0:0:0:0:
272,184,72706,2,0,L|208:224,1,65,10|2,0:0|0:0,0:0:0:0:
88,208,72979,6,0,L|56:208,4,32.5,4|0|2|0|8,0:0|0:0|0:2|0:0|0:0,0:0:0:0:
144,208,73388,1,2,0:2:0:0:
304,208,73524,6,0,L|336:208,4,32.5,4|0|0|0|8,0:0|0:0|0:0|0:0|0:0,0:0:0:0:
248,208,73933,1,0,0:0:0:0:
40,216,74069,5,4,0:2:0:0:
184,208,74342,2,0,L|248:168,1,65,8|2,0:0|0:0,0:0:0:0:
144,144,74614,2,0,L|208:104,1,65,6|2,0:0|0:0,0:0:0:0:
104,80,74887,2,0,L|168:40,1,65,10|2,0:0|0:0,0:0:0:0:
320,48,75160,6,0,L|352:48,4,32.5,0|0|0|0|2,0:0|0:0|0:0|0:0|0:2,0:0:0:0:
256,48,75569,1,2,0:2:0:0:
113,48,75705,2,0,L|185:88,1,65,2|2,0:2|0:2,0:0:0:0:
81,112,75978,2,0,L|153:152,1,65,2|2,0:2|0:2,0:0:0:0:
376,136,76251,5,4,0:0:0:0:
248,136,76524,2,0,L|193:101,1,65,8|2,0:0|0:0,0:0:0:0:
96,112,76796,1,6,0:0:0:0:
95,144,76864,1,0,0:0:0:0:
95,176,76932,1,0,0:0:0:0:
228,192,77069,1,8,0:0:0:0:
227,224,77137,1,0,0:0:0:0:
227,256,77205,1,0,0:0:0:0:
380,208,77342,6,0,L|412:208,4,32.5,4|0|2|0|8,0:0|0:0|0:0|0:0|0:0,0:0:0:0:
324,208,77751,1,2,0:0:0:0:
156,208,77888,6,0,L|128:340,1,130,2|4,0:2|0:3,0:0:0:0:
352,104,78433,6,0,L|368:176,1,65,4|0,0:0|0:0,0:0:0:0:
280,184,78706,2,0,L|264:264,1,65,8|0,0:0|0:0,0:0:0:0:
432,272,78979,2,0,P|480:216|464:144,1,130,2|8,0:2|0:0,0:0:0:0:
400,120,79388,1,2,0:1:0:0:
192,120,79524,6,0,L|112:120,1,65,4|0,0:0|0:0,0:0:0:0:
192,120,79797,2,0,L|280:120,1,65,8|0,0:0|0:0,0:0:0:0:
96,200,80069,1,2,0:2:0:0:
72,208,80138,1,0,0:0:0:0:
96,200,80206,1,2,0:2:0:0:
176,200,80342,1,2,0:2:0:0:
200,208,80410,1,0,0:0:0:0:
176,200,80478,1,2,0:2:0:0:
40,104,80752,6,0,L|24:184,1,65,0|8,0:0|0:0,0:0:0:0:
112,184,81025,2,0,L|128:264,1,65,0|0,0:0|0:0,0:0:0:0:
344,256,81433,2,0,L|392:200,1,65,8|0,0:0|0:0,0:0:0:0:
232,184,81707,6,0,L|219:120,1,65,4|0,0:0|0:0,0:0:0:0:
312,120,81979,2,0,L|299:56,1,65,8|0,0:0|0:0,0:0:0:0:
216,104,82252,2,0,L|203:40,1,65,2|2,0:2|0:2,0:0:0:0:
360,40,82525,2,0,L|400:56,2,32.5,2|0|0,0:2|0:0|0:0,0:0:0:0:
120,240,82797,6,0,L|56:192,2,65,4|0|8,0:2|0:0|0:0,0:0:0:0:
200,248,83206,1,0,0:0:0:0:
272,240,83343,1,4,0:0:0:0:
304,216,83411,1,0,0:0:0:0:
332,195,83479,1,2,0:2:0:0:
360,176,83547,1,0,0:0:0:0:
392,152,83615,2,0,L|400:88,1,65,8|0,0:0|0:0,0:0:0:0:
261,128,83888,6,0,L|269:64,1,65,4|0,0:0|0:0,0:0:0:0:
201,56,84161,2,0,L|137:20,1,65,8|0,0:0|0:0,0:0:0:0:
272,208,84433,1,2,0:2:0:0:
300,189,84501,1,0,0:0:0:0:
272,208,84569,1,2,0:2:0:0:
184,240,84706,1,2,0:2:0:0:
156,221,84774,1,0,0:0:0:0:
184,240,84842,1,2,0:2:0:0:
336,104,85115,6,0,L|352:184,1,65,0|8,0:0|0:0,0:0:0:0:
264,184,85388,2,0,L|248:264,1,65,0|4,0:0|0:0,0:0:0:0:
80,256,85797,2,0,L|32:200,1,65,8|2,0:0|0:2,0:0:0:0:
192,184,86070,6,0,L|205:120,1,65,4|0,0:0|0:0,0:0:0:0:
112,120,86342,2,0,L|125:56,1,65,8|0,0:0|0:0,0:0:0:0:
208,104,86615,2,0,L|221:40,1,65,2|2,0:2|0:2,0:0:0:0:
64,40,86888,2,0,L|24:56,2,32.5,8|2|4,0:0|2:0|0:0,0:0:0:0:
296,48,87161,6,0,L|368:48,1,65,4|0,0:2|1:0,0:0:0:0:
138,44,87706,6,0,L|58:44,1,65,4|0,2:2|0:0,0:0:0:0:
368,48,88252,6,0,L|440:48,2,65,4|0|2,0:2|0:0|0:2,0:0:0:0:
296,48,88661,1,0,0:0:0:0:
144,48,88797,6,0,L|72:48,2,65,2|2|2,0:2|0:2|0:2,0:0:0:0:
216,48,89206,1,2,0:2:0:0:
360,48,89479,6,0,L|432:48,1,65,2|2,0:2|0:2,0:0:0:0:
216,128,89752,2,0,L|144:128,2,65,2|2|2,0:2|0:2|0:2,0:0:0:0:
104,200,90297,6,0,L|32:200,1,65,2|2,0:2|0:2,0:0:0:0:
248,200,90570,2,0,L|320:200,2,65,2|2|2,0:2|0:2|0:2,0:0:0:0:
360,200,91115,6,0,L|424:200,1,65,2|2,0:2|0:2,0:0:0:0:
200,288,91388,2,0,L|128:288,2,65,2|2|2,0:2|0:2|0:2,0:0:0:0:
384,288,91933,5,2,0:2:0:0:
416,288,92001,1,2,0:2:0:0:
449,288,92069,1,2,0:2:0:0:
384,288,92206,1,2,2:2:0:0:
184,288,92479,1,2,0:2:0:0:
151,288,92547,1,2,0:2:0:0:
119,288,92615,1,2,0:2:0:0:
184,288,92751,1,2,0:2:0:0:
400,288,92888,1,4,0:2:0:0:
256,192,93024,12,2,94933,0:0:0:0:
