osu file format v14

[General]
AudioFilename: audio.mp3
AudioLeadIn: 0
PreviewTime: 9664
Countdown: 0
SampleSet: Soft
StackLeniency: 0.7
Mode: 2
LetterboxInBreaks: 0
WidescreenStoryboard: 1

[Editor]
DistanceSpacing: 1.3
BeatDivisor: 2
GridSize: 4
TimelineZoom: 1.9

[Metadata]
Title:EGOISM 440
TitleUnicode:EGOISM 440
Artist:U1 High-Speed
ArtistUnicode:U1 High-Speed
Creator:Ascendance
Version:Hyperion's Beginner
Source:DanceDanceRevolution
Tags:Replicant D-ignitioni jbhyperion jbh zirox hareimu deif razor sharp arthas clsw minato yukina ajamez benny- benita bennybananas spectator 浅見祐一 yuichi asami DDR revolution
BeatmapID:1669078
BeatmapSetID:717720

[Difficulty]
HPDrainRate:3
CircleSize:2.5
OverallDifficulty:6.1
ApproachRate:6.1
SliderMultiplier:1.2
SliderTickRate:1

[Events]
//Background and Video events
0,0,"14.jpg",0,0
//Break Periods
//Storyboard Layer 0 (Background)
//Storyboard Layer 1 (Fail)
//Storyboard Layer 2 (Pass)
//Storyboard Layer 3 (Foreground)
//Storyboard Sound Samples

[TimingPoints]
979,272.727272727273,4,2,1,60,1,0
1115,-100,4,2,1,60,0,0
1524,-100,4,2,1,60,0,0
2069,-100,4,2,1,60,0,0
2615,-100,4,2,1,60,0,0
3160,-100,4,2,1,60,0,0
3706,-100,4,2,1,60,0,0
4251,-100,4,2,1,60,0,0
4388,-100,4,2,1,60,0,0
4524,-100,4,2,1,60,0,0
4661,-100,4,2,1,60,0,0
4797,-100,4,2,1,60,0,0
4934,-100,4,2,1,60,0,0
5069,-100,4,2,1,60,0,0
7524,-100,4,2,1,65,0,0
8615,-100,4,2,1,70,0,0
8888,-100,4,2,1,70,0,0
9160,-100,4,2,1,55,0,0
9433,-100,4,2,1,55,0,0
9706,-100,4,1,1,75,0,1
27160,-100,4,1,0,60,0,0
35888,-100,4,1,1,72,0,0
44615,-100,4,1,1,65,0,0
50069,-100,4,1,1,80,0,1
54433,-100,4,1,1,60,0,0
56615,-100,4,1,1,70,0,0
58797,-100,4,1,1,90,0,1
63160,-100,4,1,0,60,0,0
67797,-100,4,1,1,55,0,0
68069,-100,4,1,1,55,0,0
68342,-100,4,1,1,60,0,0
68615,-100,4,1,1,63,0,0
68888,-100,4,1,1,63,0,0
69160,-100,4,1,1,66,0,0
69433,-100,4,1,1,66,0,0
69706,-100,4,1,1,75,0,0
78433,-100,4,1,1,90,0,1
87160,-100,4,1,1,60,0,0
87229,-100,4,1,0,60,0,0
93024,-100,4,2,0,47,0,0
93160,-100,4,2,0,44,0,0
93296,-100,4,2,0,41,0,0
93432,-100,4,2,0,38,0,0
93569,-100,4,2,0,35,0,0
93705,-100,4,2,0,32,0,0
93842,-100,4,2,0,29,0,0
93978,-100,4,2,0,26,0,0
94114,-100,4,2,0,23,0,0
94251,-100,4,2,0,20,0,0
94387,-100,4,2,0,17,0,0
94523,-100,4,2,0,14,0,0
94659,-100,4,2,0,11,0,0
94795,-100,4,2,0,8,0,0
94932,-100,4,2,0,5,0,0

[Colours]
Combo1 : 192,192,192
Combo2 : 0,170,85
Combo3 : 0,85,170

[HitObjects]
256,192,979,12,0,5069,0:0:0:0:
240,192,5342,6,0,B|280:148|280:148|280:76,1,120,2|2,0:0|0:0,0:0:0:0:
160,88,5888,2,0,L|52:150,1,120,2|2,0:0|0:0,0:0:0:0:
176,144,6433,2,0,L|279:204,1,120,2|0,0:0|0:0,0:0:0:0:
332,236,6842,1,2,0:0:0:0:
92,284,7524,6,0,B|132:236|132:236|192:236,1,120,2|2,0:0|0:0,0:0:0:0:
309,236,8069,1,2,0:0:0:0:
249,236,8206,1,0,0:0:0:0:
189,236,8342,1,2,0:0:0:0:
256,192,8615,12,0,9433,0:0:0:0:
252,192,9706,6,0,L|128:192,1,120,0|2,0:0|0:3,0:0:0:0:
276,192,10251,2,0,L|284:72,1,120,0|2,0:2|0:3,0:0:0:0:
164,72,10797,5,2,0:3:0:0:
284,72,11069,1,2,0:3:0:0:
404,72,11342,1,2,0:3:0:0:
260,72,11615,2,0,L|248:144,1,60,2|2,0:3|0:0,0:0:0:0:
310,132,11888,6,0,L|430:132,1,120,4|2,0:0|0:3,0:0:0:0:
300,132,12433,2,0,L|264:248,1,120,4|2,0:1|0:3,0:0:0:0:
144,248,12979,5,2,0:3:0:0:
288,248,13251,1,2,0:3:0:0:
168,248,13524,1,2,0:3:0:0:
36,276,13797,2,0,L|94:242,1,60,2|2,0:3|0:0,0:0:0:0:
144,248,14069,6,0,L|156:128,1,120,4|2,0:2|0:3,0:0:0:0:
296,184,14615,2,0,L|308:64,1,120,8|2,0:3|0:3,0:0:0:0:
164,64,15160,6,0,L|278:130,1,120,4|2,0:3|0:3,0:0:0:0:
328,64,15569,2,0,L|210:132,1,120,2|4,0:2|0:0,0:0:0:0:
164,148,15979,1,2,0:3:0:0:
164,212,16115,1,0,0:0:0:0:
224,240,16251,6,0,L|264:120,1,120,4|2,0:2|0:3,0:0:0:0:
128,188,16797,2,0,L|88:68,1,120,8|2,0:3|0:3,0:0:0:0:
236,76,17342,6,0,L|128:14,1,120,4|2,0:0|0:3,0:0:0:0:
72,76,17751,2,0,L|179:14,1,120,2|4,0:0|0:0,0:0:0:0:
236,76,18160,1,2,0:3:0:0:
296,76,18297,1,2,0:0:0:0:
236,184,18433,6,0,L|108:184,1,120,4|10,0:0|0:0,0:0:0:0:
248,184,18979,2,0,L|264:304,1,120,10|8,0:0|0:0,0:0:0:0:
144,304,19524,1,8,0:0:0:0:
263,302,19797,1,8,0:0:0:0:
108,304,20069,6,0,L|100:244,1,60,8|2,0:0|0:2,0:0:0:0:
161,192,20342,2,0,L|177:124,1,60,8|2,0:0|0:2,0:0:0:0:
236,132,20615,5,8,0:0:0:0:
380,132,20888,2,0,L|288:54,2,120,8|8|8,0:0|0:0|0:0,0:0:0:0:
260,132,21706,5,8,0:0:0:0:
116,132,21979,1,8,0:0:0:0:
236,132,22251,1,8,0:0:0:0:
380,132,22524,2,0,L|400:192,1,60,8|2,0:0|0:0,0:0:0:0:
332,132,22797,6,0,L|320:252,1,120,4|2,0:2|0:3,0:0:0:0:
176,196,23343,2,0,L|188:316,1,120,4|0,0:0|0:0,0:0:0:0:
332,316,23888,6,0,L|446:250,1,120,4|2,0:0|0:3,0:0:0:0:
376,316,24297,2,0,L|258:248,1,120,2|4,0:2|0:0,0:0:0:0:
212,232,24707,1,2,0:3:0:0:
212,160,24843,1,0,0:0:0:0:
272,140,24979,6,0,L|380:192,1,120,4|2,0:2|0:3,0:0:0:0:
236,192,25524,2,0,L|128:140,1,120,4|2,0:0|0:3,0:0:0:0:
248,68,26069,6,0,L|280:12,2,60,4|0|2,0:0|0:0|0:3,0:0:0:0:
188,68,26479,2,0,L|68:68,1,120,2|4,0:2|0:0,0:0:0:0:
128,68,26888,1,2,0:3:0:0:
188,68,27024,1,2,0:0:0:0:
248,68,27160,6,0,L|368:68,2,120,0|0|2,1:0|0:0|0:2,0:0:0:0:
384,192,28115,1,2,0:2:0:0:
324,192,28251,6,0,B|272:224|272:224|272:284,2,120,2|2|2,0:2|0:2|0:2,0:0:0:0:
468,192,29069,1,8,0:3:0:0:
228,192,29615,5,0,0:0:0:0:
108,192,29888,1,2,0:2:0:0:
268,192,30297,1,2,0:2:0:0:
328,192,30433,6,0,B|224:128,2,120,2|2|2,0:2|0:2|0:2,0:0:0:0:
178,192,31251,1,2,0:2:0:0:
396,192,31797,5,0,0:0:0:0:
264,192,32069,2,0,L|252:128,1,60,2|2,0:2|0:2,0:0:0:0:
92,136,32615,5,2,0:2:0:0:
152,136,32751,2,0,B|204:104|204:104|204:44,2,120,2|2|4,0:2|0:2|0:3,0:0:0:0:
20,136,33569,1,2,0:2:0:0:
176,136,33842,6,0,L|284:192,2,120,2|2|2,0:2|0:2|0:0,0:0:0:0:
296,136,34660,1,2,0:2:0:0:
356,136,34797,5,2,0:2:0:0:
228,136,35069,1,2,0:2:0:0:
98,136,35342,1,2,0:2:0:0:
242,136,35615,1,2,0:2:0:0:
80,136,35888,6,0,L|72:256,1,120,4|8,0:2|0:0,0:0:0:0:
216,256,36433,2,0,L|336:256,1,120,2|8,0:3|0:0,0:0:0:0:
192,256,36979,6,0,L|88:192,3,120,2|8|2|8,0:3|0:0|0:3|0:0,0:0:0:0:
232,192,38069,6,0,L|352:192,1,120,4|8,0:2|0:0,0:0:0:0:
208,104,38615,2,0,L|328:104,1,120,2|8,0:3|0:0,0:0:0:0:
448,104,39160,5,2,0:3:0:0:
304,16,39433,2,0,L|172:16,2,120,8|2|8,0:0|0:3|0:0,0:0:0:0:
160,16,40251,6,0,L|152:136,1,120,4|8,0:2|0:0,0:0:0:0:
296,136,40796,2,0,L|156:136,1,120,2|8,0:3|0:0,0:0:0:0:
320,136,41342,6,0,L|424:72,3,120,2|8|2|8,0:3|0:0|0:3|0:0,0:0:0:0:
279,73,42433,5,4,0:2:0:0:
147,73,42706,1,8,0:0:0:0:
291,73,42979,1,2,0:3:0:0:
423,73,43251,1,8,0:0:0:0:
280,76,43524,5,2,0:3:0:0:
436,172,43797,2,0,L|308:172,2,120,8|2|8,0:0|0:3|0:0,0:0:0:0:
268,172,44615,5,4,1:2:0:0:
148,172,45706,6,0,P|72:252|140:340,1,240,6|8,0:2|0:0,0:0:0:0:
260,340,46524,1,2,0:0:0:0:
116,340,46797,1,2,0:0:0:0:
356,340,47342,1,8,0:0:0:0:
164,340,47888,6,0,L|148:216,1,120,4|2,0:2|0:0,0:0:0:0:
268,220,48433,2,0,L|376:160,1,120,8|2,0:0|0:0,0:0:0:0:
428,132,48842,1,2,0:0:0:0:
188,132,49524,1,8,0:0:0:0:
428,132,50069,6,0,L|432:252,1,120,0|8,0:0|0:0,0:0:0:0:
288,252,50615,2,0,L|164:252,1,120,0|8,0:0|0:0,0:0:0:0:
124,196,51024,1,0,0:0:0:0:
168,140,51160,6,0,L|296:140,1,120,0|8,0:0|0:1,0:0:0:0:
144,140,51706,1,0,0:0:0:0:
264,140,51979,1,8,1:1:0:0:
120,140,52251,6,0,L|104:16,1,120,2|8,0:2|0:0,0:0:0:0:
164,20,52660,1,0,0:0:0:0:
224,20,52797,1,2,0:2:0:0:
80,20,53069,1,10,0:0:0:0:
224,20,53342,6,0,L|344:20,1,120,4|8,0:0|0:0,0:0:0:0:
392,72,53751,1,0,0:0:0:0:
344,20,53888,1,4,0:0:0:0:
476,20,54160,1,8,0:0:0:0:
308,20,54433,6,0,L|296:156,1,120,4|4,0:2|0:0,0:0:0:0:
164,140,54979,2,0,L|176:276,1,120,8|4,0:0|0:0,0:0:0:0:
324,260,55524,1,2,0:2:0:0:
108,260,56069,6,0,L|215:198,1,120,8|2,0:0|0:2,0:0:0:0:
360,260,56615,2,0,L|460:192,2,120,4|2|8,0:2|0:2|0:0,0:0:0:0:
228,260,57433,1,4,0:0:0:0:
372,128,57979,5,4,0:0:0:0:
224,128,58251,2,0,L|109:194,1,120,8|4,0:0|0:0,0:0:0:0:
264,128,58797,6,0,L|268:248,1,120,0|8,0:0|0:0,0:0:0:0:
124,248,59342,2,0,L|248:248,1,120,4|8,0:0|0:0,0:0:0:0:
304,192,59752,1,0,0:0:0:0:
244,136,59888,6,0,L|116:136,1,120,4|8,0:0|0:0,0:0:0:0:
268,136,60434,1,4,0:0:0:0:
388,136,60707,1,8,0:0:0:0:
244,136,60979,6,0,L|228:12,1,120,0|8,0:0|0:0,0:0:0:0:
348,16,61524,2,0,L|352:88,1,60,6|0,0:0|0:0,0:0:0:0:
280,124,61797,2,0,L|228:160,1,60,8|0,0:0|0:0,0:0:0:0:
160,160,62069,5,4,0:0:0:0:
316,160,62342,1,8,0:0:0:0:
184,160,62615,2,0,L|180:280,1,120,4|8,0:0|0:0,0:0:0:0:
336,280,63160,6,0,L|216:280,1,120,2|2,0:2|0:2,0:0:0:0:
72,280,63706,1,2,0:2:0:0:
216,192,63979,1,2,0:2:0:0:
276,192,64115,6,0,B|328:160|328:160|328:100,2,120,2|2|2,0:2|0:2|0:2,0:0:0:0:
126,192,64933,1,4,0:3:0:0:
292,192,65479,5,2,0:2:0:0:
412,192,65752,1,2,0:2:0:0:
252,192,66161,1,2,0:2:0:0:
312,192,66297,6,0,B|416:256,2,120,2|2|2,0:2|0:2|0:2,0:0:0:0:
168,192,67115,1,0,0:0:0:0:
384,192,67524,5,4,0:2:0:0:
256,192,68069,12,4,69433,0:0:0:0:
168,192,69706,6,0,L|160:64,1,120,4|10,0:2|0:0,0:0:0:0:
304,72,70251,1,6,0:0:0:0:
172,72,70524,1,10,0:0:0:0:
328,72,70797,6,0,L|340:152,2,60,4|2|8,0:0|0:2|0:0,0:0:0:0:
184,72,71342,2,0,L|308:72,1,120,4|8,0:0|0:0,0:0:0:0:
448,72,71888,5,4,0:2:0:0:
292,164,72160,2,0,L|168:164,2,120,8|6|10,0:0|0:0|0:0,0:0:0:0:
148,164,72979,6,0,L|140:288,1,120,4|8,0:0|0:0,0:0:0:0:
272,284,73524,1,4,0:0:0:0:
404,284,73797,1,8,0:0:0:0:
260,284,74069,5,4,0:2:0:0:
116,284,74342,2,0,L|24:208,2,120,8|6|10,0:0|0:0|0:0,0:0:0:0:
260,284,75160,5,0,0:0:0:0:
128,192,75433,2,0,L|238:128,1,120,2|2,0:2|0:2,0:0:0:0:
380,132,75979,1,2,0:2:0:0:
324,132,76115,1,2,0:2:0:0:
268,132,76251,6,0,L|148:132,1,120,4|8,0:0|0:0,0:0:0:0:
304,36,76797,1,6,0:0:0:0:
148,32,77069,1,8,0:0:0:0:
292,36,77342,6,0,L|316:104,2,60,4|2|8,0:0|0:0|0:0,0:0:0:0:
112,192,78434,6,0,L|104:64,1,120,4|8,0:0|0:0,0:0:0:0:
248,72,78979,1,2,0:2:0:0:
182,72,79115,1,2,0:2:0:0:
115,71,79252,1,8,0:0:0:0:
248,71,79524,6,0,L|351:132,1,120,4|8,0:0|0:0,0:0:0:0:
196,132,80070,1,2,0:2:0:0:
136,192,80206,1,2,0:2:0:0:
136,276,80343,1,2,0:2:0:0:
196,336,80479,1,2,0:2:0:0:
340,336,80752,6,0,L|348:260,1,60,0|8,0:0|0:0,0:0:0:0:
200,192,81161,2,0,L|320:192,1,120,4|8,0:0|0:0,0:0:0:0:
380,144,81570,1,0,0:0:0:0:
320,92,81706,5,4,0:0:0:0:
188,92,81979,1,8,0:0:0:0:
332,92,82252,1,2,0:2:0:0:
176,92,82524,2,0,L|116:92,1,60,2|2,0:2|0:2,0:0:0:0:
56,92,82797,6,0,L|180:92,1,120,4|8,0:2|0:0,0:0:0:0:
320,92,83343,2,0,L|336:152,3,60,4|2|8|0,0:0|0:2|0:0|0:0,0:0:0:0:
264,152,83888,6,0,L|148:192,1,120,4|8,0:0|0:0,0:0:0:0:
308,152,84433,1,2,0:2:0:0:
368,212,84569,1,2,0:2:0:0:
368,296,84706,1,2,0:2:0:0:
308,356,84842,1,2,0:2:0:0:
164,356,85115,6,0,L|132:296,2,60,0|8|0,0:0|0:0|0:0,0:0:0:0:
236,356,85524,1,4,0:0:0:0:
80,356,85797,2,0,L|48:296,1,60,8|2,0:0|0:2,0:0:0:0:
112,252,86070,5,4,0:0:0:0:
244,192,86343,1,8,0:0:0:0:
124,92,86615,1,2,0:2:0:0:
280,92,86888,2,0,L|348:92,1,60,2|4,0:2|0:0,0:0:0:0:
400,92,87161,6,0,L|404:156,1,60,4|0,0:2|1:0,0:0:0:0:
232,192,87706,2,0,L|228:256,1,60,4|0,2:2|0:0,0:0:0:0:
56,252,88252,6,0,L|160:192,1,120,4|2,0:2|0:2,0:0:0:0:
308,192,88797,2,0,L|204:132,1,120,2|2,0:2|0:2,0:0:0:0:
144,132,89206,1,2,0:2:0:0:
264,192,89479,5,2,0:2:0:0:
324,192,89615,2,0,L|427:132,1,120,2|2,0:2|0:2,0:0:0:0:
488,132,90024,1,2,0:2:0:0:
344,132,90297,5,2,0:2:0:0:
284,132,90433,2,0,L|180:72,1,120,2|2,0:2|0:2,0:0:0:0:
120,72,90842,1,2,0:2:0:0:
264,76,91115,5,2,0:2:0:0:
317,101,91251,1,2,0:2:0:0:
339,155,91387,1,2,0:2:0:0:
320,210,91524,1,2,0:2:0:0:
269,239,91660,1,2,0:2:0:0:
124,240,91933,6,0,L|104:176,2,60,2|2|2,0:2|0:2|2:2,0:0:0:0:
269,239,92479,1,2,0:2:0:0:
208,240,92615,1,2,0:2:0:0:
148,240,92752,1,2,0:2:0:0:
228,240,92888,5,4,0:2:0:0:
256,192,93161,12,0,94933,0:0:0:0:
