osu file format v14

[General]
AudioFilename: audio.mp3
AudioLeadIn: 0
PreviewTime: 9664
Countdown: 0
SampleSet: Normal
StackLeniency: 0.7
Mode: 2
LetterboxInBreaks: 0
WidescreenStoryboard: 0

[Editor]
DistanceSpacing: 1
BeatDivisor: 4
GridSize: 32
TimelineZoom: 1.9

[Metadata]
Title:EGOISM 440
TitleUnicode:EGOISM 440
Artist:U1 High-Speed
ArtistUnicode:U1 High-Speed
Creator:Ascendance
Version:AJamez's Basic
Source:DanceDanceRevolution
Tags:Replicant D-ignitioni jbhyperion jbh zirox hareimu deif razor sharp arthas clsw minato yukina ajamez benny- benita bennybananas spectator 浅見祐一 yuichi asami DDR revolution
BeatmapID:1758854
BeatmapSetID:717720

[Difficulty]
HPDrainRate:4
CircleSize:3
OverallDifficulty:7.2
ApproachRate:7.2
SliderMultiplier:1.4
SliderTickRate:1

[Events]
//Background and Video events
0,0,"14.jpg",0,0
//Break Periods
//Storyboard Layer 0 (Background)
//Storyboard Layer 1 (Fail)
//Storyboard Layer 2 (Pass)
//Storyboard Layer 3 (Foreground)
//Storyboard Sound Samples

[TimingPoints]
979,272.727272727273,4,2,1,60,1,0
1115,-100,4,2,1,60,0,0
1524,-100,4,2,1,60,0,0
2069,-100,4,2,1,60,0,0
2615,-100,4,2,1,60,0,0
3160,-100,4,2,1,60,0,0
3706,-100,4,2,1,60,0,0
4251,-100,4,2,1,60,0,0
4388,-100,4,2,1,60,0,0
4524,-100,4,2,1,60,0,0
4661,-100,4,2,1,60,0,0
4797,-100,4,2,1,60,0,0
4934,-100,4,2,1,60,0,0
5069,-100,4,2,1,60,0,0
7498,-100,4,2,1,65,0,0
7524,-100,4,2,1,65,0,0
8589,-100,4,2,1,70,0,0
8615,-100,4,2,1,70,0,0
8888,-100,4,2,1,70,0,0
9134,-100,4,2,1,55,0,0
9160,-100,4,2,1,55,0,0
9433,-100,4,2,1,55,0,0
9680,-100,4,1,1,75,0,0
9706,-100,4,1,1,75,0,1
27134,-100,4,1,0,60,0,1
27160,-100,4,1,0,60,0,0
35862,-100,4,1,1,72,0,0
35888,-100,4,1,1,72,0,0
44589,-100,4,1,1,65,0,0
44615,-100,4,1,1,65,0,0
45706,-125,4,1,1,65,0,0
50043,-125,4,1,1,80,0,0
50069,-100,4,1,1,80,0,1
54407,-100,4,1,1,60,0,1
54433,-125,4,1,1,60,0,0
56589,-125,4,1,1,70,0,0
56615,-125,4,1,1,70,0,0
58771,-125,4,1,1,90,0,0
58797,-100,4,1,1,90,0,1
63134,-100,4,1,0,60,0,1
63160,-117.647058823529,4,1,0,60,0,0
67771,-117.647058823529,4,1,1,55,0,0
67797,-117.647058823529,4,1,1,55,0,0
68069,-100,4,1,1,55,0,0
68316,-100,4,1,1,60,0,0
68342,-100,4,1,1,60,0,0
68589,-100,4,1,1,63,0,0
68615,-100,4,1,1,63,0,0
68888,-100,4,1,1,63,0,0
69134,-100,4,1,1,66,0,0
69160,-100,4,1,1,66,0,0
69433,-100,4,1,1,66,0,0
69680,-100,4,1,1,75,0,0
69706,-100,4,1,1,75,0,0
78407,-100,4,1,1,90,0,0
78433,-100,4,1,1,90,0,1
87134,-100,4,1,1,60,0,1
87160,-100,4,1,1,60,0,0
87203,-100,4,1,0,60,0,0
87229,-100,4,1,0,60,0,0
92998,-100,4,2,0,58,0,0
93024,-100,4,2,0,58,0,0
93160,-100,4,2,0,58,0,0
93296,-100,4,2,0,58,0,0
93432,-100,4,2,0,58,0,0
93569,-100,4,2,0,58,0,0
93705,-100,4,2,0,58,0,0
93842,-100,4,2,0,58,0,0
93978,-100,4,2,0,58,0,0
94114,-100,4,2,0,58,0,0
94251,-100,4,2,0,58,0,0
94387,-100,4,2,0,58,0,0
94523,-100,4,2,0,58,0,0
94659,-100,4,2,0,58,0,0
94795,-100,4,2,0,58,0,0
94907,-100,4,2,0,10,0,0
94932,-100,4,2,0,10,0,0
94933,-100,4,2,0,10,0,0
95068,-100,4,2,0,10,0,0
95205,-100,4,2,0,10,0,0
95341,-100,4,2,0,10,0,0
95477,-100,4,2,0,10,0,0
95614,-100,4,2,0,10,0,0
95750,-100,4,2,0,10,0,0
95887,-100,4,2,0,10,0,0
96023,-100,4,2,0,10,0,0
96159,-100,4,2,0,10,0,0
96296,-100,4,2,0,10,0,0
96432,-100,4,2,0,10,0,0

[Colours]
Combo1 : 192,192,192
Combo2 : 0,170,85
Combo3 : 0,85,170

[HitObjects]
256,192,979,12,0,4797,0:0:0:0:
188,209,5342,6,0,L|100:223,2,70,2|0|2,0:0|0:0|0:0,0:0:0:0:
334,352,5888,1,2,0:0:0:0:
351,298,6024,1,0,0:0:0:0:
328,253,6160,1,2,0:0:0:0:
180,108,6433,6,0,P|104:121|49:162,1,140,2|0,0:0|0:0,0:0:0:0:
143,205,6842,2,0,P|195:222|252:304,1,140,2|0,0:0|0:0,0:0:0:0:
407,304,7524,6,0,L|495:318,2,70,2|0|2,0:0|0:0|0:0,0:0:0:0:
255,237,8069,1,2,0:0:0:0:
296,207,8205,1,0,0:0:0:0:
345,190,8342,1,2,0:0:0:0:
495,108,8615,6,0,P|456:59|382:38,1,140,2|0,0:0|0:0,0:0:0:0:
303,64,9024,2,0,P|323:120|453:188,1,210,2|0,0:0|0:0,0:0:0:0:
186,264,9706,6,0,L|103:289,2,70,0|0|2,0:0|0:0|0:3,0:0:0:0:
275,248,10115,2,0,P|262:197|175:135,1,140,0|0,0:0|0:0,0:0:0:0:
113,133,10524,1,2,0:3:0:0:
290,105,10797,5,2,0:3:0:0:
238,58,10933,1,0,0:0:0:0:
171,40,11069,1,2,0:3:0:0:
246,33,11206,2,0,L|399:-3,1,140,0|2,0:0|0:0,0:0:0:0:
345,119,11615,1,2,0:3:0:0:
303,184,11751,1,2,0:0:0:0:
179,231,12024,6,0,L|172:317,1,70,0|2,0:0|0:3,0:0:0:0:
253,330,12297,1,0,0:0:0:0:
168,384,12433,2,0,P|101:367|57:282,1,140,4|2,0:1|0:3,0:0:0:0:
116,238,12842,1,0,0:0:0:0:
193,198,12979,2,0,L|339:164,2,140,2|2|2,0:3|0:3|0:3,0:0:0:0:
52,167,13797,2,0,L|64:97,1,70,2|2,0:3|0:0,0:0:0:0:
243,313,14069,6,0,P|323:322|389:274,1,140,4|2,0:2|0:3,0:0:0:0:
233,222,14615,2,0,L|225:169,2,35,8|0|0,0:3|0:0|0:0,0:0:0:0:
314,233,14888,1,2,0:3:0:0:
468,176,15160,6,0,P|401:144|329:137,1,140,4|2,0:3|0:3,0:0:0:0:
248,102,15569,2,0,P|299:57|383:55,1,140,2|4,0:2|0:0,0:0:0:0:
448,104,15979,2,0,L|415:176,1,70,2|0,0:3|0:0,0:0:0:0:
236,290,16251,6,0,L|86:322,2,140,4|2|8,0:2|0:3|0:3,0:0:0:0:
376,291,17069,2,0,L|352:211,1,70,2|0,0:3|0:0,0:0:0:0:
268,178,17342,6,0,P|216:162|103:155,1,140,4|2,0:0|0:3,0:0:0:0:
215,98,17751,2,0,P|258:84|353:140,1,140,2|4,0:0|0:0,0:0:0:0:
268,178,18160,1,2,0:0:0:0:
194,191,18297,1,2,0:0:0:0:
18,297,18433,6,0,L|159:335,2,140,4|10|10,0:0|0:0|0:0,0:0:0:0:
163,221,19251,2,0,L|83:198,1,70,8|0,0:0|0:0,0:0:0:0:
24,180,19524,2,0,P|20:111|85:69,1,140,8|8,0:0|0:0,0:0:0:0:
237,106,20069,6,0,L|253:150,2,35,8|0|2,0:0|0:0|0:2,0:0:0:0:
163,221,20342,2,0,L|147:265,2,35,8|0|2,0:0|0:0|0:2,0:0:0:0:
420,185,20751,5,0,0:0:0:0:
336,238,20888,2,0,P|281:251|210:326,1,140,8|8,0:0|0:0,0:0:0:0:
378,360,21433,2,0,L|352:284,1,70,8|0,0:0|0:0,0:0:0:0:
270,255,21706,2,0,L|117:228,1,140,8|8,0:0|0:0,0:0:0:0:
272,32,22251,6,0,L|274:123,1,70,8|2,0:0|0:0,0:0:0:0:
346,147,22524,2,0,L|362:191,2,35,8|0|2,0:0|0:0|0:0,0:0:0:0:
163,215,22797,6,0,P|100:259|66:339,1,140,4|2,0:2|0:3,0:0:0:0:
150,329,23206,1,0,0:0:0:0:
229,338,23342,2,0,P|221:378|125:407,1,140,4|2,0:0|0:3,0:0:0:0:
296,251,23888,6,0,P|266:222|170:184,1,140,4|2,0:0|0:3,0:0:0:0:
264,167,24297,2,0,P|308:130|391:109,1,140,2|4,0:2|0:0,0:0:0:0:
317,59,24706,2,0,L|243:38,1,70,2|0,0:3|0:0,0:0:0:0:
411,0,24979,5,4,0:2:0:0:
488,109,25251,1,2,0:3:0:0:
436,233,25524,1,4,0:0:0:0:
369,248,25660,1,0,0:0:0:0:
304,256,25797,1,2,0:3:0:0:
158,318,26069,6,0,P|222:345|320:349,1,140,4|2,0:0|0:3,0:0:0:0:
218,256,26479,2,0,P|174:237|86:268,1,140,2|4,0:2|0:0,0:0:0:0:
162,335,26888,1,2,0:3:0:0:
434,202,27160,6,0,P|392:170|295:151,1,140,0|0,1:0|0:0,0:0:0:0:
230,167,27569,1,0,0:0:0:0:
151,106,27706,2,0,P|269:71|366:84,1,210,2|2,0:2|0:2,0:0:0:0:
209,149,28387,5,2,0:2:0:0:
184,213,28524,1,2,0:2:0:0:
203,279,28660,1,2,0:2:0:0:
257,321,28796,1,2,0:2:0:0:
326,321,28933,2,0,L|377:323,2,35,4|0|8,0:3|0:0|0:3,0:0:0:0:
109,379,29615,6,0,L|177:347,3,70,0|2|2|2,0:0|0:2|0:2|0:2,0:0:0:0:
274,241,30297,5,2,0:2:0:0:
206,230,30433,1,2,0:2:0:0:
166,175,30569,1,2,0:2:0:0:
178,108,30706,1,2,0:2:0:0:
234,69,30842,1,2,0:2:0:0:
301,82,30979,2,0,L|366:117,2,70,2|4|2,0:2|0:3|0:2,0:0:0:0:
109,136,31797,6,0,L|186:120,2,70,0|2|2,0:0|0:2|0:2,0:0:0:0:
42,274,32206,2,0,P|54:334|181:395,1,210,2|2,0:2|0:2,0:0:0:0:
329,337,32888,6,0,L|336:262,1,70,2|2,0:2|0:2,0:0:0:0:
254,229,33160,2,0,L|241:153,1,70,2|4,0:2|0:3,0:0:0:0:
157,126,33433,1,0,0:0:0:0:
161,91,33501,1,0,0:0:0:0:
178,55,33569,1,2,0:2:0:0:
325,29,33842,5,2,0:2:0:0:
261,51,33978,1,2,0:2:0:0:
237,115,34114,1,2,0:2:0:0:
269,174,34251,1,2,0:2:0:0:
335,189,34387,1,2,0:0:0:0:
478,215,34660,2,0,L|463:289,1,70,2|2,0:2|0:2,0:0:0:0:
388,319,34933,6,0,L|305:335,1,70,0|2,0:0|0:2,0:0:0:0:
391,244,35206,2,0,L|465:231,1,70,2|2,0:2|0:2,0:0:0:0:
388,157,35479,2,0,L|304:142,1,70,2|2,0:2|0:2,0:0:0:0:
54,190,35888,6,0,P|68:235|155:298,1,140,4|8,0:2|0:0,0:0:0:0:
270,254,36433,2,0,L|190:229,2,70,2|0|8,0:3|0:0|0:0,0:0:0:0:
415,252,36979,5,2,0:3:0:0:
375,194,37115,1,0,0:0:0:0:
318,155,37251,1,8,0:0:0:0:
250,140,37388,2,0,P|306:168|358:253,1,140,0|0,0:0|0:0,0:0:0:0:
317,248,37729,1,0,0:0:0:0:
285,269,37797,1,8,0:0:0:0:
34,73,38069,6,0,P|108:21|168:18,1,140,4|8,0:2|0:0,0:0:0:0:
239,86,38479,1,2,0:0:0:0:
165,151,38615,1,2,0:3:0:0:
125,173,38705,1,0,0:0:0:0:
110,216,38796,1,0,0:0:0:0:
129,258,38887,1,8,0:0:0:0:
257,300,39160,5,2,0:3:0:0:
386,350,39433,1,8,0:0:0:0:
420,290,39569,1,2,0:2:0:0:
407,223,39705,1,2,0:3:0:0:
354,180,39842,1,0,0:0:0:0:
295,158,39979,1,8,0:0:0:0:
235,148,40115,1,2,0:0:0:0:
404,151,40251,6,0,P|417:203|418:298,1,140,4|8,0:2|0:0,0:0:0:0:
278,293,40797,2,0,L|355:315,2,70,2|0|8,0:3|0:0|0:0,0:0:0:0:
123,299,41342,5,2,0:3:0:0:
160,240,41478,1,0,0:0:0:0:
217,199,41614,1,8,0:0:0:0:
284,183,41751,2,0,P|234:137|150:123,1,140,2|0,0:2|0:0,0:0:0:0:
130,122,42092,1,0,0:0:0:0:
165,121,42160,1,8,0:0:0:0:
412,232,42433,6,0,P|434:302|408:362,1,140,4|8,0:2|0:0,0:0:0:0:
274,333,42979,1,2,0:3:0:0:
318,322,43069,1,0,0:0:0:0:
350,288,43160,1,0,0:0:0:0:
358,243,43251,2,0,P|322:202|240:178,1,140,8|2,0:0|0:0,0:0:0:0:
105,237,43797,6,0,L|98:147,1,70,8|0,0:0|0:0,0:0:0:0:
178,117,44069,2,0,L|179:37,1,70,2|0,0:3|0:0,0:0:0:0:
89,20,44342,1,8,0:0:0:0:
357,93,44615,5,4,1:2:0:0:
473,252,45706,6,0,L|355:296,2,112,6|0|0,0:2|0:0|0:0,0:0:0:0:
375,184,46524,1,2,0:0:0:0:
261,142,46797,6,0,P|180:122|237:18,1,224,2|8,0:0|0:0,0:0:0:0:
278,20,47479,1,0,0:0:0:0:
382,51,47751,1,0,0:0:0:0:
322,97,47888,2,0,P|223:104|104:153,1,224,0|8,0:0|0:0,0:0:0:0:
221,233,48706,6,0,P|270:255|208:377,1,224,2|0,0:0|0:0,0:0:0:0:
136,369,49388,1,0,0:0:0:0:
59,351,49524,2,0,P|50:257|57:220,1,112,8|0,0:0|0:0,0:0:0:0:
308,203,50069,5,0,0:0:0:0:
274,142,50205,1,0,0:0:0:0:
218,100,50341,1,8,0:0:0:0:
150,85,50478,1,0,0:0:0:0:
86,91,50615,2,0,L|233:56,1,140,0|8,0:0|0:0,0:0:0:0:
390,308,51160,6,0,L|241:281,1,140,0|8,0:0|0:1,0:0:0:0:
252,240,51501,1,0,0:0:0:0:
252,201,51569,1,4,0:0:0:0:
355,170,51706,2,0,P|330:125|240:99,1,140,0|8,0:0|1:1,0:0:0:0:
328,78,52115,1,0,0:0:0:0:
404,71,52251,5,2,0:2:0:0:
249,97,52524,2,0,L|243:184,1,70,8|0,0:0|0:0,0:0:0:0:
285,238,52797,2,0,L|430:254,1,140,2|10,0:2|0:0,0:0:0:0:
435,297,53138,1,0,0:0:0:0:
445,339,53206,1,0,0:0:0:0:
354,370,53342,5,4,0:0:0:0:
222,383,53615,1,8,0:0:0:0:
152,356,53751,2,0,P|160:300|231:241,1,140,0|2,0:0|0:2,0:0:0:0:
285,238,54160,1,8,0:0:0:0:
58,126,54433,6,0,L|184:99,2,112,4|0|0,0:2|0:0|0:0,0:0:0:0:
161,224,55251,1,4,0:0:0:0:
286,280,55524,2,0,P|352:308|459:291,1,168,2|0,0:2|0:0,0:0:0:0:
390,264,56069,1,8,0:0:0:0:
246,198,56342,1,2,0:2:0:0:
87,178,56615,5,4,0:2:0:0:
179,229,56887,1,2,0:2:0:0:
166,334,57160,1,8,0:0:0:0:
65,363,57433,1,4,0:0:0:0:
303,254,57979,6,0,L|367:247,2,37.3333333333333,4|0|0,0:0|0:0|0:0,0:0:0:0:
257,256,58251,2,0,L|145:218,1,112,8|4,0:0|0:0,0:0:0:0:
416,183,58797,6,0,L|430:100,1,70,0|0,0:0|0:0,0:0:0:0:
339,88,59069,2,0,L|324:8,1,70,8|0,0:0|0:0,0:0:0:0:
427,18,59342,2,0,P|475:46|471:153,1,140,4|8,0:0|0:0,0:0:0:0:
406,151,59751,1,0,0:0:0:0:
146,309,60024,6,0,L|140:351,3,35,0|0|8|0,0:0|0:0|0:0|0:0,0:0:0:0:
257,256,60433,1,4,0:0:0:0:
292,198,60569,1,4,0:0:0:0:
277,131,60705,1,8,0:0:0:0:
219,95,60842,1,0,0:0:0:0:
152,112,60979,2,0,P|109:118|49:207,1,140,0|8,0:0|0:0,0:0:0:0:
297,318,61524,6,0,L|439:337,1,140,6|8,0:0|0:0,0:0:0:0:
432,288,61865,1,0,0:0:0:0:
410,242,61933,1,0,0:0:0:0:
317,221,62069,2,0,P|269:173|274:84,1,140,4|8,0:0|0:0,0:0:0:0:
344,75,62479,2,0,L|492:44,1,140,0|0,0:0|0:0,0:0:0:0:
411,22,62888,1,8,0:0:0:0:
168,130,63160,6,0,L|29:149,1,119.000002269745,2|0,0:2|0:0,0:0:0:0:
125,196,63569,2,0,L|251:215,1,119.000002269745,2|0,0:2|0:0,0:0:0:0:
309,248,63979,1,2,0:2:0:0:
461,368,64251,5,2,0:2:0:0:
448,310,64387,1,2,0:2:0:0:
411,265,64523,1,2,0:2:0:0:
356,243,64660,1,2,0:2:0:0:
298,250,64797,2,0,L|249:259,2,29.7500005674362,0|0|4,0:0|0:0|0:3,0:0:0:0:
477,230,65479,6,0,L|484:155,2,59.5000011348725,2|2|2,0:2|0:2|0:2,0:0:0:0:
411,265,65888,2,0,P|356:244|291:255,2,119.000002269745,2|2|2,0:2|0:2|0:2,0:0:0:0:
462,236,66569,1,2,0:2:0:0:
483,182,66705,5,2,0:2:0:0:
466,126,66842,1,2,0:2:0:0:
418,94,66978,1,2,0:2:0:0:
360,99,67114,1,0,0:0:0:0:
32,278,67524,1,4,0:2:0:0:
256,192,67797,12,4,69433,0:0:0:0:
365,241,69706,6,0,L|216:177,1,140,4|10,0:2|0:0,0:0:0:0:
301,215,70115,2,0,L|232:184,1,70,2|6,0:0|0:0,0:0:0:0:
315,124,70388,2,0,L|248:93,1,70,2|10,0:0|0:0,0:0:0:0:
391,58,70797,6,0,L|434:51,2,35,4|0|2,0:0|0:0|0:2,0:0:0:0:
321,312,71069,2,0,B|235:306|270:272|188:264,2,140,8|4|8,0:0|0:0|0:0,0:0:0:0:
76,373,71888,6,0,P|42:337|68:242,1,140,4|8,0:2|0:0,0:0:0:0:
126,223,72297,2,0,L|195:189,1,70,2|6,0:0|0:0,0:0:0:0:
112,139,72569,2,0,L|176:111,1,70,4|10,0:0|0:0,0:0:0:0:
99,53,72842,1,2,0:0:0:0:
172,33,72979,5,4,0:0:0:0:
327,125,73251,2,0,P|306:171|199:213,1,140,8|4,0:0|0:0,0:0:0:0:
275,258,73592,1,0,0:0:0:0:
317,273,73660,2,0,L|394:283,1,70,0|8,0:0|0:0,0:0:0:0:
143,364,74069,6,0,L|281:407,1,140,4|8,0:2|0:0,0:0:0:0:
206,333,74479,2,0,L|121:306,1,70,2|6,0:0|0:0,0:0:0:0:
219,255,74751,2,0,L|139:227,1,70,2|10,0:0|0:0,0:0:0:0:
234,171,75024,1,2,0:0:0:0:
396,107,75433,6,0,L|320:94,1,70,2|2,0:2|0:2,0:0:0:0:
249,86,75706,2,0,L|331:64,2,70,2|2|2,0:2|0:2|0:2,0:0:0:0:
492,266,76251,6,0,L|351:293,1,140,4|8,0:0|0:0,0:0:0:0:
214,327,76797,1,6,0:0:0:0:
180,297,76887,1,2,0:2:0:0:
177,252,76978,1,2,0:2:0:0:
208,219,77069,2,0,L|288:211,1,70,8|0,0:0|0:0,0:0:0:0:
362,192,77342,6,0,L|355:113,1,70,4|2,0:0|0:0,0:0:0:0:
303,54,77615,2,0,L|167:100,2,140,8|2|4,0:0|0:2|0:3,0:0:0:0:
50,197,78433,6,0,P|75:244|165:283,1,140,4|8,0:0|0:0,0:0:0:0:
279,326,78979,1,2,0:2:0:0:
289,292,79047,1,0,0:0:0:0:
281,259,79115,1,2,0:2:0:0:
256,234,79183,1,0,0:0:0:0:
223,225,79251,1,8,0:0:0:0:
69,266,79524,2,0,P|53:219|77:125,1,140,4|8,0:0|0:0,0:0:0:0:
219,144,80069,6,0,L|232:52,1,70,2|2,0:2|0:2,0:0:0:0:
132,51,80342,2,0,L|123:-43,1,70,2|2,0:0|0:0,0:0:0:0:
288,238,80615,2,0,L|432:266,1,140,4|8,0:2|0:0,0:0:0:0:
263,320,81160,2,0,L|251:363,4,35,4|0|2|0|8,0:0|0:0|0:2|0:0|0:0,0:0:0:0:
425,264,81706,6,0,L|276:235,1,140,4|8,0:0|0:0,0:0:0:0:
202,208,82115,2,0,L|344:172,1,140,0|2,0:0|0:2,0:0:0:0:
411,96,82524,2,0,L|323:86,1,70,2|2,0:2|0:2,0:0:0:0:
163,355,82797,6,0,L|27:406,2,140,4|8|4,0:2|0:0|0:0,0:0:0:0:
189,333,83410,1,0,0:0:0:0:
194,299,83478,1,2,0:2:0:0:
175,270,83546,1,0,0:0:0:0:
142,261,83614,1,8,0:0:0:0:
304,231,83888,6,0,P|248:160|180:135,1,140,4|8,0:0|0:0,0:0:0:0:
119,87,84297,2,0,P|130:30|203:-28,1,140,0|2,0:0|0:2,0:0:0:0:
252,28,84706,2,0,L|254:102,1,70,2|2,0:2|0:2,0:0:0:0:
71,221,84979,6,0,L|89:311,1,70,4|0,0:2|0:0,0:0:0:0:
147,337,85251,2,0,L|293:400,1,140,8|4,0:0|0:0,0:0:0:0:
254,334,85592,1,0,0:0:0:0:
224,316,85660,1,0,0:0:0:0:
189,310,85728,1,0,0:0:0:0:
156,317,85796,1,8,0:0:0:0:
408,258,86069,6,0,P|452:216|459:127,1,140,4|8,0:0|0:0,0:0:0:0:
378,114,86479,2,0,L|216:85,1,140,0|2,0:0|0:2,0:0:0:0:
170,96,86888,2,0,L|253:87,1,70,8|4,0:0|0:0,0:0:0:0:
424,227,87160,6,0,L|414:316,1,70,4|0,0:2|1:0,0:0:0:0:
235,308,87706,2,0,L|219:386,1,70,4|0,2:2|0:0,0:0:0:0:
39,200,88251,2,0,L|48:98,1,70,4|0,0:2|0:0,0:0:0:0:
122,85,88524,1,2,0:2:0:0:
198,87,88660,5,0,0:0:0:0:
133,107,88796,1,2,0:2:0:0:
109,170,88932,1,2,0:2:0:0:
144,228,89069,1,2,0:2:0:0:
212,235,89205,1,2,0:2:0:0:
368,242,89479,5,2,0:2:0:0:
301,226,89615,1,2,0:2:0:0:
249,269,89751,1,2,0:2:0:0:
250,337,89888,1,2,0:2:0:0:
306,377,90024,1,2,0:2:0:0:
474,305,90297,6,0,L|425:243,1,70,2|2,0:2|0:2,0:0:0:0:
361,218,90569,2,0,L|287:200,1,70,2|2,0:2|0:2,0:0:0:0:
376,130,90842,1,2,0:2:0:0:
215,89,91115,6,0,L|297:59,1,70,2|2,0:2|0:2,0:0:0:0:
214,177,91388,2,0,L|139:201,1,70,2|2,0:2|0:2,0:0:0:0:
77,260,91660,1,2,0:2:0:0:
268,335,91933,6,0,L|192:375,1,70,2|2,0:2|0:2,0:0:0:0:
124,363,92206,1,2,2:2:0:0:
266,237,92479,2,0,L|186:226,2,70,2|2|2,0:2|0:2|0:2,0:0:0:0:
435,274,92888,5,4,0:2:0:0:
256,192,93160,12,2,94933,0:0:0:0:
