osu file format v14

[General]
AudioFilename: audio.mp3
AudioLeadIn: 0
PreviewTime: 34985
Countdown: 0
SampleSet: Normal
StackLeniency: 0.4
Mode: 0
LetterboxInBreaks: 0
WidescreenStoryboard: 1

[Editor]
Bookmarks: 26257,28712,43712,76984
DistanceSpacing: 1.5
BeatDivisor: 4
GridSize: 32
TimelineZoom: 2.3

[Metadata]
Title:EGOISM 440
TitleUnicode:EGOISM 440
Artist:U1 High-Speed
ArtistUnicode:U1 High-Speed
Creator:3312
Version:HARD
Source:DDR 2015
Tags:Dance Dance Revolution
BeatmapID:1139235
BeatmapSetID:524306

[Difficulty]
HPDrainRate:5
CircleSize:3.3
OverallDifficulty:5
ApproachRate:8
SliderMultiplier:1.00000000596046
SliderTickRate:1

[Events]
//Background and Video events
0,0,"ur mom.jpg",0,0
//Break Periods
2,44803,48416
2,53530,56598
//Storyboard Layer 0 (Background)
//Storyboard Layer 1 (Fail)
//Storyboard Layer 2 (Pass)
//Storyboard Layer 3 (Foreground)
//Storyboard Sound Samples

[TimingPoints]
76,272.727272727273,4,1,0,100,1,0
8121,-133.333333333333,4,1,0,100,0,0
8803,-83.3333333333333,4,1,0,100,0,0
64576,272.727272727273,4,1,0,100,1,0
65257,272.727272727273,4,1,0,100,1,0
77529,-83.3333333333333,4,1,0,100,0,1
86257,-83.3333333333333,4,1,0,100,0,0
96075,-66.6666666666667,4,1,0,5,0,0

[Colours]
Combo1 : 255,255,17
Combo2 : 29,152,226
Combo3 : 86,233,218

[HitObjects]
256,192,3348,12,0,4439,0:0:0:0:
171,127,4712,6,0,P|225:126|268:143,1,100.000000596046
323,200,5121,2,0,L|348:237,2,25.0000001490115
169,246,5530,6,0,L|165:176,1,50.000000298023
98,152,5803,2,0,P|108:140|120:133,1,25.0000001490115
153,120,5939,2,0,B|248:102|235:151|315:132,1,150.000000894069
256,192,6621,12,0,8803,0:0:0:0:
150,148,9076,6,0,P|210:141|283:161,1,119.999997053146
326,213,9485,1,0,0:0:0:0:
326,213,9621,2,0,B|331:253|331:253|323:291,1,59.999998526573
248,302,9894,2,0,B|245:262|245:262|254:236,1,59.999998526573
192,183,10166,2,0,B|190:206|190:206|175:240,1,59.999998526573
90,244,10439,6,0,L|59:211,2,29.9999992632865
108,161,10712,2,0,L|106:108,2,29.9999992632865
176,112,10985,5,0,0:0:0:0:
176,112,11121,2,0,L|256:102,2,59.999998526573
104,156,11530,1,0,0:0:0:0:
238,257,11803,5,0,0:0:0:0:
269,179,11939,2,0,L|288:120,2,59.999998526573
234,270,12348,2,0,L|203:346,2,59.999998526573
317,258,12757,1,0,0:0:0:0:
317,258,12894,2,0,L|346:278,4,29.9999992632865
294,179,13303,6,0,P|250:154|217:149,1,59.999998526573
157,147,13576,1,0,0:0:0:0:
82,185,13712,2,0,L|24:190,2,29.9999992632865
84,269,13985,1,0,0:0:0:0:
141,329,14121,1,0,0:0:0:0:
141,329,14257,6,0,P|178:328|222:345,2,59.999998526573
125,246,14666,2,0,L|135:125,1,119.999997053146
206,80,15076,6,0,L|218:49,2,29.9999992632865
284,122,15348,5,0,0:0:0:0:
284,122,15485,2,0,L|281:202,2,59.999998526573
339,58,15894,2,0,L|344:26,2,29.9999992632865
391,123,16166,2,0,L|403:154,2,29.9999992632865
446,59,16439,5,0,0:0:0:0:
446,59,16576,1,0,0:0:0:0:
374,103,16712,1,0,0:0:0:0:
374,103,16848,1,0,0:0:0:0:
289,107,16985,6,0,L|211:105,1,59.999998526573
156,132,17257,2,0,L|142:171,2,29.9999992632865
222,174,17530,6,0,L|222:234,1,59.999998526573
282,283,17803,1,0,0:0:0:0:
282,283,17939,2,0,P|225:309|155:271,1,119.999997053146
98,268,18348,2,0,L|59:267,2,29.9999992632865
137,200,18621,2,0,L|108:155,2,29.9999992632865
214,186,18894,2,0,L|217:135,2,29.9999992632865
266,243,19166,6,0,P|322:251|339:250,1,59.999998526573
402,237,19439,2,0,L|414:202,2,29.9999992632865
423,312,19712,5,0,0:0:0:0:
423,312,19848,2,0,P|389:330|363:335,1,59.999998526573
295,304,20121,2,0,P|323:273|352:265,1,59.999998526573
291,118,20530,5,0,0:0:0:0:
238,175,20666,1,0,0:0:0:0:
160,162,20803,2,0,P|155:127|170:88,1,59.999998526573
184,242,21076,2,0,P|185:280|177:304,1,59.999998526573
109,264,21348,2,0,L|74:274,2,29.9999992632865
107,342,21621,2,0,L|88:379,2,29.9999992632865
178,373,21894,5,0,0:0:0:0:
246,335,22030,2,0,L|295:357,2,29.9999992632865
260,257,22303,1,0,0:0:0:0:
256,179,22439,2,0,L|252:139,4,29.9999992632865
325,143,22848,1,0,0:0:0:0:
394,179,22985,1,0,0:0:0:0:
394,179,23121,2,0,P|401:221|385:255,2,59.999998526573
351,113,23530,2,0,P|309:112|274:124,1,59.999998526573
239,174,23803,2,0,P|197:183|162:175,1,59.999998526573
151,350,24076,6,0,P|137:293|141:251,1,89.9999977898594
146,220,24348,2,0,P|156:185|130:126,1,89.9999977898594
103,112,24621,2,0,L|51:118,4,29.9999992632865
268,84,25166,6,0,P|279:129|272:158,1,59.999998526573
267,226,25439,1,0,0:0:0:0:
267,226,25576,2,0,P|272:276|281:301,1,59.999998526573
333,344,25848,1,0,0:0:0:0:
333,344,25985,2,0,L|370:345,2,29.9999992632865
249,340,26257,5,0,0:0:0:0:
187,282,26394,2,0,L|186:209,2,59.999998526573
158,361,26803,1,0,0:0:0:0:
83,321,26939,6,0,L|49:328,2,29.9999992632865
94,237,27212,5,0,0:0:0:0:
134,163,27348,1,0,0:0:0:0:
178,234,27485,2,0,P|193:288|186:313,1,59.999998526573
109,281,27757,5,0,0:0:0:0:
104,196,27894,1,0,0:0:0:0:
176,154,28030,2,0,P|208:151|242:167,1,59.999998526573
388,336,28712,5,0,0:0:0:0:
383,252,28848,2,0,L|378:175,1,59.999998526573
374,107,29121,1,0,0:0:0:0:
213,157,29394,5,0,0:0:0:0:
133,182,29530,2,0,L|130:245,2,59.999998526573
146,98,29939,1,0,0:0:0:0:
226,74,30076,2,0,L|226:4,2,59.999998526573
458,317,30894,6,0,P|413:304|385:305,1,59.999998526573
334,355,31166,2,0,P|286:355|254:346,1,59.999998526573
212,295,31439,2,0,L|177:284,2,29.9999992632865
258,224,31712,5,0,0:0:0:0:
319,167,31848,1,0,0:0:0:0:
237,145,31985,2,0,P|208:164|186:193,1,59.999998526573
195,266,32257,5,0,0:0:0:0:
273,295,32394,1,0,0:0:0:0:
336,240,32530,2,0,L|365:274,2,29.9999992632865
216,121,32939,6,0,L|247:151,2,29.9999992632865
131,123,33212,1,0,0:0:0:0:
68,178,33348,2,0,P|64:225|68:262,1,59.999998526573
205,330,33757,5,0,0:0:0:0:
248,257,33894,2,0,L|316:262,1,59.999998526573
388,238,34166,5,0,0:0:0:0:
327,178,34303,2,0,L|260:176,1,59.999998526573
203,120,34576,5,0,0:0:0:0:
130,161,34712,2,0,B|121:204|121:204|133:231|133:231|123:268|123:300,1,119.999997053146
122,319,35053,6,0,P|158:345|217:349,1,89.9999977898594
264,294,35394,1,0,0:0:0:0:
215,225,35530,2,0,L|207:153,1,59.999998526573
290,147,35803,2,0,L|310:74,1,59.999998526573
227,58,36076,6,0,L|237:6,2,39.9999990177153
173,42,36348,2,0,L|148:-4,2,39.9999990177153
124,70,36621,1,0,0:0:0:0:
78,140,36757,2,0,L|3:148,2,59.999998526573
150,183,37166,6,0,P|188:191|220:188,1,59.999998526573
264,126,37439,2,0,P|307:121|342:130,1,59.999998526573
394,168,37712,2,0,L|445:191,2,39.9999990177153
356,210,37985,2,0,L|313:226,2,39.9999990177153
392,252,38257,1,0,0:0:0:0:
246,335,38530,6,0,L|234:363,4,29.9999992632865
309,272,38939,1,0,0:0:0:0:
228,252,39076,1,0,0:0:0:0:
289,190,39212,1,0,0:0:0:0:
208,167,39348,6,0,P|166:195|153:217,1,59.999998526573
155,286,39621,2,0,P|189:326|216:331,1,59.999998526573
277,339,39894,2,0,L|303:360,2,29.9999992632865
298,258,40166,2,0,L|350:253,2,29.9999992632865
256,184,40439,6,0,L|255:121,2,39.9999990177153
210,217,40712,2,0,L|205:258,2,39.9999990177153
161,187,40985,2,0,L|100:180,1,59.999998526573
57,251,41257,2,0,L|139:261,1,59.999998526573
190,298,41530,6,0,P|225:313|255:314,1,59.999998526573
304,253,41803,2,0,P|273:238|228:238,1,59.999998526573
164,224,42076,6,0,L|115:226,2,39.9999990177153
185,172,42348,2,0,L|228:167,2,39.9999990177153
154,124,42621,1,0,0:0:0:0:
20,21,42894,6,0,L|-4:0,2,29.9999992632865
70,87,43166,1,0,0:0:0:0:
135,34,43303,1,0,0:0:0:0:
135,34,43439,1,0,0:0:0:0:
169,110,43576,1,0,0:0:0:0:
240,66,43712,5,4,0:0:0:0:
144,163,49166,6,0,P|188:166|215:185,1,59.999998526573
242,238,49439,2,0,P|280:257|305:260,1,59.999998526573
366,211,49712,2,0,B|379:244|379:244|368:284|368:284|383:340|359:384,1,179.999995579719
291,334,50257,6,0,L|218:320,1,59.999998526573
156,303,50530,2,0,L|124:297,2,29.9999992632865
232,285,50803,1,0,0:0:0:0:
186,221,50939,2,0,L|117:201,2,59.999998526573
261,199,51348,2,0,P|303:200|325:209,1,59.999998526573
371,264,51621,2,0,P|410:266|443:253,1,59.999998526573
462,188,51894,2,0,P|468:146|455:88,1,89.9999977898594
424,82,52166,6,0,L|375:80,2,39.9999990177153
256,192,52439,12,0,53257,0:0:0:0:
76,170,57348,6,0,B|150:175|194:152|194:152|168:189|172:283,1,239.999994106292
229,320,58030,6,0,P|278:312|305:297,2,59.999998526573
156,290,58439,2,0,P|96:257|73:191,2,119.999997053146
246,283,59121,2,0,L|321:272,1,59.999998526573
374,216,59394,2,0,L|303:196,1,59.999998526573
235,161,59666,1,0,0:0:0:0:
250,71,59803,2,0,L|253:24,2,29.9999992632865
235,161,60076,6,0,P|173:185|118:174,2,119.999997053146
394,76,60894,2,0,L|465:75,1,59.999998526573
468,163,61166,2,0,L|385:164,1,59.999998526573
322,133,61439,6,0,L|258:133,2,59.999998526573
286,216,61848,2,0,L|243:214,2,29.9999992632865
261,302,62121,1,0,0:0:0:0:
