osu file format v14

[General]
AudioFilename: audio.mp3
AudioLeadIn: 0
PreviewTime: 34985
Countdown: 0
SampleSet: Normal
StackLeniency: 0.4
Mode: 0
LetterboxInBreaks: 0
WidescreenStoryboard: 0

[Editor]
Bookmarks: 26257,28712,43712,76984
DistanceSpacing: 0.5
BeatDivisor: 4
GridSize: 8
TimelineZoom: 2.3

[Metadata]
Title:EGOISM 440
TitleUnicode:EGOISM 440
Artist:U1 High-Speed
ArtistUnicode:U1 High-Speed
Creator:3312
Version:EXTRA
Source:DDR 2015
Tags:Dance Dance Revolution
BeatmapID:1115951
BeatmapSetID:524306

[Difficulty]
HPDrainRate:7
CircleSize:3.5
OverallDifficulty:8
ApproachRate:9
SliderMultiplier:1.4
SliderTickRate:1

[Events]
//Background and Video events
0,0,"ur mom.jpg",0,0
//Break Periods
2,45003,48566
2,53730,56748
//Storyboard Layer 0 (Background)
//Storyboard Layer 1 (Fail)
//Storyboard Layer 2 (Pass)
//Storyboard Layer 3 (Foreground)
//Storyboard Sound Samples

[TimingPoints]
76,272.727272727273,4,1,0,100,1,0
8121,-133.333333333333,4,1,0,100,0,0
8803,-83.3333333333333,4,1,0,100,0,0
34712,-133.333333333333,4,1,0,100,0,0
34985,-83.3333333333333,4,1,0,100,0,0
36076,-66.6666666666667,4,1,0,100,0,0
36621,-100,4,1,0,100,0,0
37166,-83.3333333333333,4,1,0,100,0,0
37576,-66.6666666666667,4,1,0,100,0,0
37712,-50,4,1,0,100,0,0
38257,-66.6666666666667,4,1,0,100,0,0
49166,-63.2911392405063,4,1,0,100,0,0
64576,272.727272727273,4,1,0,100,1,0
65257,272.727272727273,4,1,0,100,1,0
69075,-76.9230769230769,4,1,0,100,0,0
77529,-50,4,1,0,100,0,1
86257,-66.6666666666667,4,1,0,100,0,0
96075,-66.6666666666667,4,1,0,5,0,0

[Colours]
Combo1 : 255,255,17
Combo2 : 29,152,226
Combo3 : 86,233,218

[HitObjects]
142,82,4439,6,0,L|235:82,1,70
271,151,4712,2,0,L|352:156,1,70
423,89,4985,2,0,L|465:80,3,35
404,92,5257,2,0,P|401:146|410:169,1,70
481,247,5530,6,0,B|468:279|480:316|480:316|492:353|471:396,2,140
391,100,6348,1,0,0:0:0:0:
391,100,6621,6,0,P|332:91|293:92,1,70
209,185,6894,2,0,P|254:193|305:191,1,70
396,83,7166,2,0,L|401:38,3,35
414,109,7439,2,0,P|424:165|421:198,1,70
359,264,7712,6,0,P|312:266|238:203,1,140
221,107,8121,1,0,0:0:0:0:
256,192,8189,12,0,8803,0:0:0:0:
155,166,8939,5,0,0:0:0:0:
128,257,9076,2,0,P|197:252|218:244,1,83.9999974365235
365,104,9348,5,0,0:0:0:0:
436,187,9485,1,0,0:0:0:0:
413,195,9553,1,0,0:0:0:0:
386,199,9621,6,0,P|339:196|295:178,1,83.9999974365235
202,51,9894,2,0,P|223:119|219:154,1,83.9999974365235
185,291,10166,2,0,P|204:237|238:204,1,83.9999974365235
240,200,10371,5,0,0:0:0:0:
253,191,10439,1,0,0:0:0:0:
374,157,10576,1,0,0:0:0:0:
280,284,10712,1,0,0:0:0:0:
280,284,10780,1,0,0:0:0:0:
280,284,10848,2,0,L|371:315,1,83.9999974365235
470,220,11121,6,0,P|408:238|386:266,1,83.9999974365235
322,157,11394,2,0,P|353:102|347:48,1,83.9999974365235
354,82,11803,1,0,0:0:0:0:
175,27,11939,1,0,0:0:0:0:
363,24,12076,1,0,0:0:0:0:
198,102,12212,1,0,0:0:0:0:
376,92,12348,5,0,0:0:0:0:
143,30,12485,1,0,0:0:0:0:
380,24,12621,1,0,0:0:0:0:
172,116,12757,1,0,0:0:0:0:
376,92,12894,1,0,0:0:0:0:
385,119,12962,1,0,0:0:0:0:
395,151,13030,1,0,0:0:0:0:
408,184,13098,1,0,0:0:0:0:
420,218,13166,5,0,0:0:0:0:
328,283,13303,1,0,0:0:0:0:
328,283,13371,1,0,0:0:0:0:
328,283,13439,2,0,P|284:252|219:255,1,83.9999974365235
145,271,13712,1,0,0:0:0:0:
145,271,13780,1,0,0:0:0:0:
145,271,13848,1,0,0:0:0:0:
145,271,13916,1,0,0:0:0:0:
145,271,13985,2,0,P|146:191|136:155,1,83.9999974365235
198,84,14257,6,0,P|248:82|286:61,1,83.9999974365235
354,2,14530,1,0,0:0:0:0:
277,67,14666,2,0,P|268:119|357:204,1,167.999994873047
438,226,15076,1,0,0:0:0:0:
438,246,15144,1,0,0:0:0:0:
438,266,15212,1,0,0:0:0:0:
440,286,15280,1,0,0:0:0:0:
439,306,15348,6,0,P|356:312|324:303,1,83.9999974365235
257,195,15621,2,0,P|316:191|344:204,1,83.9999974365235
174,273,15894,1,0,0:0:0:0:
171,250,15962,1,0,0:0:0:0:
170,229,16030,1,0,0:0:0:0:
169,207,16098,1,0,0:0:0:0:
167,182,16166,2,0,L|165:94,1,83.9999974365235
300,21,16439,6,0,P|280:67|242:90,1,83.9999974365235
165,98,16712,1,0,0:0:0:0:
265,109,16848,2,0,P|332:139|368:225,1,167.999994873047
330,317,17257,1,0,0:0:0:0:
308,315,17326,1,0,0:0:0:0:
287,309,17394,1,0,0:0:0:0:
268,298,17462,1,0,0:0:0:0:
250,286,17530,5,0,0:0:0:0:
161,190,17666,1,0,0:0:0:0:
126,314,17803,1,0,0:0:0:0:
243,207,17939,5,0,0:0:0:0:
198,346,18076,1,0,0:0:0:0:
96,238,18212,1,0,0:0:0:0:
274,191,18348,6,0,L|316:172,2,41.9999987182618
398,238,18621,6,0,L|416:279,2,41.9999987182618
461,124,18894,6,0,L|415:141,2,41.9999987182618
327,63,19166,5,0,0:0:0:0:
332,83,19235,1,0,0:0:0:0:
340,102,19303,1,0,0:0:0:0:
345,121,19371,1,0,0:0:0:0:
353,140,19439,2,0,L|372:185,4,41.9999987182618
241,111,19848,5,0,0:0:0:0:
241,111,19916,1,0,0:0:0:0:
241,111,19985,1,0,0:0:0:0:
135,185,20121,2,0,L|130:278,1,83.9999974365235
138,277,20530,5,0,0:0:0:0:
138,277,20598,1,0,0:0:0:0:
138,277,20666,1,0,0:0:0:0:
269,270,20803,1,0,0:0:0:0:
209,368,20939,1,0,0:0:0:0:
204,216,21076,5,0,0:0:0:0:
204,216,21144,1,0,0:0:0:0:
204,216,21212,1,0,0:0:0:0:
302,327,21348,1,0,0:0:0:0:
346,197,21485,1,0,0:0:0:0:
214,295,21621,1,0,0:0:0:0:
193,297,21689,1,0,0:0:0:0:
172,293,21757,1,0,0:0:0:0:
153,282,21826,1,0,0:0:0:0:
139,266,21894,5,0,0:0:0:0:
108,167,22030,2,0,L|115:120,2,41.9999987182618
68,286,22303,1,0,0:0:0:0:
24,167,22439,1,0,0:0:0:0:
25,146,22507,1,0,0:0:0:0:
27,125,22576,1,0,0:0:0:0:
31,101,22644,1,0,0:0:0:0:
35,80,22712,1,0,0:0:0:0:
137,40,22848,1,0,0:0:0:0:
121,140,22985,6,0,P|186:137|208:120,1,83.9999974365235
265,33,23257,1,0,0:0:0:0:
301,124,23394,2,0,L|301:305,1,167.999994873047
304,316,23735,1,0,0:0:0:0:
305,316,23803,1,0,0:0:0:0:
119,247,23939,1,0,0:0:0:0:
203,245,24076,6,0,P|141:244|83:260,1,83.9999974365235
61,177,24348,2,0,P|74:137|63:67,1,83.9999974365235
183,24,24621,1,0,0:0:0:0:
184,44,24689,1,0,0:0:0:0:
185,64,24757,1,0,0:0:0:0:
187,85,24826,1,0,0:0:0:0:
186,107,24894,2,0,L|192:209,1,83.9999974365235
152,322,25166,6,0,P|210:311|267:333,1,83.9999974365235
336,347,25439,1,0,0:0:0:0:
335,179,25576,2,0,L|336:376,1,167.999994873047
337,360,25916,1,0,0:0:0:0:
337,360,25985,1,0,0:0:0:0:
208,266,26121,1,0,0:0:0:0:
259,109,26257,5,0,0:0:0:0:
230,186,26394,1,0,0:0:0:0:
414,205,26530,1,0,0:0:0:0:
340,68,26666,1,0,0:0:0:0:
312,251,26803,1,0,0:0:0:0:
206,169,26939,6,0,L|170:129,2,41.9999987182618
317,271,27212,5,0,0:0:0:0:
397,113,27348,1,0,0:0:0:0:
424,286,27485,1,0,0:0:0:0:
300,157,27621,1,0,0:0:0:0:
479,187,27757,1,0,0:0:0:0:
317,271,27894,1,0,0:0:0:0:
397,113,28030,5,0,0:0:0:0:
401,89,28098,1,0,0:0:0:0:
406,66,28166,1,0,0:0:0:0:
406,66,28712,5,0,0:0:0:0:
217,85,28848,1,0,0:0:0:0:
334,161,28985,1,0,0:0:0:0:
174,188,29121,1,0,0:0:0:0:
174,188,29394,5,0,0:0:0:0:
243,341,29530,1,0,0:0:0:0:
273,175,29666,1,0,0:0:0:0:
148,288,29803,1,0,0:0:0:0:
341,266,29939,5,0,0:0:0:0:
366,116,30076,1,0,0:0:0:0:
341,266,30212,1,0,0:0:0:0:
366,116,30348,1,0,0:0:0:0:
366,116,30757,5,0,0:0:0:0:
196,156,30894,5,0,0:0:0:0:
341,266,31030,1,0,0:0:0:0:
210,251,31166,1,0,0:0:0:0:
268,89,31303,1,0,0:0:0:0:
341,266,31439,6,0,L|272:258,1,41.9999987182618
210,251,31576,2,0,L|158:249,1,41.9999987182618
83,246,31712,5,0,0:0:0:0:
106,109,31848,1,0,0:0:0:0:
83,246,31985,1,0,0:0:0:0:
106,109,32122,1,0,0:0:0:0:
217,212,32257,5,0,0:0:0:0:
75,178,32394,1,0,0:0:0:0:
205,120,32530,1,0,0:0:0:0:
225,123,32598,1,0,0:0:0:0:
245,127,32666,1,0,0:0:0:0:
245,125,32939,5,0,0:0:0:0:
225,123,33007,1,0,0:0:0:0:
205,120,33075,1,0,0:0:0:0:
85,145,33212,1,0,0:0:0:0:
181,238,33348,1,0,0:0:0:0:
75,289,33485,1,0,0:0:0:0:
75,289,33757,5,0,0:0:0:0:
211,308,33894,1,0,0:0:0:0:
154,174,34030,1,0,0:0:0:0:
135,335,34166,5,0,0:0:0:0:
250,215,34303,1,0,0:0:0:0:
296,361,34439,1,0,0:0:0:0:
152,257,34576,5,0,0:0:0:0:
250,215,34712,2,0,P|250:168|235:128,1,78.7500030040742
269,231,34985,6,0,B|320:231|320:231|325:224|325:224|330:231|330:231|364:231|364:231|367:237|367:237|370:231|370:231|399:231,1,125.999996154785
364,316,35257,2,0,P|297:311|234:314,1,125.999996154785
165,340,35530,1,0,0:0:0:0:
148,355,35598,1,0,0:0:0:0:
136,369,35666,1,0,0:0:0:0:
86,244,35803,1,0,0:0:0:0:
109,252,35871,1,0,0:0:0:0:
128,266,35939,1,0,0:0:0:0:
188,191,36076,6,0,P|182:136|168:119,1,70.0000026702882
107,48,36257,1,0,0:0:0:0:
89,60,36348,2,0,L|90:136,1,70.0000026702882
86,244,36530,1,0,0:0:0:0:
109,253,36621,6,0,P|165:278|196:305,1,70
220,352,36894,1,0,0:0:0:0:
259,269,37030,2,0,P|306:262|325:258,1,35
407,229,37166,6,0,P|372:188|314:177,1,83.9999974365235
233,184,37439,2,0,B|217:169|217:169|210:140,1,41.9999987182618
288,20,37576,2,0,L|290:131,1,105.000004005432
292,204,37803,5,0,0:0:0:0:
292,284,37894,1,0,0:0:0:0:
189,244,37985,5,0,0:0:0:0:
191,206,38075,1,0,0:0:0:0:
193,169,38166,1,0,0:0:0:0:
98,194,38257,5,0,0:0:0:0:
98,194,38530,2,0,L|81:118,1,52.5000020027161
125,295,38666,2,0,L|140:358,1,52.5000020027161
218,212,38803,1,0,0:0:0:0:
257,333,38939,1,0,0:0:0:0:
339,212,39076,1,0,0:0:0:0:
191,206,39212,1,0,0:0:0:0:
260,76,39348,6,0,B|265:95|265:95|254:118|254:118|277:139|268:193,1,105.000004005432
359,314,39621,2,0,B|352:279|375:258|375:258|364:235|364:235|369:216,1,105.000004005432
404,95,39894,2,0,L|417:34,2,52.5000020027161
460,231,40166,2,0,L|501:271,2,52.5000020027161
299,163,40439,6,0,L|182:175,2,70.0000026702882
332,278,40712,2,0,L|331:360,2,70.0000026702882
386,205,40985,1,0,0:0:0:0:
245,241,41121,1,0,0:0:0:0:
319,118,41257,1,0,0:0:0:0:
185,136,41394,1,0,0:0:0:0:
218,250,41530,6,0,P|211:329|201:364,1,105.000004005432
223,231,41803,2,0,P|271:189|339:187,1,105.000004005432
200,240,42076,1,0,0:0:0:0:
167,228,42166,1,0,0:0:0:0:
133,216,42257,1,0,0:0:0:0:
130,131,42348,5,0,0:0:0:0:
162,142,42439,1,0,0:0:0:0:
195,153,42530,1,0,0:0:0:0:
202,70,42621,5,0,0:0:0:0:
86,125,42757,1,0,0:0:0:0:
103,23,42894,5,0,0:0:0:0:
103,23,42962,1,0,0:0:0:0:
103,23,43030,1,0,0:0:0:0:
219,68,43166,1,0,0:0:0:0:
78,138,43303,1,0,0:0:0:0:
251,155,43439,1,0,0:0:0:0:
153,208,43576,1,0,0:0:0:0:
249,258,43712,5,0,0:0:0:0:
256,192,43780,12,0,44803,0:0:0:0:
206,131,49166,6,0,P|235:171|185:137,1,165.900004050293
276,80,49439,2,0,P|312:140|316:154,1,55.3000013500977
117,232,49576,2,0,P|98:178|98:151,1,55.3000013500977
253,251,49712,2,0,L|289:309,1,55.3000013500977
333,371,49848,1,0,0:0:0:0:
333,371,49916,1,0,0:0:0:0:
333,371,49985,1,0,0:0:0:0:
382,253,50121,2,0,B|383:237|374:217|374:217|394:208|394:208|384:181|384:181|388:150|361:71,1,165.900004050293
216,55,50462,5,0,0:0:0:0:
197,52,50530,1,0,0:0:0:0:
174,54,50598,2,0,P|109:93|99:129,1,110.600002700195
177,133,50803,2,0,B|172:166|192:195|192:195|159:237|198:310,1,165.900004050293
256,244,51076,5,0,0:0:0:0:
320,224,51166,5,0,0:0:0:0:
389,202,51257,5,0,0:0:0:0:
455,177,51348,6,0,L|403:64,1,110.600002700195
303,54,51621,1,0,0:0:0:0:
294,37,51689,1,0,0:0:0:0:
286,24,51757,1,0,0:0:0:0:
252,133,51894,2,0,L|256:254,1,110.600002700195
294,332,52166,6,0,L|362:373,2,73.7333351334636
214,301,52439,6,0,L|208:228,1,55.3000013500977
197,173,52576,2,0,L|190:115,2,36.8666675667318
296,271,52712,6,0,L|290:198,1,55.3000013500977
285,138,52849,2,0,L|282:87,2,36.8666675667318
376,237,52985,6,0,L|374:164,1,55.3000013500977
372,108,53121,2,0,L|372:54,1,36.8666675667318
454,206,53257,5,0,0:0:0:0:
216,88,53530,1,0,0:0:0:0:
77,168,57348,6,0,B|132:188|161:148|161:148|179:193|179:193|263:137|395:196,1,331.800008100586
419,291,57894,6,0,L|356:291,1,55.3000013500977
269,292,58030,1,0,0:0:0:0:
384,189,58166,6,0,B|388:146|388:146|375:90,1,73.7333351334636
277,33,58348,1,0,0:0:0:0:
224,92,58439,2,0,P|212:169|214:239,1,110.600002700195
235,256,58644,1,0,0:0:0:0:
269,292,58712,1,0,0:0:0:0:
417,249,58848,2,0,P|435:191|428:154,1,55.3000013500977
370,109,58985,6,0,P|308:107|263:55,1,110.600002700195
215,22,59189,1,0,0:0:0:0:
167,11,59257,1,0,0:0:0:0:
120,26,59326,1,0,0:0:0:0:
97,68,59394,6,0,L|102:127,1,55.3000013500977
68,213,59530,2,0,B|183:217|135:180|254:200,1,165.900004050293
313,189,59803,1,0,0:0:0:0:
358,193,59871,1,0,0:0:0:0:
401,199,59939,1,0,0:0:0:0:
287,264,60076,6,0,P|239:195|274:122,1,165.900004050293
276,51,60348,1,0,0:0:0:0:
326,65,60416,1,0,0:0:0:0:
346,119,60485,1,0,0:0:0:0:
275,352,60621,2,0,P|249:344|227:329,1,55.3000013500977
366,308,60757,2,0,P|375:282|376:255,1,55.3000013500977
287,264,60894,5,0,0:0:0:0:
249,203,60985,1,0,0:0:0:0:
215,135,61076,1,0,0:0:0:0:
187,68,61166,5,0,0:0:0:0:
122,242,61303,1,0,0:0:0:0:
204,49,61439,2,0,L|289:24,2,73.7333351334636
72,160,61712,5,0,0:0:0:0:
72,160,61780,1,0,0:0:0:0:
72,160,61848,1,0,0:0:0:0:
157,66,61985,1,0,0:0:0:0:
199,217,62121,1,0,0:0:0:0:
249,53,62257,5,0,0:0:0:0:
320,230,62394,1,0,0:0:0:0:
362,73,62530,1,0,0:0:0:0:
220,213,62667,1,0,0:0:0:0:
371,155,62803,6,0,L|354:252,1,55.3000013500977
425,273,62939,2,0,L|432:340,1,55.3000013500977
362,376,63076,5,0,0:0:0:0:
415,256,63212,1,0,0:0:0:0:
285,285,63348,1,0,0:0:0:0:
336,168,63485,1,0,0:0:0:0:
362,310,63621,5,0,0:0:0:0:
263,209,63757,1,0,0:0:0:0:
410,188,63894,1,0,0:0:0:0:
410,188,63962,1,0,0:0:0:0:
410,188,64030,1,0,0:0:0:0:
410,188,64576,5,0,0:0:0:0:
284,87,64712,1,0,0:0:0:0:
336,220,64848,1,0,0:0:0:0:
209,166,64985,1,0,0:0:0:0:
209,166,65257,5,0,0:0:0:0:
194,335,65393,1,0,0:0:0:0:
336,220,65529,1,0,0:0:0:0:
147,225,65666,1,0,0:0:0:0:
279,309,65802,5,0,0:0:0:0:
292,148,65938,1,0,0:0:0:0:
135,225,66075,1,0,0:0:0:0:
349,233,66211,1,0,0:0:0:0:
349,233,66620,6,0,B|352:193|339:169|339:169|334:153|343:115,1,105
343,107,66893,5,0,0:0:0:0:
197,145,67029,1,0,0:0:0:0:
303,199,67166,1,0,0:0:0:0:
263,65,67302,1,0,0:0:0:0:
220,224,67438,5,0,0:0:0:0:
343,107,67575,1,0,0:0:0:0:
181,132,67711,1,0,0:0:0:0:
324,223,67847,1,0,0:0:0:0:
266,42,67984,5,0,0:0:0:0:
162,138,68120,1,0,0:0:0:0:
363,101,68257,1,0,0:0:0:0:
207,234,68393,1,0,0:0:0:0:
330,228,68529,5,0,0:0:0:0:
347,230,68597,1,0,0:0:0:0:
363,236,68666,1,0,0:0:0:0:
378,243,68734,1,0,0:0:0:0:
391,253,68802,6,0,P|408:313|395:351,1,105
365,359,69075,2,0,P|288:350|241:349,1,90.9999958343508
153,310,69347,1,0,0:0:0:0:
298,266,69484,1,0,0:0:0:0:
155,209,69620,1,0,0:0:0:0:
289,174,69757,1,0,0:0:0:0:
162,99,69893,5,0,0:0:0:0:
174,82,69961,1,0,0:0:0:0:
190,67,70029,1,0,0:0:0:0:
204,57,70097,1,0,0:0:0:0:
219,49,70166,5,0,0:0:0:0:
404,154,70302,1,0,0:0:0:0:
230,150,70438,5,0,0:0:0:0:
409,50,70575,1,0,0:0:0:0:
321,197,70711,5,0,0:0:0:0:
317,7,70847,1,0,0:0:0:0:
324,217,70984,6,0,B|329:271|329:271|317:318|317:318|297:274,1,136.499993751526
184,220,71257,2,0,B|179:274|179:274|191:321|191:321,1,90.9999958343508
253,80,71529,5,0,0:0:0:0:
255,167,71666,1,0,0:0:0:0:
192,39,71802,5,0,0:0:0:0:
290,182,71938,1,0,0:0:0:0:
114,20,72075,6,0,L|65:-13,1,45.4999979171754
165,163,72211,2,0,L|150:213,1,45.4999979171754
209,85,72347,1,0,0:0:0:0:
290,206,72484,1,0,0:0:0:0:
179,283,72620,6,0,L|125:287,1,45.4999979171754
181,314,72757,2,0,L|130:315,1,45.4999979171754
292,200,72893,6,0,L|337:200,1,45.4999979171754
294,115,73029,2,0,L|339:113,1,45.4999979171754
181,49,73166,6,0,P|111:73|79:131,1,136.499993751526
117,194,73438,2,0,P|165:184|228:213,1,90.9999958343508
305,288,73711,5,0,0:0:0:0:
163,337,73847,1,0,0:0:0:0:
335,287,73984,1,0,0:0:0:0:
163,257,74120,1,0,0:0:0:0:
353,289,74257,6,0,P|364:245|348:188,1,90.9999958343508
340,175,74461,1,0,0:0:0:0:
315,153,74529,5,0,0:0:0:0:
149,98,74666,1,0,0:0:0:0:
229,203,74802,5,0,0:0:0:0:
240,34,74938,1,0,0:0:0:0:
140,186,75075,5,0,0:0:0:0:
317,69,75211,1,0,0:0:0:0:
243,215,75347,6,0,P|243:285|219:333,1,90.9999958343508
319,115,75620,2,0,P|377:114|443:133,1,90.9999958343508
210,121,75893,5,0,0:0:0:0:
190,113,75984,1,0,0:0:0:0:
193,137,76075,1,0,0:0:0:0:
203,109,76166,5,0,0:0:0:0:
210,142,76257,1,0,0:0:0:0:
178,132,76347,1,0,0:0:0:0:
203,126,76438,6,0,L|304:131,1,90.9999958343508
280,255,76711,2,0,L|177:254,1,90.9999958343508
62,189,76984,1,0,0:0:0:0:
62,189,77529,6,0,P|168:172|206:196,1,140
200,317,77802,2,0,P|128:329|50:308,1,140
60,158,78075,5,0,0:0:0:0:
62,123,78143,1,0,0:0:0:0:
61,88,78211,5,0,0:0:0:0:
56,53,78279,1,0,0:0:0:0:
46,19,78347,5,0,0:0:0:0:
251,37,78484,1,0,0:0:0:0:
62,123,78620,5,0,0:0:0:0:
257,153,78757,1,0,0:0:0:0:
52,258,78893,5,0,0:0:0:0:
241,297,79029,1,0,0:0:0:0:
49,357,79166,5,0,0:0:0:0:
92,340,79234,1,0,0:0:0:0:
124,307,79302,1,0,0:0:0:0:
138,263,79370,1,0,0:0:0:0:
131,217,79438,1,0,0:0:0:0:
105,179,79506,1,0,0:0:0:0:
64,156,79575,1,0,0:0:0:0:
52,258,79711,5,0,0:0:0:0:
165,209,79847,1,0,0:0:0:0:
169,181,79916,1,0,0:0:0:0:
174,153,79984,1,0,0:0:0:0:
285,263,80120,1,0,0:0:0:0:
290,287,80188,1,0,0:0:0:0:
296,313,80257,5,0,0:0:0:0:
330,313,80325,1,0,0:0:0:0:
364,311,80393,5,0,0:0:0:0:
398,309,80461,1,0,0:0:0:0:
432,309,80529,5,0,0:0:0:0:
403,147,80666,1,0,0:0:0:0:
283,228,80802,2,0,P|283:327|323:369,1,140
452,287,81075,5,0,0:0:0:0:
414,113,81211,1,0,0:0:0:0:
250,173,81347,2,0,L|81:173,1,140
299,100,81620,1,0,0:0:0:0:
321,126,81688,1,0,0:0:0:0:
330,160,81757,1,0,0:0:0:0:
327,194,81825,1,0,0:0:0:0:
312,225,81893,5,0,0:0:0:0:
168,275,82029,1,0,0:0:0:0:
168,275,82097,1,0,0:0:0:0:
168,275,82166,1,0,0:0:0:0:
332,338,82302,1,0,0:0:0:0:
330,160,82438,5,0,0:0:0:0:
294,158,82507,1,0,0:0:0:0:
259,158,82575,5,0,0:0:0:0:
224,157,82643,1,0,0:0:0:0:
189,155,82711,5,0,0:0:0:0:
124,306,82847,1,0,0:0:0:0:
274,255,82984,2,0,L|267:175,1,70
256,40,83120,1,0,0:0:0:0:
189,155,83257,1,0,0:0:0:0:
330,148,83393,1,0,0:0:0:0:
157,73,83529,5,0,0:0:0:0:
129,94,83597,1,0,0:0:0:0:
111,123,83665,1,0,0:0:0:0:
104,158,83733,1,0,0:0:0:0:
110,192,83801,1,0,0:0:0:0:
126,223,83870,1,0,0:0:0:0:
132,257,83938,1,0,0:0:0:0:
126,291,84007,1,0,0:0:0:0:
105,319,84075,5,0,0:0:0:0:
255,263,84211,1,0,0:0:0:0:
255,263,84279,1,0,0:0:0:0:
255,263,84347,1,0,0:0:0:0:
110,192,84484,2,0,L|187:184,1,70
339,169,84620,5,0,0:0:0:0:
373,163,84688,1,0,0:0:0:0:
408,158,84757,5,0,0:0:0:0:
442,152,84825,1,0,0:0:0:0:
476,148,84893,5,0,0:0:0:0:
343,44,85029,1,0,0:0:0:0:
319,178,85166,2,0,P|343:256|406:288,1,140
485,113,85438,5,0,0:0:0:0:
323,25,85575,1,0,0:0:0:0:
287,175,85711,2,0,L|265:335,1,140
227,120,85984,1,0,0:0:0:0:
257,102,86052,1,0,0:0:0:0:
291,98,86120,1,0,0:0:0:0:
324,106,86188,1,0,0:0:0:0:
346,121,86257,6,0,L|374:184,1,52.5000020027161
428,303,86393,1,0,0:0:0:0:
428,303,86802,6,0,L|341:293,1,52.5000020027161
201,275,86938,1,0,0:0:0:0:
201,275,87347,5,0,0:0:0:0:
205,109,87484,1,0,0:0:0:0:
311,241,87620,1,0,0:0:0:0:
197,75,87757,1,0,0:0:0:0:
385,154,87893,1,0,0:0:0:0:
179,52,88029,1,0,0:0:0:0:
423,46,88166,1,0,0:0:0:0:
157,25,88302,1,0,0:0:0:0:
157,25,88575,5,0,0:0:0:0:
57,175,88711,1,0,0:0:0:0:
228,112,88847,1,0,0:0:0:0:
49,64,88984,1,0,0:0:0:0:
160,205,89120,1,0,0:0:0:0:
160,205,89393,5,0,0:0:0:0:
302,203,89529,1,0,0:0:0:0:
229,78,89666,1,0,0:0:0:0:
215,255,89802,1,0,0:0:0:0:
312,97,89938,1,0,0:0:0:0:
312,97,90211,5,0,0:0:0:0:
389,253,90347,1,0,0:0:0:0:
272,213,90484,1,0,0:0:0:0:
422,141,90620,1,0,0:0:0:0:
399,281,90757,1,0,0:0:0:0:
399,281,91029,6,0,L|317:265,1,52.5000020027161
219,230,91166,1,0,0:0:0:0:
346,131,91302,1,0,0:0:0:0:
346,131,91575,6,0,L|257:120,1,52.5000020027161
121,102,91711,1,0,0:0:0:0:
302,15,91847,1,0,0:0:0:0:
219,230,91984,5,0,0:0:0:0:
192,3,92120,1,0,0:0:0:0:
256,192,92188,12,0,96075,0:0:0:0:
