osu file format v14

[General]
AudioFilename: audio.mp3
AudioLeadIn: 0
PreviewTime: 17929
Countdown: 0
SampleSet: Normal
StackLeniency: 0.7
Mode: 1
LetterboxInBreaks: 0
WidescreenStoryboard: 0

[Editor]
Bookmarks: 8179,12179,13929,15679,15929,39116
DistanceSpacing: 1
BeatDivisor: 4
GridSize: 32
TimelineZoom: 1.6

[Metadata]
Title:Lesson by DJ
TitleUnicode:Lesson by DJ
Artist:U.T.D. & Friends
ArtistUnicode:U.T.D. & Friends
Creator:tatatat
Version:BASIC
Source:DanceDanceRevolution HOTTEST PARTY
Tags:DDR rhythm video game electronic english tatsh u1-asami scott dolph
BeatmapID:2011222
BeatmapSetID:960656

[Difficulty]
HPDrainRate:8
CircleSize:2
OverallDifficulty:4
ApproachRate:10
SliderMultiplier:1.4
SliderTickRate:1

[Events]
//Background and Video events
0,0,"blackbg.png",0,0
//Break Periods
//Storyboard Layer 0 (Background)
//Storyboard Layer 1 (Fail)
//Storyboard Layer 2 (Pass)
//Storyboard Layer 3 (Foreground)
//Storyboard Layer 4 (Overlay)
//Storyboard Sound Samples

[TimingPoints]
179,500,4,1,0,55,1,0
20179,-100,4,1,0,55,0,1
38179,-100,4,1,0,55,0,0
60179,-100,4,1,0,55,0,1
94179,-100,4,1,0,55,0,0
104179,-100,4,1,0,55,0,1
132179,-100,4,1,0,55,0,0
132929,-100,4,1,0,30,0,0

[HitObjects]
256,192,179,5,0,0:0:0:0:
256,192,2179,1,0,0:0:0:0:
256,192,4179,1,0,0:0:0:0:
256,192,5179,1,0,0:0:0:0:
256,192,5679,1,8,0:0:0:0:
256,192,6179,1,0,0:0:0:0:
256,192,7179,1,0,0:0:0:0:
256,192,7679,1,8,0:0:0:0:
256,192,8179,1,0,0:0:0:0:
256,192,10179,1,0,0:0:0:0:
256,192,10679,1,8,0:0:0:0:
256,192,11179,1,0,0:0:0:0:
256,192,12179,1,0,0:0:0:0:
256,192,13179,1,0,0:0:0:0:
256,192,13679,1,8,0:0:0:0:
256,192,14179,1,0,0:0:0:0:
256,192,15179,1,0,0:0:0:0:
256,192,15679,1,8,0:0:0:0:
256,192,16179,1,0,0:0:0:0:
256,192,17179,1,0,0:0:0:0:
256,192,17679,1,0,0:0:0:0:
256,192,18179,1,0,0:0:0:0:
256,192,19179,1,0,0:0:0:0:
256,192,20179,5,8,0:0:0:0:
256,192,21179,1,8,0:0:0:0:
256,192,22179,1,0,0:0:0:0:
256,192,23179,1,0,0:0:0:0:
256,192,24179,1,8,0:0:0:0:
256,192,24679,1,8,0:0:0:0:
256,192,25179,1,8,0:0:0:0:
256,192,25679,1,8,0:0:0:0:
256,192,26179,1,0,0:0:0:0:
256,192,26679,1,0,0:0:0:0:
256,192,27179,1,0,0:0:0:0:
256,192,27679,1,0,0:0:0:0:
256,192,28179,1,8,0:0:0:0:
256,192,28679,1,8,0:0:0:0:
256,192,29179,1,8,0:0:0:0:
256,192,30179,1,8,0:0:0:0:
256,192,30679,1,8,0:0:0:0:
256,192,31179,1,8,0:0:0:0:
256,192,32179,1,8,0:0:0:0:
256,192,34179,2,0,L|384:192,4,105
256,192,36179,2,0,L|416:192,3,140
256,192,38179,1,0,0:0:0:0:
256,192,38679,1,8,0:0:0:0:
256,192,39429,1,0,0:0:0:0:
256,192,39679,1,8,0:0:0:0:
256,192,40179,1,0,0:0:0:0:
256,192,40679,1,8,0:0:0:0:
256,192,41429,1,0,0:0:0:0:
256,192,41679,1,8,0:0:0:0:
256,192,42179,1,0,0:0:0:0:
256,192,42679,1,8,0:0:0:0:
256,192,43179,1,0,0:0:0:0:
256,192,43429,1,0,0:0:0:0:
256,192,43679,1,8,0:0:0:0:
256,192,44179,1,0,0:0:0:0:
256,192,44679,1,8,0:0:0:0:
256,192,45179,1,0,0:0:0:0:
256,192,45429,1,0,0:0:0:0:
256,192,45679,1,8,0:0:0:0:
256,192,46179,1,0,0:0:0:0:
256,192,46429,1,8,0:0:0:0:
256,192,46679,1,8,0:0:0:0:
256,192,47429,1,0,0:0:0:0:
256,192,47679,1,8,0:0:0:0:
256,192,48179,1,0,0:0:0:0:
256,192,48429,1,8,0:0:0:0:
256,192,48679,1,8,0:0:0:0:
256,192,49429,1,0,0:0:0:0:
256,192,49679,1,8,0:0:0:0:
256,192,50179,1,0,0:0:0:0:
256,192,50679,1,8,0:0:0:0:
256,192,50929,1,0,0:0:0:0:
256,192,51179,1,0,0:0:0:0:
256,192,51679,1,8,0:0:0:0:
256,192,52179,1,0,0:0:0:0:
256,192,52679,1,8,0:0:0:0:
256,192,52929,1,0,0:0:0:0:
256,192,53179,1,0,0:0:0:0:
256,192,53679,1,8,0:0:0:0:
256,192,54179,1,0,0:0:0:0:
256,192,54429,1,8,0:0:0:0:
256,192,54679,1,8,0:0:0:0:
256,192,55679,1,8,0:0:0:0:
256,192,56179,1,0,0:0:0:0:
256,192,56429,1,8,0:0:0:0:
256,192,56679,1,8,0:0:0:0:
256,192,57679,1,8,0:0:0:0:
256,192,58179,1,0,0:0:0:0:
256,192,59179,5,0,0:0:0:0:
256,192,60179,5,8,0:0:0:0:
256,192,61179,1,8,0:0:0:0:
256,192,62179,1,0,0:0:0:0:
256,192,63179,1,0,0:0:0:0:
256,192,64179,1,8,0:0:0:0:
256,192,64679,1,0,0:0:0:0:
256,192,65179,1,8,0:0:0:0:
256,192,65679,1,0,0:0:0:0:
256,192,66179,1,0,0:0:0:0:
256,192,66679,1,8,0:0:0:0:
256,192,67179,1,0,0:0:0:0:
256,192,67679,1,8,0:0:0:0:
256,192,68179,1,8,0:0:0:0:
256,192,68679,1,0,0:0:0:0:
256,192,69179,1,0,0:0:0:0:
256,192,70179,1,8,0:0:0:0:
256,192,70679,1,0,0:0:0:0:
256,192,71179,1,0,0:0:0:0:
256,192,72179,1,0,0:0:0:0:
256,192,72679,1,8,0:0:0:0:
256,192,73179,1,8,0:0:0:0:
256,192,74179,1,0,0:0:0:0:
256,192,74679,1,8,0:0:0:0:
256,192,75179,1,8,0:0:0:0:
256,192,76179,1,8,0:0:0:0:
256,192,78179,1,8,0:0:0:0:
256,192,78679,1,0,0:0:0:0:
256,192,79179,1,8,0:0:0:0:
256,192,79679,1,0,0:0:0:0:
256,192,80179,1,8,0:0:0:0:
256,192,80679,1,8,0:0:0:0:
256,192,81179,1,0,0:0:0:0:
256,192,82179,1,8,0:0:0:0:
256,192,82679,1,0,0:0:0:0:
256,192,83179,1,8,0:0:0:0:
256,192,83679,1,0,0:0:0:0:
256,192,84179,1,8,0:0:0:0:
256,192,84679,1,8,0:0:0:0:
256,192,85179,1,0,0:0:0:0:
256,192,86179,1,0,0:0:0:0:
256,192,86679,1,8,0:0:0:0:
256,192,87179,1,0,0:0:0:0:
256,192,87679,1,8,0:0:0:0:
256,192,88179,1,0,0:0:0:0:
256,192,88679,1,0,0:0:0:0:
256,192,89179,1,8,0:0:0:0:
256,192,90179,1,0,0:0:0:0:
256,192,90679,1,8,0:0:0:0:
256,192,91179,1,0,0:0:0:0:
256,192,91679,1,8,0:0:0:0:
256,192,92179,1,0,0:0:0:0:
256,192,92679,1,0,0:0:0:0:
256,192,93179,1,8,0:0:0:0:
256,192,94179,1,0,0:0:0:0:
256,192,96179,1,0,0:0:0:0:
256,192,97179,1,0,0:0:0:0:
256,192,97679,1,8,0:0:0:0:
256,192,98179,1,0,0:0:0:0:
256,192,98679,1,8,0:0:0:0:
256,192,99179,1,0,0:0:0:0:
256,192,100179,1,0,0:0:0:0:
256,192,100679,1,8,0:0:0:0:
256,192,101179,1,0,0:0:0:0:
256,192,102179,1,0,0:0:0:0:
256,192,103179,1,0,0:0:0:0:
256,192,104179,5,8,0:0:0:0:
256,192,104679,1,8,0:0:0:0:
256,192,105179,1,0,0:0:0:0:
256,192,105679,1,0,0:0:0:0:
256,192,106179,1,8,0:0:0:0:
256,192,106679,1,0,0:0:0:0:
256,192,107179,1,8,0:0:0:0:
256,192,108179,1,8,0:0:0:0:
256,192,108679,1,8,0:0:0:0:
256,192,109179,1,0,0:0:0:0:
256,192,109679,1,0,0:0:0:0:
256,192,110179,1,8,0:0:0:0:
256,192,110679,1,0,0:0:0:0:
256,192,111179,1,8,0:0:0:0:
256,192,112179,1,4,0:0:0:0:
256,192,113179,1,4,0:0:0:0:
256,192,114179,1,4,0:0:0:0:
256,192,115179,1,4,0:0:0:0:
256,192,116179,1,4,0:0:0:0:
256,192,117179,1,4,0:0:0:0:
256,192,118179,1,8,0:0:0:0:
256,192,120179,1,0,0:0:0:0:
256,192,120429,1,0,0:0:0:0:
256,192,120679,1,8,0:0:0:0:
256,192,121179,1,0,0:0:0:0:
256,192,121429,1,0,0:0:0:0:
256,192,121679,1,8,0:0:0:0:
256,192,122179,1,0,0:0:0:0:
256,192,122429,1,0,0:0:0:0:
256,192,122679,1,8,0:0:0:0:
256,192,123179,1,0,0:0:0:0:
256,192,123429,1,0,0:0:0:0:
256,192,123679,1,8,0:0:0:0:
256,192,124179,1,0,0:0:0:0:
256,192,125179,1,8,0:0:0:0:
256,192,126179,1,8,0:0:0:0:
256,192,127179,1,0,0:0:0:0:
256,192,128179,1,0,0:0:0:0:
256,192,128429,1,0,0:0:0:0:
256,192,128679,1,8,0:0:0:0:
256,192,129179,1,0,0:0:0:0:
256,192,129429,1,0,0:0:0:0:
256,192,129679,1,8,0:0:0:0:
256,192,130179,1,0,0:0:0:0:
256,192,130429,1,0,0:0:0:0:
256,192,130679,1,8,0:0:0:0:
256,192,131179,1,0,0:0:0:0:
256,192,131429,1,0,0:0:0:0:
256,192,131679,1,8,0:0:0:0:
256,192,132179,1,4,0:0:0:0:
256,192,132929,12,0,134179,0:0:0:0:
