osu file format v14

[General]
AudioFilename: audio.mp3
AudioLeadIn: 0
PreviewTime: 18054
Countdown: 0
SampleSet: None
StackLeniency: 0.7
Mode: 2
LetterboxInBreaks: 0
WidescreenStoryboard: 0

[Editor]
DistanceSpacing: 1
BeatDivisor: 4
GridSize: 32
TimelineZoom: 1

[Metadata]
Title:Lesson by DJ
TitleUnicode:Lesson by DJ
Artist:U.T.D. & Friends
ArtistUnicode:U.T.D. & Friends
Creator:Ascendance
Version:Beginner
Source:DanceDanceRevolution HOTTEST PARTY
Tags:jeiryagtama DDRA Ace tatsh u1 asami scott dalph feel the rhythm with your soul
BeatmapID:2064850
BeatmapSetID:987101

[Difficulty]
HPDrainRate:3
CircleSize:2.5
OverallDifficulty:6
ApproachRate:6
SliderMultiplier:1.4
SliderTickRate:1

[Events]
//Background and Video events
0,0,"plain-white-background.jpg",0,0
//Break Periods
2,38379,57129
2,93379,102129
//Storyboard Layer 0 (Background)
//Storyboard Layer 1 (Fail)
//Storyboard Layer 2 (Pass)
//Storyboard Layer 3 (Foreground)
//Storyboard Sound Samples

[TimingPoints]
179,500,4,3,1,60,1,0
134179,-100,4,3,1,5,0,0

[Colours]
Combo1 : 192,192,192
Combo2 : 0,0,255
Combo3 : 128,0,255

[HitObjects]
190,300,3929,6,0,L|183:204,2,70,0|2|0,0:0|0:0|0:0,0:0:0:0:
307,228,4679,2,0,L|475:218,2,140,8|2|8,0:0|0:0|0:0,0:0:0:0:
204,220,5929,1,0,0:0:0:0:
100,286,6179,6,0,L|95:113,1,140,2|8,0:0|0:0,0:0:0:0:
276,216,7179,2,0,L|283:373,1,140,2|8,0:0|0:0,0:0:0:0:
108,205,8179,2,0,L|273:192,1,140,2|8,0:0|0:0,0:0:0:0:
388,94,9179,2,0,L|238:92,1,140,2|8,0:0|0:0,0:0:0:0:
125,199,10179,6,0,L|114:120,1,70,2|0,0:0|0:0,0:0:0:0:
245,298,10679,2,0,L|258:217,1,70,8|0,0:0|0:0,0:0:0:0:
113,334,11179,2,0,L|279:318,1,140,2|8,0:0|0:0,0:0:0:0:
444,323,12929,5,0,0:0:0:0:
330,341,13179,2,0,L|322:259,1,70,2|0,0:0|0:0,0:0:0:0:
212,246,13679,2,0,L|201:152,1,70,8|0,0:0|0:0,0:0:0:0:
299,124,14179,1,2,0:0:0:0:
137,100,15179,6,0,L|121:181,1,70,2|0,0:0|0:0,0:0:0:0:
228,186,15679,2,0,L|235:271,1,70,8|0,0:0|0:0,0:0:0:0:
121,290,16179,5,2,0:0:0:0:
246,224,16679,2,0,L|405:251,2,140,8|2|2,0:0|0:0|0:0,0:0:0:0:
110,143,18179,5,2,0:0:0:0:
248,142,18679,1,2,0:0:0:0:
393,174,19179,2,0,L|233:174,1,140,2|8,0:0|0:0,0:0:0:0:
147,173,19929,1,2,0:0:0:0:
295,268,20179,6,0,L|455:268,1,140,6|2,0:0|0:0,0:0:0:0:
256,192,21179,2,0,L|416:192,1,140,2|2,0:0|0:0,0:0:0:0:
217,268,22179,6,0,L|57:268,1,140,2|2,0:0|0:0,0:0:0:0:
256,192,23179,2,0,L|96:192,1,140,0|0,0:0|0:0,0:0:0:0:
332,351,24179,6,0,L|424:212,1,140
246,331,25179,2,0,L|252:241,1,70,2|0,0:0|0:0,0:0:0:0:
389,238,25679,2,0,L|400:160,1,70,8|0,0:0|0:0,0:0:0:0:
246,331,26179,6,0,L|154:192,1,140
332,311,27179,2,0,L|326:221,1,70,2|0,0:0|0:0,0:0:0:0:
189,218,27679,2,0,L|178:140,1,70,8|0,0:0|0:0,0:0:0:0:
272,112,28179,6,0,L|290:28,1,70,2|0,0:0|0:0,0:0:0:0:
376,141,28679,2,0,L|392:71,1,70,8|0,0:0|0:0,0:0:0:0:
479,168,29179,2,0,L|498:84,1,70,2|0,0:0|0:0,0:0:0:0:
260,252,30179,6,0,L|278:168,1,70,2|0,0:0|0:0,0:0:0:0:
364,281,30679,2,0,L|380:211,1,70,8|0,0:0|0:0,0:0:0:0:
467,308,31179,2,0,L|486:224,1,70,2|0,0:0|0:0,0:0:0:0:
191,324,32179,5,2,0:0:0:0:
307,271,32429,2,0,L|306:185,1,70,0|8,0:0|0:0,0:0:0:0:
201,153,32929,1,0,0:0:0:0:
86,242,33179,2,0,L|86:83,1,140,2|8,0:0|0:0,0:0:0:0:
194,66,33929,1,0,0:0:0:0:
303,59,34179,6,0,P|228:57|131:223,1,280,2|2,0:0|0:0,0:0:0:0:
141,330,35679,1,8,0:0:0:0:
310,52,36179,6,0,B|228:19|78:35|59:44|36:68|21:99|16:123|12:177|16:228|29:264|42:293|109:338,1,560,6|0,0:0|0:0,0:0:0:0:
112,192,58179,5,2,0:0:0:0:
250,192,58679,2,0,L|421:192,2,140,2|2|8,0:0|0:0|0:0,0:0:0:0:
58,285,60179,6,0,L|222:285,1,140,6|2,0:0|0:0,0:0:0:0:
22,168,61179,2,0,L|186:168,1,140,2|2,0:0|0:0,0:0:0:0:
357,297,62179,6,0,L|193:297,1,140,2|2,0:0|0:0,0:0:0:0:
393,180,63179,2,0,L|229:180,1,140,2|2,0:0|0:0,0:0:0:0:
419,82,64179,5,2,0:0:0:0:
243,85,64679,1,8,0:0:0:0:
419,82,65179,1,2,0:0:0:0:
243,85,65679,1,8,0:0:0:0:
40,82,66179,5,2,0:0:0:0:
216,85,66679,1,8,0:0:0:0:
40,82,67179,1,2,0:0:0:0:
216,85,67679,1,8,0:0:0:0:
394,86,68179,5,2,0:0:0:0:
216,85,68679,2,0,L|156:248,1,140,8|2,0:0|0:0,0:0:0:0:
394,86,70179,5,2,0:0:0:0:
216,85,70679,2,0,L|150:239,1,140,8|2,0:0|0:0,0:0:0:0:
69,91,72179,5,2,0:0:0:0:
247,90,72679,2,0,L|293:253,1,140,8|2,0:0|0:0,0:0:0:0:
67,89,74179,5,2,0:0:0:0:
245,88,74679,2,0,L|288:251,1,140,8|2,0:0|0:0,0:0:0:0:
256,192,76179,12,0,77679,0:0:0:0:
413,192,78179,5,2,0:0:0:0:
230,192,78679,1,8,0:0:0:0:
413,192,79179,1,2,0:0:0:0:
230,192,79679,1,8,0:0:0:0:
429,195,80179,2,0,L|436:50,1,140,2|8,0:0|0:0,0:0:0:0:
246,194,81179,1,2,0:0:0:0:
458,293,82179,5,2,0:0:0:0:
258,293,82679,1,8,0:0:0:0:
458,293,83179,1,2,0:0:0:0:
258,293,83679,1,8,0:0:0:0:
474,296,84179,2,0,L|481:151,1,140,2|8,0:0|0:0,0:0:0:0:
269,287,85179,1,2,0:0:0:0:
99,192,86179,5,2,0:0:0:0:
282,192,86679,1,8,0:0:0:0:
99,192,87179,1,2,0:0:0:0:
282,192,87679,1,8,0:0:0:0:
83,195,88179,2,0,L|76:50,1,140,2|8,0:0|0:0,0:0:0:0:
266,194,89179,1,2,0:0:0:0:
54,293,90179,5,2,0:0:0:0:
254,293,90679,1,8,0:0:0:0:
54,293,91179,1,2,0:0:0:0:
254,293,91679,1,8,0:0:0:0:
38,296,92179,2,0,L|31:151,1,140,2|8,0:0|0:0,0:0:0:0:
243,287,93179,1,2,0:0:0:0:
254,315,103179,6,0,L|254:101,1,210,0|0,0:0|0:0,0:0:0:0:
388,69,104179,5,6,0:0:0:0:
388,69,104679,1,8,0:0:0:0:
205,70,105179,1,2,0:0:0:0:
205,70,105679,1,8,0:0:0:0:
392,70,106179,1,2,0:0:0:0:
205,70,106679,1,8,0:0:0:0:
392,70,107179,1,2,0:0:0:0:
443,174,108179,5,6,0:0:0:0:
443,174,108679,1,8,0:0:0:0:
260,175,109179,1,2,0:0:0:0:
260,175,109679,1,8,0:0:0:0:
447,175,110179,1,2,0:0:0:0:
260,175,110679,1,8,0:0:0:0:
447,175,111179,5,2,0:0:0:0:
201,328,112179,6,0,L|196:169,1,140,2|2,0:0|0:0,0:0:0:0:
365,112,113179,2,0,L|374:269,1,140,8|2,0:0|0:0,0:0:0:0:
201,328,114179,2,0,L|196:169,1,140,2|2,0:0|0:0,0:0:0:0:
365,112,115179,2,0,L|374:269,1,140,8|2,0:0|0:0,0:0:0:0:
228,70,116179,6,0,L|68:52,1,140,2|2,0:0|0:0,0:0:0:0:
237,202,117179,2,0,L|384:185,1,140,8|2,0:0|0:0,0:0:0:0:
221,321,118179,2,0,L|135:300,2,70,0|0|8,0:0|0:0|0:0,0:0:0:0:
302,306,118929,1,0,0:0:0:0:
384,261,119179,2,0,L|377:116,1,140,2|8,0:0|0:0,0:0:0:0:
181,120,120179,6,0,L|147:198,1,70,2|0,0:0|0:0,0:0:0:0:
263,251,120679,1,8,0:0:0:0:
103,323,121179,1,2,0:0:0:0:
224,295,121429,1,0,0:0:0:0:
103,323,121679,1,8,0:0:0:0:
231,118,122179,6,0,L|197:196,1,70,2|0,0:0|0:0,0:0:0:0:
313,249,122679,1,8,0:0:0:0:
153,321,123179,1,2,0:0:0:0:
274,293,123429,1,0,0:0:0:0:
153,321,123679,1,8,0:0:0:0:
351,121,124179,6,0,L|356:262,1,140,2|8,0:0|0:0,0:0:0:0:
189,347,125179,2,0,L|173:200,1,140,2|8,0:0|0:0,0:0:0:0:
331,218,126179,2,0,L|416:231,2,70,2|0|0,0:0|0:0|0:0,0:0:0:0:
182,273,127179,2,0,L|24:267,1,140,8|8,0:0|0:0,0:0:0:0:
268,73,128179,6,0,L|234:151,1,70,2|0,0:0|0:0,0:0:0:0:
350,204,128679,1,8,0:0:0:0:
190,276,129179,1,2,0:0:0:0:
311,248,129429,1,0,0:0:0:0:
190,276,129679,1,8,0:0:0:0:
342,95,130179,6,0,L|308:173,1,70,2|0,0:0|0:0,0:0:0:0:
424,226,130679,1,8,0:0:0:0:
264,298,131179,1,2,0:0:0:0:
385,270,131429,1,0,0:0:0:0:
264,298,131679,1,8,0:0:0:0:
79,115,132179,5,4,0:0:0:0:
256,192,132679,12,0,134179,0:0:0:0:
